<?xml version="1.0" standalone="no"?>
<!DOCTYPE svg PUBLIC "-//W3C//DTD SVG 1.1//EN" "http://www.w3.org/Graphics/SVG/1.1/DTD/svg11.dtd" >
<svg xmlns="http://www.w3.org/2000/svg">
<metadata>
Created by FontPrep 20130207 at Tue Nov 22 10:26:03 2016
 By Alexander McMillan
Copyright (c) 2010, Sebastian Kosch (sebastian@aldusleaf.org),
with Reserved Font Name "Crimson Text".
This Font Software is licensed under the SIL Open Font License, Version 1.1.
This license is available with a FAQ at: http://scripts.sil.org/OFL
</metadata>
<defs>
<font id="bfe4717502f841845321b5f9b9f45ab7" horiz-adv-x='1024' >
  <font-face 
    font-family="CrimsonText-Bold"
    font-weight="700"
    font-stretch="normal"
    units-per-em="2048"
    panose-1="2 0 8 3 0 0 0 0 0 0"
    ascent="1434"
    descent="-614"
    x-height="864"
    cap-height="1324"
    bbox="-592 -1478 2480 2212"
    underline-thickness="102"
    underline-position="-204"
    unicode-range="U+0020-FFC4"
  />
<missing-glyph horiz-adv-x="748" 
d="M136 68h408v1228h-408v-1228zM68 0v1364h544v-1364h-544z" />
    <glyph glyph-name=".notdef" horiz-adv-x="748" 
d="M136 68h408v1228h-408v-1228zM68 0v1364h544v-1364h-544z" />
    <glyph glyph-name=".null" 
 />
    <glyph glyph-name="nonmarkingreturn" horiz-adv-x="682" 
 />
    <glyph glyph-name="space" unicode=" " horiz-adv-x="418" 
 />
    <glyph glyph-name="exclam" unicode="!" horiz-adv-x="386" 
d="M46 130q0 64 43 106t104 42t104 -42t43 -104t-41 -108t-100 -46t-106 44t-47 108zM197 1284q53 0 90 -37t37 -88t-32 -314t-52 -403q-10 -62 -66 -62q-16 0 -24 44q-18 116 -50 386t-32 336t38 102t91 36z" />
    <glyph glyph-name="quotedbl" unicode="&#x22;" horiz-adv-x="646" 
d="M492 1396h38q28 0 43 -25t15 -95t-30 -193t-36 -185q-2 -14 -15 -22t-25 -8q-26 0 -30 26q-10 94 -39 216t-29 157t36 82t72 47zM166 1396h36q30 0 45 -25t15 -95t-28 -194t-34 -184q-4 -30 -38 -30t-38 26q-10 94 -39 216t-29 156t37 82t73 48z" />
    <glyph glyph-name="numbersign" unicode="#" horiz-adv-x="946" 
d="M546 474l24 148h-164l-26 -148h166zM256 30h-46q-12 0 -19 5t-7 9l-2 4l46 294h-164q-12 0 -12 34t9 64t12 32t7 2h166l24 148h-206q-12 2 -12 36t9 64t12 32t7 2h208l48 304q0 18 114 18q22 0 22 -14l-2 -4l-46 -304h164l48 304q0 18 114 18q22 0 22 -14l-2 -4l-48 -304
h156q2 0 4 1t6 -3t4 -32t-18 -86l-12 -14h-158l-26 -148h200q2 0 4 1t6 -3t4 -32t-11 -63t-17 -35h-202l-48 -294l-6 -8q-12 -10 -54 -10h-46q-12 0 -19 5t-7 9v4l44 294h-164l-44 -294q0 -18 -62 -18z" />
    <glyph glyph-name="dollar" unicode="$" horiz-adv-x="928" 
d="M765 896q-41 0 -41 14q0 20 -29 92t-112 138l-61 -371q14 -9 106 -67t138 -102q110 -106 110 -259t-137 -256t-307 -103q-18 0 -38 1l-10 -63q-78 0 -78 18l9 53q-94 12 -221 41q-34 130 -44 318q-2 20 38 20t56 -8q18 -76 74 -149q56 -72 117 -98l67 412q-5 3 -70 44
q-66 41 -88 56t-66 54q-116 103 -116 253t129 251t279 101q28 0 56 -2l8 52q78 0 78 -16l-7 -45q61 -9 111 -23t60 -16q44 -172 44 -320q-14 -20 -55 -20zM472 1178q-74 0 -115 -44t-41 -125t134 -188l58 353q-17 4 -36 4zM440 92q70 0 120 55t50 130t-56 131q-32 32 -79 68
l-63 -383q14 -1 28 -1z" />
    <glyph glyph-name="percent" unicode="%" horiz-adv-x="1320" 
d="M170 -8q-60 0 -66 28l962 1244q24 28 38 28q64 0 106 -34l-962 -1244q-18 -22 -78 -22zM954 612q132 0 224 -90t92 -216t-92 -215t-224 -89t-223 89t-91 215t91 216t223 90zM936 536q-58 0 -82 -56t-24 -132q0 -272 138 -272q56 0 82 55t26 129q0 276 -140 276zM360 1284
q132 0 224 -90t92 -216t-92 -215t-224 -89t-223 89t-91 215t91 216t223 90zM340 1210q-104 0 -104 -190q0 -270 138 -270q56 0 82 55t26 127q0 278 -142 278z" />
    <glyph glyph-name="ampersand" unicode="&#x26;" horiz-adv-x="1402" 
d="M968 524q0 36 -64 36h-28q-4 16 -4 39t6 25l206 -2q88 0 222 6q10 -4 10 -38t-16 -38q-100 -14 -123 -30t-66 -66t-92 -111t-71 -83q82 -98 130 -98t84 35t56 69q14 0 35 -17t21 -31q-16 -46 -97 -136t-159 -90t-137 27t-85 55l-26 28q-128 -112 -306 -112t-296 82
t-118 238t109 257q79 73 183 139q-27 36 -58 99q-30 63 -44 101t-14 92q0 152 103 231t255 81t244 -67t92 -185t-72 -200t-208 -168q80 -128 222 -310q106 124 106 142zM579 1206q-61 0 -87 -46t-26 -91t7 -73t20 -56t23 -46t28 -47t20 -33q74 52 108 102t34 119t-33 120
t-94 51zM330 326q0 -106 54 -160t140 -54t154 90q-38 43 -206 296l-50 78q-92 -66 -92 -250z" />
    <glyph glyph-name="quotesingle" unicode="'" horiz-adv-x="400" 
d="M208 1396h38q28 0 43 -25t15 -95t-30 -193t-36 -185q-2 -14 -15 -22t-25 -8q-26 0 -30 26q-10 94 -39 216t-29 157t36 82t72 47z" />
    <glyph glyph-name="parenleft" unicode="(" horiz-adv-x="618" 
d="M304 598q0 -294 96 -532t170 -278q4 -2 4 -13t-7 -30t-25 -19t-74 39t-127 118t-135 182t-108 248t-44 295t43 295t107 248t134 184t127 121t85 40q10 0 17 -20t7 -29t-2 -11q-94 -66 -181 -305t-87 -533z" />
    <glyph glyph-name="parenright" unicode=")" horiz-adv-x="618" 
d="M314 603q0 289 -87 529t-181 304q-2 2 -2 11t7 29t17 20q40 0 119 -69t165 -181t149 -285t63 -351t-63 -351t-148 -284t-165 -180t-120 -69q-10 0 -17 18t-7 30t4 14q76 36 171 281t95 534z" />
    <glyph glyph-name="asterisk" unicode="*" horiz-adv-x="832" 
d="M656 1270q36 0 57 -24t18 -58t-30 -60t-114 -74t-87 -70l12 -12q34 -16 112 -30t112 -33t44 -53t-6 -61t-49 -35t-66 9t-108 87t-93 60l-10 -14q-4 -36 6 -115t2 -116t-36 -58t-58 -13t-49 36t-13 64t49 126t31 108l-18 2q-36 -6 -107 -41t-109 -39t-66 17t-32 53t18 58
t58 30t115 -6q127 -16 137 4l-4 16q-18 32 -73 90t-70 93t-3 68t40 45q30 12 61 0t46 -45t36 -136t41 -103q37 31 75 106q39 74 67 99t64 25z" />
    <glyph glyph-name="plus" unicode="+" horiz-adv-x="1064" 
d="M458 28v382q0 10 -12 10h-382q-12 0 -12 40t9 70t12 32t7 2h368q10 0 10 12v364q-2 10 10 14q54 16 114 16l20 -12v-384q0 -10 8 -10h384q16 0 16 -14q0 -44 -12 -87t-18 -43h-370q-8 0 -8 -6v-368q-24 -16 -132 -34q-12 0 -12 16z" />
    <glyph glyph-name="comma" unicode="," horiz-adv-x="438" 
d="M188 -62q0 26 -38 70t-38 100t40 108t105 52t95 -22q28 -62 28 -125t-28 -161q-36 -98 -108 -180t-148 -116h-4q-12 0 -28 27t-16 41q0 2 35 22t70 68t35 116z" />
    <glyph glyph-name="hyphen" unicode="-" horiz-adv-x="650" 
d="M72 386q-10 0 -10 33t7 74t17 41h2l482 24h2q12 0 12 -56t-20 -82l-6 -12l-482 -22h-4z" />
    <glyph glyph-name="period" unicode="." horiz-adv-x="408" 
d="M352 131q0 -61 -41 -107t-102 -46t-106 47t-45 107t43 103t104 43t104 -43t43 -104z" />
    <glyph glyph-name="slash" unicode="/" horiz-adv-x="850" 
d="M170 -53q-42 -17 -80 -17t-46 14l592 1534q20 44 84 44t88 -12l-592 -1534q-4 -12 -46 -29z" />
    <glyph glyph-name="zero" unicode="0" horiz-adv-x="1030" 
d="M54 622q0 256 141 442t324 186t320 -185t137 -443t-137 -443t-320 -185t-324 186t-141 442zM334 628q0 -234 55 -382t133 -148q88 0 131 144t43 387t-46 382t-128 139q-88 0 -138 -144t-50 -378z" />
    <glyph glyph-name="one" unicode="1" horiz-adv-x="692" 
d="M373 8q-95 0 -255 -16q-8 8 -8 41t8 33q22 0 70 18t52 34q12 48 12 114v672q0 100 -40 100q-30 0 -140 -66q-12 6 -21 22t-9 31t4 19q240 156 346 216t110 60h4q16 0 24 -38q-18 -58 -18 -188v-802q0 -82 16 -144q4 -14 51 -31t63 -17q6 0 6 -33t-4 -41q-176 16 -271 16z
" />
    <glyph glyph-name="two" unicode="2" horiz-adv-x="950" 
d="M711 1191q99 -93 99 -241t-77 -267q-45 -69 -75 -112q-56 -81 -348 -349q-4 -4 -2 -11t10 -7h342q85 0 116 55t48 123q4 14 34 14t46 -12q-40 -170 -78 -356q-4 -28 -24 -28h-732q-22 24 -24 66q192 212 338 451t146 385q0 86 -46 151t-124 65q-50 0 -93 -21t-63 -43
t-40 -50l-20 -28q-16 0 -37 15t-21 35q33 74 95 138q117 120 274 120t256 -93z" />
    <glyph glyph-name="three" unicode="3" horiz-adv-x="912" 
d="M493 1284q97 0 172 -59t75 -163t-56 -187t-114 -119q78 0 184 -94t106 -234q0 -198 -172 -317t-382 -119q-128 0 -234 68q-12 32 -12 68t19 73t71 37t105 -71t144 -71t141 73t50 198t-56 198t-154 73q-46 0 -110 -10q-14 18 -14 47t6 43q114 18 179 89t65 166t-37 133
t-85 38q-114 0 -188 -84q-14 0 -30 20t-16 34q58 76 152 123t191 47z" />
    <glyph glyph-name="four" unicode="4" horiz-adv-x="984" 
d="M576 488v402q0 18 -6 18q-4 -2 -6 -4l-328 -392q-2 -2 -2 -6q0 -18 14 -18h328zM936 368q0 -14 -18 -20h-94v-340q-48 -18 -148 -18t-100 26v332h-498q-30 30 -30 96l686 816q24 28 57 28t33 -20v-780h82q30 0 30 -120z" />
    <glyph glyph-name="five" unicode="5" horiz-adv-x="896" 
d="M748 1186q0 -76 -22 -116q-174 -6 -283 -6h-125q-24 -2 -26 -18l-38 -222q84 20 162 20q154 0 290 -111t136 -263q0 -204 -161 -340t-393 -136q-128 0 -234 68q-12 32 -12 68t19 73t71 37t105 -71t148 -71t141 82t46 199t-67 197t-165 80t-172 -22l-22 -6q-22 12 -34 28
q6 13 112 620q464 0 508 10q16 -24 16 -100z" />
    <glyph glyph-name="six" unicode="6" horiz-adv-x="920" 
d="M470 -12q-162 0 -289 115t-127 288q0 333 240 573q208 208 494 326q26 -5 32 -50q2 -14 4 -18q-168 -72 -290 -199t-168 -271q-6 -28 4 -42q58 24 114 24q158 0 271 -107t113 -257t-118 -266t-280 -116zM600 353q0 277 -164 277q-84 0 -98 -56q-12 -46 -14 -194
q0 -288 152 -288q68 0 96 62t28 199z" />
    <glyph glyph-name="seven" unicode="7" horiz-adv-x="940" 
d="M290 1072q-55 0 -83 -36q-11 -14 -18 -22t-15 -28t-11 -28t-10 -31t-10 -31t-40 -11t-49 9q48 182 88 358q6 24 38 24h590q30 0 82 4l52 2q14 0 14 -25t-54 -127l-548 -1150q-6 -2 -24 -2t-40 20t-22 48l508 1026h-448z" />
    <glyph glyph-name="eight" unicode="8" horiz-adv-x="928" 
d="M462 1266q150 0 268 -77t118 -211q0 -162 -220 -296q-4 -2 -4 -7t3 -7t30 -21t44 -33t47 -40q49 -42 90 -105q42 -62 42 -129q0 -156 -129 -254t-299 -98t-287 81t-117 249q0 188 234 312q12 6 2 13t-36 29t-38 33t-35 35q-28 29 -58 88q-31 59 -31 144q0 128 113 211
t263 83zM462 1160q-116 0 -116 -172q0 -54 26 -99t44 -60q73 -61 89 -61q15 0 19 4q64 62 64 194q0 194 -126 194zM463 92q69 0 109 51t40 110q0 106 -81 185q-54 52 -94 83q-41 31 -51 31t-14 -2q-56 -30 -56 -232q0 -90 39 -158t108 -68z" />
    <glyph glyph-name="nine" unicode="9" horiz-adv-x="906" 
d="M444 1290q162 0 289 -115t127 -288q0 -333 -240 -573q-208 -208 -494 -326q-36 8 -36 68q168 72 290 199t168 271q6 28 -4 42q-58 -24 -114 -24q-158 0 -271 107t-113 257t118 266t280 116zM314 925q0 -277 164 -277q84 0 98 56q12 46 14 194q0 288 -152 288
q-68 0 -96 -62t-28 -199z" />
    <glyph glyph-name="colon" unicode=":" horiz-adv-x="404" 
d="M350 133q0 -61 -41 -108t-102 -47t-106 47t-45 108t45 104t106 43t102 -43t41 -104zM350 717q0 -61 -41 -108t-102 -47t-106 47t-45 108t45 104t106 43t102 -43t41 -104z" />
    <glyph glyph-name="semicolon" unicode=";" horiz-adv-x="430" 
d="M170 -36q0 30 -31 69t-31 85t40 98t109 52t91 -16q28 -74 28 -126t-10 -108t-16 -68q-34 -86 -120 -176t-138 -110h-4q-12 0 -28 27t-16 41q0 2 31 29t63 81t32 122zM80 717q0 61 45 104t106 43t102 -43t41 -104t-41 -108t-102 -47t-106 47t-45 108z" />
    <glyph glyph-name="less" unicode="&#x3c;" horiz-adv-x="928" 
d="M878 87q0 -13 -12 -65t-17 -52t-13 4l-750 380q-36 20 -36 80q0 30 36 48l746 374q8 4 10 4q12 0 34 -114l-6 -18l-636 -310l638 -316q6 -2 6 -15z" />
    <glyph glyph-name="equal" unicode="=" horiz-adv-x="1060" 
d="M92 646h898q8 0 8 -29t-12 -72t-18 -43h-892q-14 0 -14 20q10 124 30 124zM998 352q0 -48 -12 -91t-18 -43h-892q-14 0 -14 36t10 70t13 36t7 2h890q16 0 16 -10z" />
    <glyph glyph-name="greater" unicode="&#x3e;" horiz-adv-x="934" 
d="M90 860q2 0 10 -4l746 -374q36 -18 36 -48q0 -60 -36 -80l-750 -380q-8 -4 -13 -4t-17 52t-12 68l6 12l638 316l-636 310l-6 18q22 114 34 114z" />
    <glyph glyph-name="question" unicode="?" horiz-adv-x="700" 
d="M182 1044q-54 0 -95 42t-41 98t18 82q52 26 118 26q176 -8 324 -99t148 -245t-60 -231t-182 -131q-24 -10 -68 -28t-66 -35t-22 -62t-21 -63t-37 -18q-26 0 -30 37t-9 126t14 138t79 79q136 68 183 109t47 103q0 100 -114 100q-34 0 -83 -14t-103 -14zM62 130
q0 64 43 106t104 42t104 -42t43 -104t-41 -108t-100 -46t-106 44t-47 108z" />
    <glyph glyph-name="at" unicode="@" horiz-adv-x="1562" 
d="M924 674q0 44 -64 44q-88 0 -172 -119t-84 -313q0 -102 17 -141t55 -39q66 0 139 105t77 153l30 280q2 12 2 30zM1382 428q0 260 -146 435t-407 175t-443 -165t-182 -427q0 -318 164 -508t520 -190q70 0 140 26q4 -16 4 -18q0 -38 -67 -68t-205 -30t-276 66t-231 169
t-146 229t-53 248q0 360 232 572t578 212q144 0 268 -63t205 -163t126 -221t45 -250t-34 -230t-90 -153q-108 -100 -225 -100t-186 50t-69 114q0 6 -10 -4q-24 -52 -102 -100t-178 -48t-165 92t-65 204q0 212 157 375t411 163q72 0 168 -12l34 -6q-10 -66 -14 -106l-42 -410
q-4 -40 -4 -56q-4 -162 74 -162q214 0 214 360z" />
    <glyph glyph-name="A" unicode="A" horiz-adv-x="1440" 
d="M662 546q84 0 146 4l6 10l-144 358l-156 -358q0 -8 4 -8q60 -6 144 -6zM246 8l-216 -16q-8 8 -8 40t4 32q24 0 80 21t75 50t55 109l452 1040q22 52 74 52q30 0 48 -26l410 -1014q38 -92 66 -164q12 -32 66 -49t82 -17q8 0 8 -34t-4 -40l-290 16q-14 0 -302 -16
q-8 8 -8 41t8 33q44 0 90 19t46 51q0 4 -50 134l-60 146q-8 8 -30 9t-165 1t-213 -2q-8 0 -14 -10l-66 -152q-40 -90 -40 -122t42 -53t104 -21q6 -2 6 -32t-4 -42q-208 16 -246 16z" />
    <glyph glyph-name="B" unicode="B" horiz-adv-x="1210" 
d="M804 964q0 248 -184 248q-88 0 -116 -8q-18 -4 -18 -24v-410q0 -28 91 -28t124 17t49 31t35 59t19 115zM206 286v756q0 110 -12 156q-6 16 -59 36t-75 20q-8 0 -8 34t6 40q160 -10 260 -10t336 4q159 0 297 -78q71 -40 115 -112t44 -171t-60 -167t-106 -86
q-16 -6 -10 -12q70 -12 146 -99t76 -223q0 -172 -140 -275t-368 -99l-294 4q-74 0 -250 -8l-42 -4q-8 8 -8 41t8 33q24 0 75 14t57 30q12 46 12 176zM610 630q-124 0 -124 -28v-450q0 -18 17 -30t147 -12q206 0 206 242q0 278 -246 278z" />
    <glyph glyph-name="C" unicode="C" horiz-adv-x="1276" 
d="M690 -14q-264 0 -452 195t-188 471t189 479t471 203q218 0 458 -58q10 -2 25 -134t15 -162t-54 -30q-2 0 -32 6q-23 82 -84 145q-118 121 -318 121q-358 0 -358 -536q0 -250 110 -421t312 -171q148 0 256 108q42 42 79 147q11 31 13 31q82 0 90 -20q0 -28 -31 -156
t-51 -136q-224 -82 -450 -82z" />
    <glyph glyph-name="D" unicode="D" horiz-adv-x="1448" 
d="M486 1048v-776q0 -130 18 -140q44 -26 219 -26t267 144t92 430q0 220 -97 373t-269 153h-10q-170 0 -195 -34t-25 -124zM54 33q0 33 8 33q24 0 75 14t57 30q12 46 12 176v756q0 110 -12 156q-6 16 -59 36t-75 20q-8 0 -8 34t6 40q160 -10 294 -10h348q326 0 510 -193
t184 -467t-186 -469t-510 -195l-344 10l-292 -12q-8 8 -8 41z" />
    <glyph glyph-name="E" unicode="E" horiz-adv-x="1196" 
d="M54 33q0 33 8 33q24 0 75 14t57 30q12 46 12 176v756q0 110 -12 156q-6 16 -59 36t-75 20q-8 0 -8 34t6 40q160 -10 294 -10l646 10q2 -20 58 -296q-10 -10 -39 -10t-35 14q-38 76 -120 130t-160 54h-76q-126 0 -130 -26q-10 -48 -10 -156v-308q0 -12 86 -12h106
q124 0 136 8q10 8 15 48t13 68q2 14 33 14t41 -10v-378q-8 -8 -38 -8t-36 16q-26 92 -34 100t-14 11t-8 5q-26 16 -163 16t-137 -18v-308q0 -96 16 -142q10 -32 136 -32h52q124 0 224 52q34 18 77 68t67 112q2 12 39 12t49 -12q-98 -276 -108 -344l-684 8l-292 -12
q-8 8 -8 41z" />
    <glyph glyph-name="F" unicode="F" horiz-adv-x="1106" 
d="M1017 1022q-29 0 -35 14q-38 76 -120 130t-160 54h-76q-126 0 -130 -26q-10 -48 -10 -156v-308q0 -12 86 -12h106q124 0 136 8q10 8 15 48t13 68q2 14 33 14t41 -10v-378q-8 -8 -38 -8t-36 16q-26 92 -34 100t-14 11t-8 5q-26 16 -163 16t-137 -18v-308q0 -102 14 -164
q6 -24 66 -38t90 -14q8 0 8 -31t-4 -43q-240 12 -306 12l-292 -12q-8 8 -8 41t8 33q24 0 75 14t57 30q12 46 12 176v756q0 110 -12 156q-6 16 -59 36t-75 20q-8 0 -8 34t6 40q180 -10 294 -10l646 10q2 -20 58 -296q-10 -10 -39 -10z" />
    <glyph glyph-name="G" unicode="G" horiz-adv-x="1410" 
d="M1056 596q56 0 296 12q6 -18 6 -47t-8 -29q-46 0 -106 -30q-32 -16 -32 -158v-116q0 -36 6 -54t6 -22q0 -34 -42 -56q-74 -38 -115 -55t-146 -38t-235 -21q-264 0 -450 197t-186 472t192 479t466 204q218 0 458 -58q10 -2 28 -151t18 -177q0 -16 -39 -16t-59 10
q-21 81 -98 168q-44 50 -122 81t-176 31q-360 0 -360 -532q0 -334 177 -502q99 -94 247 -94q88 0 128 32q22 18 22 60v140q0 102 -15 155t-131 53q-8 0 -9 33t7 41q216 -12 272 -12z" />
    <glyph glyph-name="H" unicode="H" horiz-adv-x="1454" 
d="M822 66q22 0 74 18t58 34q12 46 12 158v334l-4 8q-482 10 -482 -2l4 -4v-328q0 -106 16 -168q4 -14 55 -32t69 -18q8 0 9 -30t-5 -44l-288 16q-40 0 -280 -16q-8 8 -8 41t4 33q24 0 76 16t58 32q14 54 14 162v764q0 122 -14 156q-10 22 -56 38t-70 16q-8 0 -8 35t4 39
q276 -12 303 -12t267 12q6 -10 6 -42t-8 -32q-18 0 -70 -17t-58 -31q-16 -42 -16 -170v-284l4 -6q196 -4 245 -4t229 4q4 4 4 8v290q0 104 -14 158q-6 16 -55 34t-71 18q-8 0 -9 33t7 41q276 -12 302 -12t266 12q6 -18 6 -46t-10 -28q-18 0 -70 -17t-56 -31
q-16 -60 -16 -170v-748q0 -108 16 -170q4 -14 55 -30t69 -16q8 0 8 -29t-6 -47l-270 16q-90 0 -298 -16q-8 8 -7 41t9 33z" />
    <glyph glyph-name="I" unicode="I" horiz-adv-x="692" 
d="M52 33q0 33 6 33q22 0 74 17t58 33q14 54 14 160v768q0 128 -13 150t-59 39t-68 17q-8 0 -8 35t4 39q30 -2 115 -8t150 -5t305 13q6 -18 6 -46t-8 -28q-18 0 -72 -17t-58 -31q-14 -56 -14 -140v-770q0 -114 16 -176q4 -14 55 -32t69 -18q8 0 8 -31t-4 -43l-278 16
q-66 0 -290 -16q-8 8 -8 41z" />
    <glyph glyph-name="J" unicode="J" horiz-adv-x="986" 
d="M661 1312q27 0 267 12q6 -18 6 -46t-8 -28q-18 0 -72 -17t-58 -31q-14 -54 -14 -170v-746q0 -340 -159 -531t-433 -191q-68 0 -114 36q-30 48 -30 101t38 89t87 36t104 -61t83 -61q88 0 116 140t28 426v774q0 128 -13 150t-59 39t-68 17q-8 0 -8 35t4 39q276 -12 303 -12
z" />
    <glyph glyph-name="K" unicode="K" horiz-adv-x="1482" 
d="M52 33q0 33 6 33q22 0 74 17t58 33q14 54 14 160v768q0 128 -13 150t-59 39t-68 17q-8 0 -8 35t4 39q276 -12 303 -12t267 12q6 -18 6 -46t-8 -28q-18 0 -72 -17t-58 -31q-14 -54 -14 -170v-316q0 -16 12 -16h16q14 0 137 126t315 346q16 20 16 46q0 20 -44 28t-76 8
q-8 0 -12 28t0 42q222 -12 257 -12t275 12q4 -8 3 -39t-7 -31l-12 -2q-106 0 -191 -55q-17 -11 -29 -25l-344 -380q-26 -30 -2 -58l474 -618q22 -26 69 -38t71 -12q8 0 8 -29t-8 -45l-302 16q-108 0 -284 -16q-8 8 -8 41t8 33q22 0 58 12t36 28q0 64 -356 466q-6 6 -28 6
q-52 0 -52 -34v-252q0 -114 16 -176q4 -14 55 -32t69 -18q8 0 8 -31t-4 -43l-278 16q-66 0 -290 -16q-8 8 -8 41z" />
    <glyph glyph-name="L" unicode="L" horiz-adv-x="1196" 
d="M52 33q0 33 8 33q24 0 75 14t57 30q12 46 12 176v764q0 122 -13 144t-59 39t-68 17q-8 0 -8 35t4 39q276 -12 303 -12t267 12q6 -18 6 -46t-8 -28q-18 0 -72 -17t-58 -31q-14 -54 -14 -160v-758q0 -98 16 -144q10 -32 136 -32h52q124 0 224 52q34 18 77 68t67 112
q4 12 40 12t48 -12q-98 -276 -108 -344l-684 8l-292 -12q-8 8 -8 41z" />
    <glyph glyph-name="M" unicode="M" horiz-adv-x="1836" 
d="M382 1312q64 0 208 12q20 -64 164 -377t214 -487h4q4 0 4 2q154 382 244 630l66 224q36 -4 105 -4t309 12q8 -12 8 -43t-10 -31h-2q-116 0 -112 -106q27 -533 40 -840q6 -122 30 -184q8 -18 53 -36t63 -18q8 0 8 -31t-4 -43q-176 16 -248 16t-296 -16q-10 10 -10 42t6 32
q22 0 68 18t59 43t13 61t-4 108l-16 508q-8 134 -14 134t-12 -14l-346 -862q-8 -20 -32 -43t-39 -23t-27 4l-440 988l-34 -770q0 -58 2 -72q6 -26 88 -53t108 -27q8 0 8 -31t-4 -43l-276 16q-12 0 -268 -16q-8 8 -8 40t6 32q36 0 117 30t85 74t9 121t13 280t14 391t7 212
t-5 39t-64 28t-84 13q-8 0 -8 32t8 40q168 -12 232 -12z" />
    <glyph glyph-name="N" unicode="N" horiz-adv-x="1554" 
d="M359 1308q43 0 171 16q56 -111 388 -516q156 -190 248 -312q4 14 4 82v470q0 114 -22 140t-79 44t-81 18q-8 0 -10 33t4 41q184 -16 252 -16t260 16q8 -16 8 -45t-10 -29q-110 0 -166 -66q-28 -34 -28 -146v-760q0 -72 8 -280q-8 -8 -41 -8t-71 46l-814 1012v-766
q0 -110 17 -143t83 -52t96 -19q6 0 7 -34t-3 -42l-270 16q-52 0 -132 -7t-116 -9q-6 6 -6 40t6 34q55 0 104 23q48 23 67 54t19 145v786q0 104 -30 142q-10 14 -70 24t-88 10q-8 0 -10 33t6 41q256 -16 299 -16z" />
    <glyph glyph-name="O" unicode="O" horiz-adv-x="1390" 
d="M50 656q0 280 189 479t453 199t454 -199t190 -479t-190 -478t-454 -198t-453 198t-189 478zM661 1222q-105 0 -175 -77q-124 -136 -124 -445q0 -207 77 -395q39 -95 113 -154t172 -59q150 0 225 152t75 375t-72 400q-38 93 -112 148t-179 55z" />
    <glyph glyph-name="P" unicode="P" horiz-adv-x="1144" 
d="M1090 958q0 -162 -125 -280t-303 -118q-60 0 -94 19t-40 28t-8 41t8 32q26 -16 90 -16q168 0 168 273t-184 273q-70 0 -93 -17t-23 -195v-716q0 -102 14 -164q6 -24 66 -38t90 -14q8 0 8 -31t-4 -43q-240 12 -306 12l-292 -12q-8 8 -8 41t8 33q24 0 75 14t57 30
q12 46 12 176v756q0 110 -12 156q-6 16 -59 36t-75 20q-8 0 -8 34t6 40q180 -10 294 -10l256 6q269 0 404 -151q78 -87 78 -215z" />
    <glyph glyph-name="Q" unicode="Q" horiz-adv-x="1550" 
d="M1305 -148q55 0 89 5t56 10t26 5q24 0 24 -40v-10q-86 -46 -196 -77t-202 -31t-190 56t-205 130t-185 98t-154 76t-150 132t-121 199t-47 251q0 280 187 479t451 199t452 -199t188 -467t-147 -448t-301 -210q52 -24 119 -62t100 -54t92 -29t114 -13zM658 1206
q-156 0 -228 -142t-72 -357t77 -398q39 -93 113 -150t172 -57q150 0 225 147t75 369t-72 392q-38 90 -112 143t-178 53z" />
    <glyph glyph-name="R" unicode="R" horiz-adv-x="1418" 
d="M1092 984q0 -134 -78 -234t-168 -130q-16 -6 -6 -22q86 -144 139 -217t91 -129t119 -121t157 -65q8 -10 8 -34t-8 -42q-28 -4 -98 -4t-151 19t-130 43t-98 72t-73 80t-54 79t-62 97q-57 89 -95 145q-38 55 -59 63q-6 2 -23 2t-17 -32v-272q0 -102 14 -164q6 -24 66 -38
t90 -14q8 0 8 -31t-4 -43q-240 12 -306 12l-292 -12q-8 8 -8 41t8 33q24 0 75 14t57 30q12 46 12 176v756q0 110 -12 156q-6 16 -59 36t-75 20q-8 0 -8 34t6 40q184 -10 294 -10l280 2q146 0 290 -70q74 -36 122 -105t48 -161zM602 1210q-70 0 -92 -16t-24 -196v-216
q0 -75 54 -84q12 -2 30 -2h54q78 0 121 68t43 180q0 266 -186 266z" />
    <glyph glyph-name="S" unicode="S" horiz-adv-x="966" 
d="M488 1340q92 0 198 -25t138 -31q22 -194 22 -332q-8 -20 -30 -20q-58 0 -62 14q-14 100 -86 191t-178 91q-68 0 -115 -42t-47 -141t164 -209q102 -68 172 -110t91 -57q83 -59 120 -131t37 -188q0 -160 -132 -265t-297 -105t-387 52q-16 64 -31 175t-15 157q6 20 52 20
t48 -12q16 -92 100 -185t186 -93q198 0 198 218q0 87 -136 184q-28 20 -116 75q-156 98 -238 182t-82 229q0 146 133 252t293 106z" />
    <glyph glyph-name="T" unicode="T" horiz-adv-x="1330" 
d="M1233 1006q-31 0 -33 10q-50 198 -213 198t-171 -36q-16 -56 -16 -178v-722q0 -100 16 -162q4 -14 55 -32t69 -18q8 0 8 -31t-4 -43l-278 16q-66 0 -290 -16q-8 8 -8 41t6 33q22 0 74 17t58 33q14 54 14 154v724q0 174 -23 197t-157 23q-82 0 -134 -45t-80 -151
q-2 -10 -33 -10t-45 14l38 326q88 -22 138 -22l438 -12l440 12q50 0 138 22l38 -328q-14 -14 -45 -14z" />
    <glyph glyph-name="U" unicode="U" horiz-adv-x="1506" 
d="M1186 1308q68 0 260 16q8 -16 8 -45t-10 -29q-110 0 -166 -66q-28 -34 -28 -146v-456q0 -292 -143 -442t-379 -150t-384 152t-148 480v422q0 128 -13 150t-59 39t-68 17q-8 0 -8 35t4 39q276 -12 303 -12t267 12q6 -18 6 -46t-8 -28q-18 0 -72 -17t-58 -31
q-14 -54 -14 -170v-474q0 -184 83 -296t228 -112t240 97t95 325v476q0 114 -22 140t-79 44t-81 18q-8 0 -10 33t4 41q184 -16 252 -16z" />
    <glyph glyph-name="V" unicode="V" horiz-adv-x="1458" 
d="M634 1283q0 -33 -8 -33q-34 0 -83 -18t-49 -54q0 -18 46 -132l268 -660l282 658q40 90 40 128t-41 58t-101 20q-6 2 -6 32t4 42q28 -2 103 -9t125 -7t122 7t110 9q8 -8 8 -40t-4 -32q-22 0 -70 -17t-78 -41q-16 -14 -76 -146l-432 -994q-16 -34 -41 -54t-49 -20t-42 26
l-410 1014q-60 150 -66 164q-12 32 -65 49t-81 17q-8 0 -8 34t4 40l288 -16q14 0 302 16q8 -8 8 -41z" />
    <glyph glyph-name="W" unicode="W" horiz-adv-x="2188" 
d="M304 1312q20 0 260 12q4 -12 5 -42t-5 -32q-92 0 -92 -68l24 -62l368 -730q10 -22 30 10l124 220l-220 434q-62 122 -86 146q-50 50 -116 50q-8 0 -8 35t4 39q276 -12 289 -12t253 12q4 -12 5 -42t-5 -32q-32 0 -62 -15t-30 -49l24 -62l116 -230l96 190q40 82 40 106
t-44 43t-104 19q-8 0 -9 32t7 40q192 -12 220 -12t268 12q4 -12 5 -41t-5 -31q-30 0 -78 -19t-68 -41q-54 -58 -112 -172l-140 -276l174 -342q10 -20 26 8l342 678q36 72 36 100q0 34 -53 49t-89 15q-8 0 -9 32t7 40q192 -12 220 -12t268 12q6 -16 6 -44t-6 -28
q-30 0 -76 -18t-66 -38q-56 -60 -116 -176l-494 -982q-32 -64 -68 -64q-16 0 -22 10l-246 482l-240 -428q-36 -64 -68 -64q-12 0 -18 10l-542 1070q-54 106 -92 154q-16 20 -55 31t-65 11q-8 0 -8 35t4 39q276 -12 296 -12z" />
    <glyph glyph-name="X" unicode="X" horiz-adv-x="1536" 
d="M708 1250q-30 0 -67 -11t-39 -31q0 -20 16 -44l222 -336q24 30 66 81q200 243 200 273t-47 49t-101 19q-8 0 -9 33t7 41q222 -12 248 -12t266 12q6 -10 6 -42t-8 -32q-28 0 -86 -18t-92 -60l-374 -460q344 -518 381 -561t90 -64t79 -21q6 0 6 -31t-6 -43q-240 12 -292 12
l-316 -12q-8 8 -6 41t10 33q26 0 69 16t43 40q0 12 -6 22l-260 394q-280 -372 -280 -404t48 -50t100 -18q10 0 10 -33t-4 -41q-198 12 -239 12t-281 -12q-8 24 -8 49t8 25q26 0 90 19t86 49l386 530l-268 410q-84 130 -117 153t-97 23q-8 0 -8 33t8 41l282 -12q48 0 288 12
q4 -8 3 -41t-7 -33z" />
    <glyph glyph-name="Y" unicode="Y" horiz-adv-x="1338" 
d="M337 1312q63 0 303 12q4 -8 3 -41t-7 -33q-30 0 -67 -11t-39 -31q0 -16 16 -44l200 -354q10 -10 20 4q58 84 138 222t80 170q0 44 -128 44q-8 0 -9 33t7 41q180 -12 237 -12t231 12q6 -18 6 -45t-8 -27q-36 0 -82 -18t-74 -54q-52 -70 -201 -308t-149 -264v-318
q0 -112 16 -174q4 -14 55 -32t69 -18q8 0 8 -31t-4 -43l-278 16q-66 0 -290 -16q-8 8 -8 41t6 33q22 0 74 17t58 33q14 54 14 162v340q0 23 -188 350l-62 106q-66 122 -112 149t-102 27q-8 0 -8 33t8 41q204 -12 267 -12z" />
    <glyph glyph-name="Z" unicode="Z" horiz-adv-x="1270" 
d="M60 47q0 29 8 39l736 1112h-342q-143 0 -196 -64q-30 -36 -41 -59t-25 -61t-18 -48t-44 -10t-48 8q48 254 60 360q48 -12 324 -12h218q184 0 464 20q6 -2 13 -26t7 -40l-730 -1102q-14 -20 -14 -30q0 -20 28 -20h318q140 0 229 67t123 167q6 12 40 12t48 -12
q-100 -283 -108 -348h-1034q-16 18 -16 47z" />
    <glyph glyph-name="bracketleft" unicode="[" horiz-adv-x="620" 
d="M106 1540q222 0 458 46q12 0 12 -36t-20 -46q-46 -24 -116 -44t-98 -20t-28 -18v-1526q0 -16 25 -16t95 -19t122 -45q20 -10 20 -44t-12 -38q-272 46 -458 46q-38 0 -38 46v1668q0 46 38 46z" />
    <glyph glyph-name="backslash" unicode="\" horiz-adv-x="826" 
d="M782 -17q0 -31 -23 -46t-43 -15l-48 4l-626 1584q14 12 42 12q98 0 118 -44l574 -1452q6 -12 6 -43z" />
    <glyph glyph-name="bracketright" unicode="]" horiz-adv-x="620" 
d="M42 -228q0 34 20 44q52 26 122 45t95 19t25 16v1526q0 18 -28 18t-98 20t-116 44q-20 10 -20 46t12 36q236 -46 458 -46q38 0 38 -46v-1668q0 -46 -38 -46q-186 0 -458 -46q-12 4 -12 38z" />
    <glyph glyph-name="asciicircum" unicode="^" horiz-adv-x="776" 
d="M694 938q-26 0 -119 73t-161 153q-62 -80 -155 -153t-121 -73q-17 0 -26 60q2 6 50 51t114 127t110 178q2 4 4 11t4 11t16 4q27 0 47 -48t70 -115q49 -67 89 -109t71 -73t33 -35q0 -12 -8 -37t-18 -25z" />
    <glyph glyph-name="underscore" unicode="_" horiz-adv-x="1058" 
d="M90 26h898q8 0 8 -13t-12 -56t-18 -43h-892q-14 0 -14 20q10 92 30 92z" />
    <glyph glyph-name="grave" unicode="`" horiz-adv-x="494" 
d="M84 1316q0 18 23 38t71 20t66 -18q74 -87 130 -179q56 -91 56 -99t-12 -21t-22 -13q-26 0 -169 111t-143 161z" />
    <glyph glyph-name="a" unicode="a" horiz-adv-x="972" 
d="M493 898q149 0 224 -77t75 -279v-324q0 -68 48 -68q34 0 68 26q14 -8 14 -44t-14 -60q-28 -26 -91 -55t-115 -29t-96 29t-58 67q-2 0 -16 -11q-111 -87 -252 -87q-94 0 -159 61t-65 153q0 150 172 227q81 36 171 61q91 24 112 31t21 31v72q0 164 -100 164
q-116 0 -116 -134q0 -44 -36 -65t-80 -21q-92 0 -126 60q0 102 135 187t284 85zM426 130q48 0 77 25t29 61v202q-4 -2 -39 -13t-45 -15t-38 -15q-94 -37 -94 -124q0 -57 31 -89t79 -32z" />
    <glyph glyph-name="b" unicode="b" horiz-adv-x="1128" 
d="M618 772q-78 0 -121 -44t-43 -92v-378q0 -80 46 -123t126 -43t123 81t43 213q0 386 -174 386zM454 1154v-309q0 -11 4 -11t8 2q72 58 174 58q180 0 310 -129t130 -321t-137 -326t-333 -134q-94 0 -150 18t-92 18t-78 -19t-48 -19t-35 19t-29 27t8 68t8 160v806
q0 84 -12 144q-10 32 -104 32h-18q-12 0 -12 37t12 37q174 17 260 41q86 25 106 31l20 6h4q8 0 16 -12t10 -22q-22 -90 -22 -202z" />
    <glyph glyph-name="c" unicode="c" horiz-adv-x="924" 
d="M530 894q86 0 177 -32t135 -86q0 -184 -108 -184q-78 0 -118 100q-18 46 -45 69t-75 23q-160 0 -160 -300q0 -338 226 -338q66 0 126 19t84 34t64 45q18 -8 18 -35t-8 -43q-20 -50 -119 -115t-223 -65q-192 0 -322 135t-130 325t139 319t339 129z" />
    <glyph glyph-name="d" unicode="d" horiz-adv-x="1108" 
d="M516 894q82 0 140 -18q6 0 6 28v158q0 84 -12 144q-10 32 -104 32h-18q-12 0 -12 37t12 37q174 17 260 41q86 25 106 31l20 6h4q8 0 16 -12t10 -22q-22 -90 -22 -202v-860q0 -86 12 -144q10 -34 98 -34l20 -2q6 -2 6 -38t-12 -36q-171 -11 -342 -48l-30 -4q-12 0 -12 34
v42q0 8 -2 10t-6 -2q-84 -84 -202 -84q-162 0 -289 121t-127 318t137 332t343 135zM324 472q0 -362 180 -362q68 0 113 39t45 95v364q0 49 -18 92q-35 86 -135 86q-99 0 -142 -75t-43 -239z" />
    <glyph glyph-name="e" unicode="e" horiz-adv-x="924" 
d="M479 894q187 0 296 -125t109 -255q0 -46 -19 -60t-75 -14h-452q-12 0 -12 -14q0 -108 61 -194t175 -86q66 0 126 19t84 34t64 45q18 -8 18 -35t-8 -43q-20 -48 -120 -114t-224 -66q-184 0 -317 134t-133 324t120 320t307 130zM469 784q-71 0 -107 -75t-36 -147
q0 -12 14 -12h254q28 0 28 38q0 76 -41 136t-112 60z" />
    <glyph glyph-name="f" unicode="f" horiz-adv-x="760" 
d="M358 8q-98 0 -274 -16q-8 8 -8 41t8 33q22 0 74 18t56 32q14 60 14 152v458q0 14 -10 14h-134q-6 0 -6 19t25 60t59 41h56q10 0 10 12v14q0 208 127 356t317 150q88 0 153 -20t81 -48q6 -38 6 -81t-26 -78t-71 -35t-76 35t-60 69t-67 34q-64 0 -94 -92t-30 -226v-82
q0 -10 10 -10h222q10 0 10 -14q0 -56 -24 -104h-206q-12 0 -12 -12v-430q0 -128 14 -182q4 -14 56 -32t70 -18q6 0 7 -33t-3 -41q-176 16 -274 16z" />
    <glyph glyph-name="g" unicode="g" horiz-adv-x="970" 
d="M446 898q72 0 169 -26t155 -26h110q6 -2 22 -36t16 -55t-12 -21h-118q-8 -2 -8 -5t15 -56t15 -99q0 -126 -102 -230t-256 -104q-80 0 -136 10q-24 -8 -36 -27t-12 -33t20 -23q26 -12 116 -20q90 -9 180 -9q320 -16 322 -210q2 -146 -158 -255t-327 -109t-271 60t-104 160
q0 44 47 94t117 72q-52 22 -94 71t-42 91t14 66q25 43 138 106q-58 32 -106 113t-48 167q0 164 109 249t265 85zM330 615v-51q0 -157 52 -200q24 -20 62 -20q76 0 92 58t16 160t-24 166t-97 64t-89 -72q-12 -54 -12 -105zM674 -162q0 90 -336 90q-6 -2 -40 -13t-48 -31
t-14 -56q0 -60 63 -101t154 -41t156 38t65 114z" />
    <glyph glyph-name="h" unicode="h" horiz-adv-x="1244" 
d="M322 8q-86 0 -262 -16q-8 8 -8 41t8 33q22 0 74 18t56 32q14 60 14 152v794q0 94 -10 144q-10 32 -104 32h-18q-12 0 -12 37t12 37q174 17 260 41q86 25 106 31l20 6h4q8 0 16 -12t10 -22q-24 -90 -24 -202v-372q0 -14 5 -14t13 8q44 50 124 83t166 33q116 0 189 -98
t73 -298v-198q0 -128 14 -182q4 -14 56 -32t70 -18q6 0 7 -33t-3 -41q-176 16 -262 16t-278 -16q-8 8 -8 41t8 33q22 0 70 18t52 32q14 60 14 152v180q0 148 -40 211t-130 63q-140 0 -140 -88v-336q0 -128 14 -182q4 -14 53 -32t65 -18q6 0 7 -33t-3 -41q-192 16 -278 16z
" />
    <glyph glyph-name="i" unicode="i" horiz-adv-x="652" 
d="M464 652v-354q0 -128 14 -182q4 -14 57 -32t69 -18q8 0 8 -33t-4 -41q-160 16 -258 16t-290 -16q-6 8 -6 41t6 33q24 0 75 18t55 32q14 60 14 152v274q0 112 -30 145t-73 41t-43 10q0 70 10 70q40 0 175 27t164 36t49 15q12 0 21 -13t9 -21q-22 -176 -22 -200zM168 1232
q0 62 44 105t105 43t104 -43t43 -105t-43 -105t-104 -43t-105 43t-44 105z" />
    <glyph glyph-name="j" unicode="j" horiz-adv-x="588" 
d="M218 1232q0 62 43 105t105 43t105 -43t43 -105t-43 -105t-105 -43t-105 43t-43 105zM252 542q0 112 -36 150q-24 27 -66 36q-42 8 -42 10q0 70 8 70q38 0 186 29t192 47l10 2q12 0 22 -13t9 -27t-12 -78t-11 -116v-412q0 -294 -96 -444q-48 -76 -169 -154t-169 -78
q-32 18 -32 42t2 26l26 13q10 5 48 47t62 97t46 164t22 247v342z" />
    <glyph glyph-name="k" unicode="k" horiz-adv-x="1292" 
d="M334 8q-98 0 -274 -16q-8 8 -8 41t8 33q22 0 74 18t56 32q14 60 14 152v794q0 94 -10 144q-10 32 -104 32h-18q-12 0 -12 37t12 37q174 17 260 41q86 25 106 31l20 6h4q8 0 16 -12t10 -22q-24 -90 -24 -202v-636q54 14 77 34t60 51t56 48t42 36t33 30t23 25t13 33t-20 25
t-44 7t-28 3q-4 14 -4 42t8 30q144 -2 245 -2t191 4q14 -7 10 -41q-4 -33 -8 -33q-62 0 -140 -46q-142 -82 -274 -218q58 -62 205 -232t178 -194t73 -39t60 -15q10 0 10 -32t-4 -40q-240 12 -252 12l-266 -14q-8 8 -8 41t8 33q20 0 46 8t26 15t-2 9l-292 334l-22 -6v-128
q0 -128 14 -182q4 -14 56 -32t70 -18q6 0 7 -33t-3 -41q-176 16 -274 16z" />
    <glyph glyph-name="l" unicode="l" horiz-adv-x="668" 
d="M334 8q-98 0 -274 -16q-8 8 -8 41t8 33q22 0 74 18t56 32q14 60 14 152v794q0 94 -10 144q-10 32 -104 32h-18q-12 0 -12 37t12 37q174 17 260 41q86 25 106 31l20 6h4q8 0 16 -12t10 -22q-22 -90 -22 -202l-2 -856q0 -128 14 -182q4 -14 56 -32t70 -18q6 0 7 -33t-3 -41
q-176 16 -274 16z" />
    <glyph glyph-name="m" unicode="m" horiz-adv-x="1776" 
d="M776 448q0 274 -158 274q-152 0 -152 -88v-336q0 -128 14 -182q4 -14 53 -32t65 -18q6 0 7 -33t-3 -41q-192 16 -278 16t-262 -16q-8 8 -8 41t8 33q22 0 74 18t56 32q14 60 14 152v274q0 112 -36 150q-23 27 -67 35q-43 9 -43 11q0 70 10 70q37 0 226 42l158 34l4 2
q10 0 20 -13t10 -21q-8 -56 -8 -64t2 -10q4 0 14 10q112 104 267 104t223 -138q124 136 360 138q116 0 189 -98t73 -298v-198q0 -128 14 -182q4 -14 54 -32t68 -18q6 0 7 -33t-3 -41q-176 16 -262 16t-278 -16q-8 8 -8 41t8 33q22 0 72 18t54 32q14 60 14 152v180
q0 138 -41 206t-142 68t-129 -76q-6 -16 -3 -47t3 -103v-198q0 -128 14 -182q4 -14 54 -32t68 -18q6 0 7 -33t-3 -41q-176 16 -262 16t-278 -16q-8 8 -8 41t8 33q22 0 72 18t54 32q14 60 14 152v180z" />
    <glyph glyph-name="n" unicode="n" horiz-adv-x="1244" 
d="M776 448q0 274 -158 274q-152 0 -152 -88v-336q0 -128 14 -182q4 -14 53 -32t65 -18q6 0 7 -33t-3 -41q-192 16 -278 16t-262 -16q-8 8 -8 41t8 33q22 0 74 18t56 32q14 60 14 152v274q0 112 -36 150q-23 27 -67 35q-43 9 -43 11q0 70 10 70q37 0 226 42l158 34l4 2
q10 0 20 -13t10 -21q-8 -56 -8 -64t2 -10q4 0 14 10q112 104 278 104q116 0 189 -98t73 -298v-198q0 -128 14 -182q4 -14 56 -32t70 -18q6 0 7 -33t-3 -41q-176 16 -262 16t-278 -16q-8 8 -8 41t8 33q22 0 70 18t52 32q14 60 14 152v180z" />
    <glyph glyph-name="o" unicode="o" horiz-adv-x="1046" 
d="M522 894q196 0 333 -132t137 -322t-136 -322t-333 -132t-334 132t-137 322t137 322t333 132zM494 784q-58 0 -96 -46q-62 -75 -62 -236q0 -406 206 -406q84 0 123 82t39 192q0 414 -210 414z" />
    <glyph glyph-name="p" unicode="p" horiz-adv-x="1134" 
d="M614 776q-70 0 -112 -42t-42 -106v-378q0 -76 50 -117t106 -41q180 0 180 296q0 388 -182 388zM330 -420q-98 0 -274 -16q-8 8 -8 41t8 33q22 0 74 18t56 32q14 60 14 152v702q0 112 -36 150q-23 27 -67 35q-43 9 -43 11q0 70 10 70q122 0 253 39t139 39t8 -19t-4 -43
q88 68 184 68q190 0 315 -132t125 -306q0 -222 -142 -346t-358 -124q-49 0 -82 9q-32 9 -37 9t-5 -32v-100q0 -128 14 -182q4 -14 56 -32t70 -18q6 0 7 -33t-3 -41q-176 16 -274 16z" />
    <glyph glyph-name="q" unicode="q" horiz-adv-x="1032" 
d="M518 786q-174 0 -174 -298q0 -270 85 -344q39 -34 99 -34t107 35t47 87v372q0 182 -164 182zM812 -420q-98 0 -274 -16q-8 8 -8 41t8 33q22 0 74 18t56 32q14 60 14 152v176q0 28 -5 28t-7 -2q-80 -58 -182 -58q-166 0 -299 126t-133 323t139 329t337 132q86 0 148 -18
t94 -18t73 19t47 19t36 -19t30 -29q0 -2 -2 -13t-4 -31t-7 -63t-5 -127v-744q0 -128 14 -182q4 -14 56 -32t70 -18q6 0 7 -33t-3 -41q-176 16 -274 16z" />
    <glyph glyph-name="r" unicode="r" horiz-adv-x="930" 
d="M876 820q0 -204 -103 -204q-53 0 -105 46t-92 46q-60 0 -85 -67t-25 -143v-202q0 -126 14 -180q4 -14 53 -32t65 -18q6 0 7 -33t-3 -41q-192 16 -278 16t-262 -16q-8 8 -8 41t8 33q22 0 74 18t56 32q14 60 14 152v274q0 112 -36 150q-23 27 -67 35q-43 9 -43 11
q0 70 10 70q45 0 215 39q171 39 177 39t16 -13t8 -29t-4 -44t-4 -36q98 130 226 130q88 0 172 -74z" />
    <glyph glyph-name="s" unicode="s" horiz-adv-x="768" 
d="M418 898q158 0 242 -40q20 -92 20 -248q0 -18 -26 -18q-62 0 -66 16q-18 84 -61 132t-137 48q-44 0 -72 -21t-28 -64t40 -76t106 -65q107 -52 179 -107q101 -77 101 -208t-101 -199t-257 -68q-70 0 -156 22t-124 54q-24 138 -24 244q8 6 51 6t45 -18q34 -198 216 -198
q48 0 80 22t32 67t-43 79t-157 90t-170 123t-56 165q0 136 104 199t262 63z" />
    <glyph glyph-name="t" unicode="t" horiz-adv-x="748" 
d="M194 740h-130q-16 0 -16 39t4 45q112 56 161 93t89 72t69 60t31 27q16 0 34 -7t18 -15v-196h216q16 0 16 -20q0 -58 -20 -98h-212v-474q0 -152 108 -152q56 0 82 15t31 15t14 -20t9 -30q0 -24 -82 -66t-154 -42q-110 0 -189 69t-79 223v462z" />
    <glyph glyph-name="u" unicode="u" horiz-adv-x="1198" 
d="M1024 654v-392q0 -104 20 -125t76 -21h20q8 -4 8 -39t-12 -35q-85 -6 -196 -24q-112 -18 -140 -22l-28 -6q-12 0 -12 36v74q0 8 -2 10t-6 -2q-42 -44 -123 -80t-187 -36t-177 104t-71 252v194q0 112 -36 150q-23 27 -67 35q-43 9 -43 11q0 70 10 70q38 0 185 29t174 39
t33 10t16 -13t10 -21q-22 -176 -22 -200v-214q0 -156 40 -219t121 -63t115 31t34 69v286q0 112 -36 150q-23 27 -67 35q-43 9 -43 11q0 70 10 70q38 0 174 27t192 45l22 6q10 0 20 -13t10 -21q-22 -176 -22 -198z" />
    <glyph glyph-name="v" unicode="v" horiz-adv-x="1194" 
d="M626 845q0 -33 -8 -33q-30 0 -83 -16t-53 -38l4 -30l158 -376l158 332q30 58 2 86q-42 42 -132 42q-6 2 -6 32t4 42l232 -16q48 0 123 7t107 9q8 -8 8 -41t-8 -33q-30 0 -84 -21t-74 -59l-352 -696q-30 -58 -60 -58q-24 0 -32 16l-332 748q-16 38 -63 54t-77 16
q-8 0 -8 32t8 42q176 -16 274 -16l286 16q8 -8 8 -41z" />
    <glyph glyph-name="w" unicode="w" horiz-adv-x="1760" 
d="M784 711q0 101 -144 101q-8 0 -9 33t7 41l117 -9q91 -7 139 -7l270 16q4 -10 1 -43t-9 -33q-34 0 -71 -14t-37 -45t156 -399q36 78 105 219t69 155q0 44 -52 64t-104 20h-8q-8 0 -10 34t6 42q252 -18 279 -18l211 18q6 -18 6 -46t-8 -28q-22 0 -88 -31t-82 -67l-330 -694
q-6 -14 -29 -28t-44 -14t-31 22l-238 516l-228 -494q-6 -14 -26 -29t-45 -15t-37 22l-338 744q-14 28 -58 47t-68 19q-8 0 -8 35t6 41q192 -16 262 -16l278 16q4 -12 5 -41t-5 -31q-24 0 -74 -19t-50 -45t162 -396q55 120 83 177q69 137 69 180z" />
    <glyph glyph-name="x" unicode="x" horiz-adv-x="1210" 
d="M1136 -8l-262 16q-58 0 -149 -7t-129 -9q-4 20 -4 47t8 27q26 2 59 21t33 43q0 4 -4 12l-136 158l-114 -144q-14 -16 -14 -32t9 -24t25 -14t31 -9t34 -6t26 -4t7 -34t-8 -41q-128 16 -203 16t-114 -3t-86 -7t-81 -6q-4 16 -4 45t8 29q50 8 101 29t69 41l222 244q4 6 4 16
t-8 18l-256 322q-26 34 -65 54t-71 20q-10 0 -10 32t6 44q248 -14 272 -14t272 14q6 -10 6 -42t-10 -32q-28 0 -59 -14t-31 -34q0 -12 10 -24l124 -154q16 22 72 93t56 91q0 42 -124 42q-8 0 -8 32t8 42q234 -14 255 -14t235 14q6 -12 6 -43t-6 -31q-142 -16 -178 -56
l-228 -250q-6 -10 -6 -19t8 -17l240 -302q68 -88 162 -106q8 0 8 -30t-8 -40z" />
    <glyph glyph-name="y" unicode="y" horiz-adv-x="1088" 
d="M564 840q0 -28 -8 -28q-26 0 -75 -16t-49 -36l2 -18q4 -32 156 -390q136 294 148 323t12 51t-11 38t-45 32t-86 16q-8 0 -8 31t4 43q192 -16 262 -16l214 16q8 -16 8 -45t-8 -29q-30 0 -89 -20t-79 -60l-372 -806q-166 -362 -388 -362q-60 0 -97 32t-37 84t46 84
q254 0 330 156q46 98 62 132l-298 660l-10 24q-20 42 -61 59t-71 17q-8 0 -8 35t4 39l284 -16q86 0 262 16q6 -18 6 -46z" />
    <glyph glyph-name="z" unicode="z" horiz-adv-x="860" 
d="M368 119q0 -11 24 -11h124q158 0 216 152q6 18 37 18t39 -8l-34 -270h-684q-40 24 -40 46q0 6 2 8l408 684l-122 2q-74 2 -125 -46t-71 -94q-6 -12 -40 -12t-34 4q0 10 14 109t18 159q118 -12 190 -12h244q126 0 258 16q6 -10 6 -48l-416 -666q-14 -20 -14 -31z" />
    <glyph glyph-name="braceleft" unicode="{" horiz-adv-x="656" 
d="M44 618q0 24 8 38q82 20 125 52t43 93t-18 170t-18 173q0 158 137 257t283 99q8 0 8 -32t-12 -34q-56 -4 -112 -62t-56 -137t17 -180t17 -191t-52 -169l-108 -79l108 -74q52 -74 52 -164t-17 -181t-17 -171t57 -143t111 -67q12 -2 12 -34t-8 -32q-140 0 -278 110
t-138 256q0 60 16 166t16 142t-4 54t-16 31t-20 22t-29 18t-29 12t-37 11t-35 10q-6 12 -6 36z" />
    <glyph glyph-name="bar" unicode="|" horiz-adv-x="312" 
d="M228 1544q16 0 16 -8v-1748q0 -8 -74 -19t-87 -11t-13 12v1744q-2 12 10 16q48 14 148 14z" />
    <glyph glyph-name="braceright" unicode="}" horiz-adv-x="656" 
d="M436 423q0 -35 16 -141t16 -166q0 -146 -138 -256t-278 -110q-8 0 -8 32t12 34q54 4 111 67t57 143t-17 171t-17 181t52 164l108 74l-108 79q-52 79 -52 169t17 191t17 180t-56 137t-112 62q-12 2 -12 34t8 32q146 0 283 -99t137 -257q0 -64 -18 -173t-18 -170t43 -93
t125 -52q8 -14 8 -38t-6 -36q-86 -22 -106 -35t-32 -24t-18 -22t-10 -27t-4 -51z" />
    <glyph glyph-name="asciitilde" unicode="~" horiz-adv-x="1140" 
d="M100 562q0 46 48 78q114 78 210 78t238 -53t210 -53t92 12t31 15q9 4 43 29q34 26 40 32q18 -8 18 -53t-46 -79q-100 -78 -202 -78t-244 53t-220 53t-141 -42q-15 -10 -59 -46q-18 8 -18 54z" />
    <glyph glyph-name="uni00A0" unicode="&#xa0;" horiz-adv-x="418" 
 />
    <glyph glyph-name="exclamdown" unicode="&#xa1;" horiz-adv-x="390" 
d="M50 734q0 64 47 108t106 44t100 -46t41 -108t-43 -104t-104 -42t-104 42t-43 106zM201 -476q-53 0 -91 36t-38 103t32 368t50 409q8 44 24 44q56 0 66 -62q20 -130 52 -425t32 -347t-37 -89t-90 -37z" />
    <glyph glyph-name="cent" unicode="&#xa2;" horiz-adv-x="924" 
d="M496 784q-160 0 -160 -300q0 -216 90 -294l96 592q-12 2 -26 2zM734 592q-78 0 -118 100q-10 24 -20 40l-94 -580q26 -6 76 -6t110 19t84 34t64 45q18 -8 18 -35t-8 -43q-20 -50 -119 -115t-223 -65h-30l-12 -76q-78 0 -78 18l12 70q-152 38 -248 163t-96 300t139 304
t339 129h12l8 54q78 0 78 -16l-8 -46q62 -10 127 -40t95 -70q0 -184 -108 -184z" />
    <glyph glyph-name="sterling" unicode="&#xa3;" horiz-adv-x="982" 
d="M580 1284q78 0 151 -24t97 -60q0 -170 -104 -170q-32 0 -57 23t-39 52t-40 52t-58 23q-78 0 -114 -51t-36 -132t21 -181t28 -146h241q10 0 10 -35t-30 -55h-211q3 -32 3 -60q0 -196 -82 -314q40 18 101 18t155 -30t117 -30t39 3t30 12t23 15t22 23t17 23t18 30t18 28
q10 0 23 -14t13 -27t-4 -29q-20 -82 -81 -163t-142 -81t-206 34t-168 34t-76 -12t-66 -33t-35 -23q-32 6 -49 25t-17 31l104 126q24 62 24 270q0 40 -18 144h-90q-10 0 -10 36t12 54h72q-24 137 -24 208q0 180 121 293t297 113z" />
    <glyph glyph-name="currency" unicode="&#xa4;" horiz-adv-x="938" 
d="M864 607q0 -127 -82 -227l90 -96q8 -8 -6 -27q-35 -47 -90 -61l-92 100q-96 -58 -219 -58t-227 76l-104 -98q-8 -8 -27 6q-47 35 -61 90l102 96q-64 96 -64 216t82 224l-98 104q-8 8 6 27q35 47 90 61l98 -106q94 60 216 60t224 -70l102 96q8 8 27 -6q47 -35 61 -90
l-98 -92q70 -98 70 -225zM492 328q70 0 102 69t32 161q0 346 -174 346q-70 0 -100 -70t-30 -166q0 -340 170 -340z" />
    <glyph glyph-name="yen" unicode="&#xa5;" horiz-adv-x="1378" 
d="M315 1272q63 0 303 12q4 -8 3 -41t-7 -33q-30 0 -67 -11t-39 -31q0 -16 16 -44l200 -354q10 -10 20 4q58 84 138 222t80 170q0 44 -128 44q-8 0 -9 33t7 41q180 -12 237 -12t231 12q6 -18 6 -45t-8 -27q-36 0 -82 -18t-74 -54q-52 -70 -201 -308t-149 -264v-50h138
q10 0 10 -35t-12 -55h-136v-72h138q10 0 10 -34t-12 -56h-136q0 -92 16 -150q4 -14 55 -32t69 -18q8 0 8 -31t-4 -43l-278 16q-66 0 -290 -16q-8 8 -8 41t6 33q22 0 74 17t58 33q12 50 14 150h-140q-10 0 -10 29t12 61h138v72h-140q-10 0 -10 28t12 62h138v60q0 33 -188 350
l-62 106q-66 122 -112 149t-102 27q-8 0 -8 33t8 41q204 -12 267 -12z" />
    <glyph glyph-name="brokenbar" unicode="&#xa6;" horiz-adv-x="308" 
d="M226 526q16 0 16 -10v-728q0 -8 -74 -19t-87 -11t-13 12v726q-2 12 10 16q48 14 148 14zM226 1536q16 0 16 -8v-730q0 -8 -74 -19t-87 -11t-13 12v726q-2 12 10 16q48 14 148 14z" />
    <glyph glyph-name="section" unicode="&#xa7;" horiz-adv-x="820" 
d="M632 463q0 57 -50 111t-114 85t-139 82t-109 107q-30 -24 -30 -85t30 -105t80 -73t103 -55q140 -69 193 -160q36 36 36 93zM658 1186q0 -100 -66 -100q-32 0 -86 50t-102 50q-130 0 -130 -86q0 -100 174 -185q72 -35 145 -75t124 -106t51 -156t-44 -171t-88 -111
q22 -48 22 -120t-30 -127t-80 -81q-96 -50 -179 -50t-137 24t-72 50q-2 8 -2 48t21 65t51 25t86 -48t106 -48t85 23t35 71t-51 97t-123 86t-144 80t-123 111t-51 158q0 174 128 266q-20 34 -20 110q0 128 89 197t215 69q68 0 120 -24t70 -52z" />
    <glyph glyph-name="dieresis" unicode="&#xa8;" horiz-adv-x="810" 
d="M38 1028q0 60 41 101t101 41t102 -41t42 -101t-42 -102t-102 -42t-101 42t-41 102zM482 1028q0 60 42 101t102 41t102 -41t42 -101t-42 -102t-102 -42t-102 42t-42 102z" />
    <glyph glyph-name="copyright" unicode="&#xa9;" horiz-adv-x="1200" 
d="M54 684q0 226 160 386t386 160t387 -160t161 -386t-161 -386t-387 -160t-386 160t-160 386zM144 682q0 -190 134 -323t322 -133t322 133t134 323t-134 323t-322 133t-322 -133t-134 -323zM598 398q-114 0 -192 82t-78 197t79 200t186 85t203 -24q4 -2 12 -64t8 -71
t-15 -9t-27 4q-10 36 -49 70t-112 34t-109 -62t-36 -154t42 -160t120 -68t110 30q16 14 31 36t17 22q28 0 34 -10q0 -14 -12 -52t-26 -46q-72 -40 -186 -40z" />
    <glyph glyph-name="ordfeminine" unicode="&#xaa;" horiz-adv-x="694" 
d="M554 652q0 -38 10 -47t25 -9t24 4t14 8t11 4t6 -20t-12 -50q-60 -44 -142 -44q-32 0 -61 20t-39 44l-36 -24q-67 -42 -145 -42q-77 0 -116 48t-39 101t20 83t61 51t73 32t86 25t69 19t15 23v48q0 110 -60 110q-36 0 -64 -26t-28 -76q0 -16 -26 -28t-57 -12t-52 21t-21 49
q0 52 84 100t186 48q214 0 214 -240v-220zM378 652v136q-6 -2 -27 -8t-30 -10t-27 -11q-64 -25 -64 -73q0 -92 72 -92q36 0 56 16t20 42z" />
    <glyph glyph-name="guillemotleft" unicode="&#xab;" horiz-adv-x="954" 
d="M548 196q0 -16 -28 -32t-42 -18q-10 20 -145 122t-267 186q-14 6 -14 35t16 47q198 117 372 272l40 38q14 -2 42 -18t28 -32t-148 -158l-146 -142l144 -142q148 -142 148 -158zM906 196q0 -16 -28 -32t-42 -18q-10 20 -145 122t-267 186q-14 6 -14 35t16 47
q198 117 372 272q18 16 40 38q14 -2 42 -18t28 -32t-148 -158l-146 -142l144 -142q148 -142 148 -158z" />
    <glyph glyph-name="logicalnot" unicode="&#xac;" horiz-adv-x="1078" 
d="M86 854h898q24 0 24 -22v-494q-16 -16 -118 -30h-8q-8 0 -12 4t-2 8v372q0 20 -22 20h-778q-12 0 -12 20q10 122 30 122z" />
    <glyph glyph-name="registered" unicode="&#xae;" horiz-adv-x="1198" 
d="M54 818q0 226 160 386t386 160t387 -160t161 -386t-161 -386t-387 -160t-386 160t-160 386zM144 816q0 -188 134 -322t322 -134t322 134t134 322t-134 322t-322 134t-322 -134t-134 -322zM588 850q58 0 58 107t-66 107q-28 0 -34 -6t-7 -16t-1 -68v-92q0 -22 8 -27t36 -5
h6zM786 974q0 -66 -33 -108t-65 -56q-4 -2 0 -8q62 -106 122 -166t92 -60q4 -4 4 -13t-2 -17q-6 -2 -48 -2t-93 24t-71 46q-40 43 -83 111q-44 67 -49 70q-4 3 -13 3t-9 -12v-116q-2 -48 6 -72q2 -6 21 -14t27 -8q4 0 4 -11t-4 -19l-122 8l-128 -8q-4 4 -4 17t2 13
q10 0 30 8t22 14q6 26 6 66v328q0 40 -6 66q-2 6 -22 14t-28 8q-2 0 -2 14t2 16q80 -4 130 -4l118 2q70 0 133 -34t63 -100z" />
    <glyph glyph-name="macron" unicode="&#xaf;" horiz-adv-x="768" 
d="M640 1198q12 0 12 -20q-4 -86 -28 -118h-498l-10 4q-2 6 -2 18q5 116 30 116h496z" />
    <glyph glyph-name="degree" unicode="&#xb0;" horiz-adv-x="466" 
d="M36 1072q0 80 58 138t140 58t139 -58t57 -139t-58 -139t-139 -58t-139 59t-58 139zM128 1072q0 -46 31 -77t75 -31t75 31t31 77t-31 77t-75 31t-75 -31t-31 -77z" />
    <glyph glyph-name="plusminus" unicode="&#xb1;" horiz-adv-x="1060" 
d="M307 142h678q15 0 5 -64t-26 -80h-900q-12 0 -3 65t11 70t5 7t230 2zM604 612v-368q-30 -20 -120 -32h-12q-12 0 -12 14v382q0 10 -12 10h-382q-12 0 -12 40t10 72t16 32h370q10 0 10 12v364q-2 10 10 14q54 16 114 16l20 -12v-384q0 -10 8 -10h384q16 0 16 -14
q0 -44 -11 -84t-14 -43t-7 -3h-368q-8 0 -8 -6z" />
    <glyph glyph-name="uni00B2" unicode="&#xb2;" horiz-adv-x="644" 
d="M52 551q0 19 2 25q292 292 292 480q0 42 -27 79t-72 37t-81 -23t-57 -46t-23 -23q-10 0 -22 19t-12 27t2 18v4q22 42 91 91t161 49t153 -61t61 -167t-98 -221t-220 -195q-4 -4 -2 -8t6 -4h228q47 0 62 17q14 17 19 24t14 28l12 28q3 7 24 7t31 -10l-56 -220l-206 2
q-246 -2 -256 -2q-26 26 -26 45z" />
    <glyph glyph-name="uni00B3" unicode="&#xb3;" horiz-adv-x="596" 
d="M311 1290q63 0 117 -36t54 -104t-47 -124t-97 -82q60 0 134 -44t74 -136q0 -130 -104 -201t-220 -71t-164 40q-6 8 -6 35t22 45t46 18t59 -33t81 -33t81 42t35 124t-39 116t-117 34h-46q-12 18 -12 33t4 27q152 34 152 168q0 40 -23 62t-55 22t-76 -37t-53 -37t-25 17
t-10 25q32 50 102 90t133 40z" />
    <glyph glyph-name="acute" unicode="&#xb4;" horiz-adv-x="468" 
d="M400 1316q0 -50 -143 -161t-169 -111q-10 0 -22 13t-12 21t56 99t130 179q18 18 66 18t71 -20t23 -38z" />
    <glyph glyph-name="uni00B5" unicode="&#xb5;" horiz-adv-x="1070" 
d="M221 892q19 0 74 -28t55 -46q0 -126 -34 -286l-12 -86q0 -118 36 -192t87 -74q99 0 137 88q30 70 42 186v398q8 12 45 26t56 14t85 -28t66 -46q0 -110 -46 -326l-10 -46q-2 -94 4 -151q15 -139 96 -139q34 0 72 22t52 40q10 0 21 -19t11 -47q-20 -66 -73 -113t-117 -46
t-116 80t-66 183q-56 -132 -115 -203t-153 -71q-54 0 -83 49q-9 15 -14 22t-12 26t-17 44t-10 29q0 -126 12 -294t32 -272q-8 -12 -41 -26t-61 -14t-83 28t-55 46q0 64 13 360t29 428l-8 188v256q8 12 45 26t56 14z" />
    <glyph glyph-name="paragraph" unicode="&#xb6;" horiz-adv-x="936" 
d="M558 664q0 -12 19 -12t38 10t19 18q0 460 -2 489t-12 36t-24 7q-34 0 -34 -24q-4 -320 -4 -524zM562 4q-88 0 -244 -12q-4 8 -3 36t7 28q16 0 57 15t45 29q10 42 10 266v146q0 14 -40 14q-168 0 -265 112t-97 282q0 102 36 180t94 121q112 83 250 83l222 -8l242 12
q8 -8 4 -36t-12 -28q-26 0 -65 -10t-45 -28t-6 -206l2 -304q0 -10 10 -10l86 18q6 -12 6 -42t-32 -48t-50 -24t-18 -10q0 -424 14 -476q6 -16 46 -30t62 -14q8 0 8 -30t-8 -38q-228 12 -316 12zM626 548q-68 0 -68 -26l4 -408q0 -26 32 -26t32 28q8 90 8 424q0 8 -8 8z" />
    <glyph glyph-name="periodcentered" unicode="&#xb7;" horiz-adv-x="410" 
d="M62 530q0 60 43 103t104 43t104 -43t43 -104t-41 -107t-102 -46t-106 47t-45 107z" />
    <glyph glyph-name="cedilla" unicode="&#xb8;" horiz-adv-x="886" 
d="M505 -54q29 0 61 -31t32 -71q0 -72 -52 -114t-129 -42t-109 32q-4 12 -4 37t14 25l38 -14q36 -16 68 -16t52 17t20 41q0 56 -48 56q-30 0 -60 -12q-4 0 -17 13t-11 19q10 16 29 57t27 53h64l-28 -52q24 2 53 2z" />
    <glyph glyph-name="uni00B9" unicode="&#xb9;" horiz-adv-x="554" 
d="M60 535q0 27 4 27q16 0 54 10t48 22q22 30 22 66v398q0 62 -26 62q-12 0 -86 -34q-8 2 -19 15t-11 25v18q312 152 318 152h2q6 0 19 -17t15 -23q-26 -96 -26 -170v-424q0 -50 16 -67t52 -25t52 -8q8 0 8 -26t-6 -32l-206 10l-226 -10q-4 4 -4 31z" />
    <glyph glyph-name="ordmasculine" unicode="&#xba;" horiz-adv-x="740" 
d="M370 1108q132 0 225 -90t93 -218t-92 -217t-225 -89t-225 89t-92 217t92 218t224 90zM352 1034q-56 0 -81 -57t-25 -135q0 -274 138 -274q58 0 84 56t26 130q0 280 -142 280z" />
    <glyph glyph-name="guillemotright" unicode="&#xbb;" horiz-adv-x="958" 
d="M408 796q0 16 28 32t42 18q162 -162 412 -310q16 -18 16 -47t-14 -35q-241 -154 -373 -271q-37 -33 -39 -37q-14 2 -42 18t-28 32t148 158l144 142l-146 142q-148 142 -148 158zM50 796q0 16 28 32t42 18l40 -38q174 -155 372 -272q16 -18 16 -47t-14 -35
q-241 -154 -373 -271q-37 -33 -39 -37q-14 2 -42 18t-28 32t148 158l144 142l-146 142q-148 142 -148 158z" />
    <glyph glyph-name="onequarter" unicode="&#xbc;" horiz-adv-x="1398" 
d="M450 -32q-42 0 -72 38l-4 18l690 1264q4 6 12 6q36 0 72 -38q8 -8 8 -20l-2 -2l-696 -1262q0 -4 -8 -4zM1104 320v202q0 12 -2 12l-6 -2l-170 -204v-4q0 -12 8 -12h158q12 6 12 8zM1352 208q0 -4 -8 -12h-54q-8 0 -8 -10v-182q-44 -10 -111 -10t-67 12v188q-2 6 -12 6
h-312q-16 10 -16 46l444 530q16 20 45 20t29 -14v-466q0 -4 12 -8h38q20 0 20 -100zM58 535q0 27 4 27q16 0 54 10t48 22q22 30 22 66v398q0 62 -26 62q-12 0 -86 -34q-8 2 -19 15t-11 25v18q312 152 318 152h2q6 0 19 -17t15 -23q-26 -96 -26 -170v-424q0 -50 16 -67
t52 -25t52 -8q8 0 8 -26t-6 -32l-206 10l-226 -10q-4 4 -4 31z" />
    <glyph glyph-name="onehalf" unicode="&#xbd;" horiz-adv-x="1496" 
d="M450 -32q-42 0 -74 40q-4 4 -4 8v6l2 2l690 1264q4 6 12 6q36 0 72 -38q8 -8 8 -20l-2 -2l-696 -1262q0 -4 -8 -4zM58 535q0 27 4 27q16 0 54 10t48 22q22 30 22 66v398q0 62 -26 62q-12 0 -86 -34q-8 2 -19 15t-11 25v18q312 152 318 152h2q6 0 19 -17t15 -23
q-26 -96 -26 -170v-424q0 -50 16 -67t52 -25t52 -8q8 0 8 -26t-6 -32l-206 10l-226 -10q-4 4 -4 31zM1202 548q0 42 -27 79t-72 37t-81 -23t-57 -46t-23 -23q-10 0 -22 19t-12 27t2 18v4q22 42 91 91t161 49t153 -61t61 -167t-98 -221t-220 -195q-4 -4 -2 -8t6 -4h228
q47 0 62 17q14 17 19 24t14 28l12 28q3 7 24 7t31 -10l-56 -220l-206 2q-246 -2 -256 -2q-32 32 -24 70q292 292 292 480z" />
    <glyph glyph-name="threequarters" unicode="&#xbe;" horiz-adv-x="1386" 
d="M434 -32q-38 0 -70 40q-4 4 -4 8v6l2 2l690 1264q2 6 10 6q38 0 74 -38q8 -8 8 -20l-2 -2l-696 -1262q-4 -4 -12 -4zM914 324q0 -12 8 -12h158q12 6 12 8v202q0 12 -2 12l-6 -2l-170 -204v-4zM1340 208q0 -4 -8 -12h-54q-8 0 -8 -10v-182q-44 -10 -111 -10t-67 12v188
q-2 6 -12 6h-312q-16 10 -16 46l444 530q16 20 45 20t29 -14v-466q0 -4 12 -8h38q20 0 20 -100zM305 1290q63 0 117 -36t54 -104t-47 -124t-97 -82q60 0 134 -44t74 -136q0 -130 -104 -201t-220 -71t-164 40q-6 8 -6 35t22 45t46 18t59 -33t81 -33t81 42t35 124t-39 116
t-119 34h-44q-12 18 -12 33t4 27q152 34 152 168q0 40 -22 62t-55 22t-76 -37t-52 -37t-25 17t-10 25q32 50 101 90t132 40z" />
    <glyph glyph-name="questiondown" unicode="&#xbf;" horiz-adv-x="698" 
d="M444 433q0 27 21 45t37 18q26 0 32 -44q28 -174 19 -259t-77 -113q-164 -66 -211 -115t-47 -109q0 -100 114 -100q34 0 83 14t103 14t95 -42t41 -98t-18 -82q-52 -26 -118 -26q-176 8 -324 99t-148 243t61 227t226 161q77 40 84 54t16 31t10 36t1 46zM638 746
q0 -64 -43 -106t-104 -42t-104 42t-43 104t41 108t100 46t106 -44t47 -108z" />
    <glyph glyph-name="Agrave" unicode="&#xc0;" horiz-adv-x="1440" 
d="M822 1497q0 -11 -9 -26t-19 -15q-36 0 -198 79t-162 127q0 38 38 57t66 19t44 -8q66 -50 153 -136t87 -97zM662 546q84 0 146 4l6 10l-144 358l-156 -358q0 -8 4 -8q60 -6 144 -6zM246 8l-216 -16q-8 8 -8 40t4 32q24 0 80 21t75 50t55 109l452 1040q22 52 74 52
q30 0 48 -26l410 -1014q38 -92 66 -164q12 -32 66 -49t82 -17q8 0 8 -34t-4 -40l-290 16q-14 0 -302 -16q-8 8 -8 41t8 33q44 0 90 19t46 51q0 4 -50 134l-60 146q-8 8 -30 9t-165 1t-213 -2q-8 0 -14 -10l-66 -152q-40 -90 -40 -122t42 -53t104 -21q6 -2 6 -32t-4 -42
q-208 16 -246 16z" />
    <glyph glyph-name="Aacute" unicode="&#xc1;" horiz-adv-x="1440" 
d="M634 1497q0 11 87 97t153 136q16 8 44 8t66 -19t38 -57q0 -48 -162 -127t-198 -79q-10 0 -19 15t-9 26zM662 546q84 0 146 4l6 10l-144 358l-156 -358q0 -8 4 -8q60 -6 144 -6zM246 8l-216 -16q-8 8 -8 40t4 32q24 0 80 21t75 50t55 109l452 1040q22 52 74 52
q30 0 48 -26l410 -1014q38 -92 66 -164q12 -32 66 -49t82 -17q8 0 8 -34t-4 -40l-290 16q-14 0 -302 -16q-8 8 -8 41t8 33q44 0 90 19t46 51q0 4 -50 134l-60 146q-8 8 -30 9t-165 1t-213 -2q-8 0 -14 -10l-66 -152q-40 -90 -40 -122t42 -53t104 -21q6 -2 6 -32t-4 -42
q-208 16 -246 16z" />
    <glyph glyph-name="Acircumflex" unicode="&#xc2;" horiz-adv-x="1440" 
d="M992 1456q-18 0 -104 45t-138 79q-52 -34 -138 -79t-104 -45t-18 38q133 99 232 226q16 18 27 18t22 -11t37 -41q100 -116 202 -192q0 -38 -18 -38zM662 546q84 0 146 4l6 10l-144 358l-156 -358q0 -8 4 -8q60 -6 144 -6zM246 8l-216 -16q-8 8 -8 40t4 32q24 0 80 21
t75 50t55 109l452 1040q22 52 74 52q30 0 48 -26l410 -1014q38 -92 66 -164q12 -32 66 -49t82 -17q8 0 8 -34t-4 -40l-290 16q-14 0 -302 -16q-8 8 -8 41t8 33q44 0 90 19t46 51q0 4 -50 134l-60 146q-8 8 -30 9t-165 1t-213 -2q-8 0 -14 -10l-66 -152q-40 -90 -40 -122
t42 -53t104 -21q6 -2 6 -32t-4 -42q-208 16 -246 16z" />
    <glyph glyph-name="Atilde" unicode="&#xc3;" horiz-adv-x="1440" 
d="M388 1478q-16 0 -16 46t36 98q76 102 164 102t204 -68t192 -68q38 0 86 57t58 57q16 0 16 -47t-36 -99q-70 -100 -172 -100q-76 0 -192 68t-192 68q-36 0 -88 -57t-60 -57zM662 546q84 0 146 4l6 10l-144 358l-156 -358q0 -8 4 -8q60 -6 144 -6zM246 8l-216 -16
q-8 8 -8 40t4 32q24 0 80 21t75 50t55 109l452 1040q22 52 74 52q30 0 48 -26l410 -1014q38 -92 66 -164q12 -32 66 -49t82 -17q8 0 8 -34t-4 -40l-290 16q-14 0 -302 -16q-8 8 -8 41t8 33q44 0 90 19t46 51q0 4 -50 134l-60 146q-8 8 -30 9t-165 1t-213 -2q-8 0 -14 -10
l-66 -152q-40 -90 -40 -122t42 -53t104 -21q6 -2 6 -32t-4 -42q-208 16 -246 16z" />
    <glyph glyph-name="Adieresis" unicode="&#xc4;" horiz-adv-x="1440" 
d="M372 1604q0 62 43 105t105 43t105 -43t43 -105t-43 -105t-105 -43t-105 43t-43 105zM832 1604q0 62 43 105t105 43t105 -43t43 -105t-43 -105t-105 -43t-105 43t-43 105zM662 546q84 0 146 4l6 10l-144 358l-156 -358q0 -8 4 -8q60 -6 144 -6zM246 8l-216 -16q-8 8 -8 40
t4 32q24 0 80 21t75 50t55 109l452 1040q22 52 74 52q30 0 48 -26l410 -1014q38 -92 66 -164q12 -32 66 -49t82 -17q8 0 8 -34t-4 -40l-290 16q-14 0 -302 -16q-8 8 -8 41t8 33q44 0 90 19t46 51q0 4 -50 134l-60 146q-8 8 -30 9t-165 1t-213 -2q-8 0 -14 -10l-66 -152
q-40 -90 -40 -122t42 -53t104 -21q6 -2 6 -32t-4 -42q-208 16 -246 16z" />
    <glyph glyph-name="Aring" unicode="&#xc5;" horiz-adv-x="1440" 
d="M246 8l-216 -16q-8 8 -8 40t4 32q24 0 80 21t75 50t55 109l452 1040q11 26 29 39q-61 9 -113 61t-52 133t58 139t140 58t139 -57t57 -139t-50 -132t-100 -61q8 -6 14 -15l410 -1014q38 -92 66 -164q12 -32 66 -49t82 -17q8 0 8 -34t-4 -40l-290 16q-14 0 -302 -16
q-8 8 -8 41t8 33q44 0 90 19t46 51q0 4 -50 134l-60 146q-8 8 -30 9t-165 1t-213 -2q-8 0 -14 -10l-66 -152q-40 -90 -40 -122t42 -53t104 -21q6 -2 6 -32t-4 -42q-208 16 -246 16zM644 1518q0 -46 31 -77t75 -31t75 31t31 77t-31 77t-75 31t-75 -31t-31 -77zM662 546
q84 0 146 4l6 10l-144 358l-156 -358q0 -8 4 -8q60 -6 144 -6z" />
    <glyph glyph-name="AE" unicode="&#xc6;" horiz-adv-x="1862" 
d="M896 564v386q0 10 -7 10t-13 -10l-244 -394q0 -8 4 -8q60 -6 130 -6l112 4q18 0 18 18zM756 33q0 33 8 33q22 0 68 16t52 30q12 46 12 158v130q0 20 -18 20q-52 2 -152 2t-170 -2q-12 0 -16 -10l-94 -152q-60 -90 -66 -123t20 -47q48 -22 120 -22q6 0 0 -31t-12 -43
q-28 2 -104 9t-127 7t-135 -7t-118 -9q-4 4 -4 19t5 35t7 20q24 0 93 24t87 48l82 126l564 904q8 12 8 28q0 22 -38 40t-60 18q-8 0 -8 34t6 40q142 -16 276 -16l646 16q2 -20 58 -296q-10 -10 -39 -10t-35 14q-38 76 -120 130t-160 54h-76q-126 0 -130 -26
q-10 -48 -10 -156v-308q0 -12 86 -12h106q124 0 136 8q10 8 15 48t13 68q2 14 33 14t41 -10v-378q-8 -8 -38 -8t-36 16q-26 92 -34 100t-14 11t-8 5q-26 16 -163 16t-137 -18v-308q0 -96 16 -142q10 -32 136 -32h52q124 0 224 52q34 18 77 68t67 112q4 12 40 12t48 -12
q-98 -276 -108 -344l-684 8l-280 -12q-8 8 -8 41z" />
    <glyph glyph-name="Ccedilla" unicode="&#xc7;" horiz-adv-x="1276" 
d="M740 -62q50 0 89 -37t39 -83q0 -84 -61 -134t-152 -50t-129 38q-4 16 -4 44t16 28q2 0 44 -17t81 -17t62 20t23 48q0 66 -58 66q-36 0 -70 -14q-4 0 -19 16t-13 22q12 20 32 62t29 57q-239 13 -419 201t-180 464t189 479t471 203q218 0 458 -58q10 -2 25 -134t15 -162
t-54 -30q-2 0 -32 6q-23 82 -84 145q-118 121 -318 121q-358 0 -358 -536q0 -250 110 -421t312 -171q148 0 256 108q42 42 79 147q11 31 13 31q82 0 90 -20q0 -28 -31 -156t-51 -136q-208 -76 -418 -82l-26 -50q28 2 44 2z" />
    <glyph glyph-name="Egrave" unicode="&#xc8;" horiz-adv-x="1196" 
d="M730 1497q0 -11 -9 -26t-19 -15q-36 0 -198 79t-162 127q0 38 38 57t66 19t44 -8q66 -50 153 -136t87 -97zM54 33q0 33 8 33q24 0 75 14t57 30q12 46 12 176v756q0 110 -12 156q-6 16 -59 36t-75 20q-8 0 -8 34t6 40q160 -10 294 -10l646 10q2 -20 58 -296
q-10 -10 -39 -10t-35 14q-38 76 -120 130t-160 54h-76q-126 0 -130 -26q-10 -48 -10 -156v-308q0 -12 86 -12h106q124 0 136 8q10 8 15 48t13 68q2 14 33 14t41 -10v-378q-8 -8 -38 -8t-36 16q-26 92 -34 100t-14 11t-8 5q-26 16 -163 16t-137 -18v-308q0 -96 16 -142
q10 -32 136 -32h52q124 0 224 52q34 18 77 68t67 112q2 12 39 12t49 -12q-98 -276 -108 -344l-684 8l-292 -12q-8 8 -8 41z" />
    <glyph glyph-name="Eacute" unicode="&#xc9;" horiz-adv-x="1196" 
d="M442 1497q0 11 87 97t153 136q16 8 44 8t66 -19t38 -57q0 -48 -162 -127t-198 -79q-10 0 -19 15t-9 26zM54 33q0 33 8 33q24 0 75 14t57 30q12 46 12 176v756q0 110 -12 156q-6 16 -59 36t-75 20q-8 0 -8 34t6 40q160 -10 294 -10l646 10q2 -20 58 -296q-10 -10 -39 -10
t-35 14q-38 76 -120 130t-160 54h-76q-126 0 -130 -26q-10 -48 -10 -156v-308q0 -12 86 -12h106q124 0 136 8q10 8 15 48t13 68q2 14 33 14t41 -10v-378q-8 -8 -38 -8t-36 16q-26 92 -34 100t-14 11t-8 5q-26 16 -163 16t-137 -18v-308q0 -96 16 -142q10 -32 136 -32h52
q124 0 224 52q34 18 77 68t67 112q2 12 39 12t49 -12q-98 -276 -108 -344l-684 8l-292 -12q-8 8 -8 41z" />
    <glyph glyph-name="Ecircumflex" unicode="&#xca;" horiz-adv-x="1196" 
d="M820 1456q-18 0 -104 45t-138 79q-52 -34 -138 -79t-104 -45t-18 38q133 99 232 226q16 18 27 18t22 -11t37 -41q100 -116 202 -192q0 -38 -18 -38zM54 33q0 33 8 33q24 0 75 14t57 30q12 46 12 176v756q0 110 -12 156q-6 16 -59 36t-75 20q-8 0 -8 34t6 40
q160 -10 294 -10l646 10q2 -20 58 -296q-10 -10 -39 -10t-35 14q-38 76 -120 130t-160 54h-76q-126 0 -130 -26q-10 -48 -10 -156v-308q0 -12 86 -12h106q124 0 136 8q10 8 15 48t13 68q2 14 33 14t41 -10v-378q-8 -8 -38 -8t-36 16q-26 92 -34 100t-14 11t-8 5
q-26 16 -163 16t-137 -18v-308q0 -96 16 -142q10 -32 136 -32h52q124 0 224 52q34 18 77 68t67 112q2 12 39 12t49 -12q-98 -276 -108 -344l-684 8l-292 -12q-8 8 -8 41z" />
    <glyph glyph-name="Edieresis" unicode="&#xcb;" horiz-adv-x="1196" 
d="M200 1604q0 62 43 105t105 43t105 -43t43 -105t-43 -105t-105 -43t-105 43t-43 105zM660 1604q0 62 43 105t105 43t105 -43t43 -105t-43 -105t-105 -43t-105 43t-43 105zM54 33q0 33 8 33q24 0 75 14t57 30q12 46 12 176v756q0 110 -12 156q-6 16 -59 36t-75 20
q-8 0 -8 34t6 40q160 -10 294 -10l646 10q2 -20 58 -296q-10 -10 -39 -10t-35 14q-38 76 -120 130t-160 54h-76q-126 0 -130 -26q-10 -48 -10 -156v-308q0 -12 86 -12h106q124 0 136 8q10 8 15 48t13 68q2 14 33 14t41 -10v-378q-8 -8 -38 -8t-36 16q-26 92 -34 100t-14 11
t-8 5q-26 16 -163 16t-137 -18v-308q0 -96 16 -142q10 -32 136 -32h52q124 0 224 52q34 18 77 68t67 112q2 12 39 12t49 -12q-98 -276 -108 -344l-684 8l-292 -12q-8 8 -8 41z" />
    <glyph glyph-name="Igrave" unicode="&#xcc;" horiz-adv-x="692" 
d="M484 1497q0 -11 -9 -26t-19 -15q-36 0 -198 79t-162 127q0 38 38 57t66 19t44 -8q66 -50 153 -136t87 -97zM52 33q0 33 6 33q22 0 74 17t58 33q14 54 14 160v768q0 128 -13 150t-59 39t-68 17q-8 0 -8 35t4 39q30 -2 115 -8t150 -5t305 13q6 -18 6 -46t-8 -28
q-18 0 -72 -17t-58 -31q-14 -56 -14 -140v-770q0 -114 16 -176q4 -14 55 -32t69 -18q8 0 8 -31t-4 -43l-278 16q-66 0 -290 -16q-8 8 -8 41z" />
    <glyph glyph-name="Iacute" unicode="&#xcd;" horiz-adv-x="692" 
d="M200 1497q0 11 87 97t153 136q16 8 44 8t66 -19t38 -57q0 -48 -162 -127t-198 -79q-10 0 -19 15t-9 26zM52 33q0 33 6 33q22 0 74 17t58 33q14 54 14 160v768q0 128 -13 150t-59 39t-68 17q-8 0 -8 35t4 39q30 -2 115 -8t150 -5t305 13q6 -18 6 -46t-8 -28q-18 0 -72 -17
t-58 -31q-14 -56 -14 -140v-770q0 -114 16 -176q4 -14 55 -32t69 -18q8 0 8 -31t-4 -43l-278 16q-66 0 -290 -16q-8 8 -8 41z" />
    <glyph glyph-name="Icircumflex" unicode="&#xce;" horiz-adv-x="692" 
d="M586 1456q-18 0 -104 45t-138 79q-52 -34 -138 -79t-104 -45t-18 38q133 99 232 226q16 18 27 18t22 -11t37 -41q100 -116 202 -192q0 -38 -18 -38zM52 33q0 33 6 33q22 0 74 17t58 33q14 54 14 160v768q0 128 -13 150t-59 39t-68 17q-8 0 -8 35t4 39q30 -2 115 -8
t150 -5t305 13q6 -18 6 -46t-8 -28q-18 0 -72 -17t-58 -31q-14 -56 -14 -140v-770q0 -114 16 -176q4 -14 55 -32t69 -18q8 0 8 -31t-4 -43l-278 16q-66 0 -290 -16q-8 8 -8 41z" />
    <glyph glyph-name="Idieresis" unicode="&#xcf;" horiz-adv-x="692" 
d="M-32 1604q0 62 43 105t105 43t105 -43t43 -105t-43 -105t-105 -43t-105 43t-43 105zM428 1604q0 62 43 105t105 43t105 -43t43 -105t-43 -105t-105 -43t-105 43t-43 105zM52 33q0 33 6 33q22 0 74 17t58 33q14 54 14 160v768q0 128 -13 150t-59 39t-68 17q-8 0 -8 35
t4 39q30 -2 115 -8t150 -5t305 13q6 -18 6 -46t-8 -28q-18 0 -72 -17t-58 -31q-14 -56 -14 -140v-770q0 -114 16 -176q4 -14 55 -32t69 -18q8 0 8 -31t-4 -43l-278 16q-66 0 -290 -16q-8 8 -8 41z" />
    <glyph glyph-name="Eth" unicode="&#xd0;" horiz-adv-x="1412" 
d="M24 33q0 33 8 33q24 0 75 14t57 30q12 46 12 176v328h-102q-10 0 -10 37t12 55h100v336q0 110 -12 156q-6 16 -59 36t-75 20q-8 0 -8 34t6 40q162 -10 294 -10h348q220 0 381 -96t235 -240t74 -310q0 -290 -184 -484t-508 -194l-344 10l-292 -12q-8 8 -8 41zM456 614
v-342q0 -130 18 -140q44 -26 220 -26t269 144t93 430q0 220 -99 373t-271 153h-10q-170 0 -195 -34t-25 -124v-342h310q12 0 12 -33t-12 -59h-310z" />
    <glyph glyph-name="Ntilde" unicode="&#xd1;" horiz-adv-x="1554" 
d="M414 1478q-16 0 -16 46t36 98q76 102 164 102t204 -68t192 -68q38 0 86 57t58 57q16 0 16 -47t-36 -99q-70 -100 -172 -100q-76 0 -192 68t-192 68q-36 0 -88 -57t-60 -57zM359 1308q43 0 171 16q56 -111 388 -516q156 -190 248 -312q4 14 4 82v470q0 114 -22 140t-79 44
t-81 18q-8 0 -10 33t4 41q184 -16 252 -16t260 16q8 -16 8 -45t-10 -29q-110 0 -166 -66q-28 -34 -28 -146v-760q0 -72 8 -280q-8 -8 -41 -8t-71 46l-814 1012v-766q0 -110 17 -143t83 -52t96 -19q6 0 7 -34t-3 -42l-270 16q-52 0 -132 -7t-116 -9q-6 6 -6 40t6 34
q55 0 104 23q48 23 67 54t19 145v786q0 104 -30 142q-10 14 -70 24t-88 10q-8 0 -10 33t6 41q256 -16 299 -16z" />
    <glyph glyph-name="Ograve" unicode="&#xd2;" horiz-adv-x="1390" 
d="M720 1497q0 -11 -9 -26t-19 -15q-36 0 -198 79t-162 127q0 38 38 57t66 19t44 -8q66 -50 153 -136t87 -97zM50 656q0 280 189 479t453 199t454 -199t190 -479t-190 -478t-454 -198t-453 198t-189 478zM661 1222q-105 0 -175 -77q-124 -136 -124 -445q0 -207 77 -395
q39 -95 113 -154t172 -59q150 0 225 152t75 375t-72 400q-38 93 -112 148t-179 55z" />
    <glyph glyph-name="Oacute" unicode="&#xd3;" horiz-adv-x="1390" 
d="M664 1497q0 11 87 97t153 136q16 8 44 8t66 -19t38 -57q0 -48 -162 -127t-198 -79q-10 0 -19 15t-9 26zM50 656q0 280 189 479t453 199t454 -199t190 -479t-190 -478t-454 -198t-453 198t-189 478zM661 1222q-105 0 -175 -77q-124 -136 -124 -445q0 -207 77 -395
q39 -95 113 -154t172 -59q150 0 225 152t75 375t-72 400q-38 93 -112 148t-179 55z" />
    <glyph glyph-name="Ocircumflex" unicode="&#xd4;" horiz-adv-x="1390" 
d="M934 1456q-18 0 -104 45t-138 79q-52 -34 -138 -79t-104 -45t-18 38q133 99 232 226q16 18 27 18t22 -11t37 -41q100 -116 202 -192q0 -38 -18 -38zM50 656q0 280 189 479t453 199t454 -199t190 -479t-190 -478t-454 -198t-453 198t-189 478zM661 1222q-105 0 -175 -77
q-124 -136 -124 -445q0 -207 77 -395q39 -95 113 -154t172 -59q150 0 225 152t75 375t-72 400q-38 93 -112 148t-179 55z" />
    <glyph glyph-name="Otilde" unicode="&#xd5;" horiz-adv-x="1390" 
d="M330 1478q-16 0 -16 46t36 98q76 102 164 102t204 -68t192 -68q38 0 86 57t58 57q16 0 16 -47t-36 -99q-70 -100 -172 -100q-76 0 -192 68t-192 68q-36 0 -88 -57t-60 -57zM50 656q0 280 189 479t453 199t454 -199t190 -479t-190 -478t-454 -198t-453 198t-189 478z
M661 1222q-105 0 -175 -77q-124 -136 -124 -445q0 -207 77 -395q39 -95 113 -154t172 -59q150 0 225 152t75 375t-72 400q-38 93 -112 148t-179 55z" />
    <glyph glyph-name="Odieresis" unicode="&#xd6;" horiz-adv-x="1390" 
d="M314 1604q0 62 43 105t105 43t105 -43t43 -105t-43 -105t-105 -43t-105 43t-43 105zM774 1604q0 62 43 105t105 43t105 -43t43 -105t-43 -105t-105 -43t-105 43t-43 105zM50 656q0 280 189 479t453 199t454 -199t190 -479t-190 -478t-454 -198t-453 198t-189 478z
M661 1222q-105 0 -175 -77q-124 -136 -124 -445q0 -207 77 -395q39 -95 113 -154t172 -59q150 0 225 152t75 375t-72 400q-38 93 -112 148t-179 55z" />
    <glyph glyph-name="multiply" unicode="&#xd7;" horiz-adv-x="850" 
d="M798 768q0 -4 -4 -8l-258 -258q-8 -8 -2 -14l260 -260h2q0 -2 2 -6t-14 -33t-43 -56t-33 -21l-4 2l-270 270q-10 8 -16 2l-276 -276q-2 -2 -14 -2t-28 18q-66 78 -48 96l268 268q4 4 -2 10l-258 258q-24 24 68 116q10 10 24 -4l268 -268q6 -6 14 2l270 270q10 10 24 -4
q40 -40 55 -69t15 -33z" />
    <glyph glyph-name="Oslash" unicode="&#xd8;" horiz-adv-x="1400" 
d="M50 656q0 280 189 479t453 199q149 0 274 -63l46 81q80 -30 76 -42l-47 -84q55 -39 105 -91q190 -199 190 -479t-190 -478t-454 -198q-167 0 -304 80l-54 -96q-80 30 -76 44l57 101q-265 211 -265 547zM362 700q0 -196 71 -380l452 806q-88 96 -208 96q-121 0 -191 -77
q-124 -136 -124 -445zM949 244q75 152 75 386t-84 416l-459 -819q94 -135 244 -135q149 0 224 152z" />
    <glyph glyph-name="Ugrave" unicode="&#xd9;" horiz-adv-x="1506" 
d="M860 1497q0 -11 -9 -26t-19 -15q-36 0 -198 79t-162 127q0 38 38 57t66 19t44 -8q66 -50 153 -136t87 -97zM1186 1308q68 0 260 16q8 -16 8 -45t-10 -29q-110 0 -166 -66q-28 -34 -28 -146v-456q0 -292 -143 -442t-379 -150t-384 152t-148 480v422q0 128 -13 150t-59 39
t-68 17q-8 0 -8 35t4 39q276 -12 303 -12t267 12q6 -18 6 -46t-8 -28q-18 0 -72 -17t-58 -31q-14 -54 -14 -170v-474q0 -184 83 -296t228 -112t240 97t95 325v476q0 114 -22 140t-79 44t-81 18q-8 0 -10 33t4 41q184 -16 252 -16z" />
    <glyph glyph-name="Uacute" unicode="&#xda;" horiz-adv-x="1506" 
d="M628 1497q0 11 87 97t153 136q16 8 44 8t66 -19t38 -57q0 -48 -162 -127t-198 -79q-10 0 -19 15t-9 26zM1186 1308q68 0 260 16q8 -16 8 -45t-10 -29q-110 0 -166 -66q-28 -34 -28 -146v-456q0 -292 -143 -442t-379 -150t-384 152t-148 480v422q0 128 -13 150t-59 39
t-68 17q-8 0 -8 35t4 39q276 -12 303 -12t267 12q6 -18 6 -46t-8 -28q-18 0 -72 -17t-58 -31q-14 -54 -14 -170v-474q0 -184 83 -296t228 -112t240 97t95 325v476q0 114 -22 140t-79 44t-81 18q-8 0 -10 33t4 41q184 -16 252 -16z" />
    <glyph glyph-name="Ucircumflex" unicode="&#xdb;" horiz-adv-x="1506" 
d="M1002 1456q-18 0 -104 45t-138 79q-52 -34 -138 -79t-104 -45t-18 38q133 99 232 226q16 18 27 18t22 -11t37 -41q100 -116 202 -192q0 -38 -18 -38zM1186 1308q68 0 260 16q8 -16 8 -45t-10 -29q-110 0 -166 -66q-28 -34 -28 -146v-456q0 -292 -143 -442t-379 -150
t-384 152t-148 480v422q0 128 -13 150t-59 39t-68 17q-8 0 -8 35t4 39q276 -12 303 -12t267 12q6 -18 6 -46t-8 -28q-18 0 -72 -17t-58 -31q-14 -54 -14 -170v-474q0 -184 83 -296t228 -112t240 97t95 325v476q0 114 -22 140t-79 44t-81 18q-8 0 -10 33t4 41
q184 -16 252 -16z" />
    <glyph glyph-name="Udieresis" unicode="&#xdc;" horiz-adv-x="1506" 
d="M368 1604q0 62 43 105t105 43t105 -43t43 -105t-43 -105t-105 -43t-105 43t-43 105zM828 1604q0 62 43 105t105 43t105 -43t43 -105t-43 -105t-105 -43t-105 43t-43 105zM1186 1308q68 0 260 16q8 -16 8 -45t-10 -29q-110 0 -166 -66q-28 -34 -28 -146v-456
q0 -292 -143 -442t-379 -150t-384 152t-148 480v422q0 128 -13 150t-59 39t-68 17q-8 0 -8 35t4 39q276 -12 303 -12t267 12q6 -18 6 -46t-8 -28q-18 0 -72 -17t-58 -31q-14 -54 -14 -170v-474q0 -184 83 -296t228 -112t240 97t95 325v476q0 114 -22 140t-79 44t-81 18
q-8 0 -10 33t4 41q184 -16 252 -16z" />
    <glyph glyph-name="Yacute" unicode="&#xdd;" horiz-adv-x="1338" 
d="M644 1497q0 11 87 97t153 136q16 8 44 8t66 -19t38 -57q0 -48 -162 -127t-198 -79q-10 0 -19 15t-9 26zM337 1312q63 0 303 12q4 -8 3 -41t-7 -33q-30 0 -67 -11t-39 -31q0 -16 16 -44l200 -354q10 -10 20 4q58 84 138 222t80 170q0 44 -128 44q-8 0 -9 33t7 41
q180 -12 237 -12t231 12q6 -18 6 -45t-8 -27q-36 0 -82 -18t-74 -54q-52 -70 -201 -308t-149 -264v-318q0 -112 16 -174q4 -14 55 -32t69 -18q8 0 8 -31t-4 -43l-278 16q-66 0 -290 -16q-8 8 -8 41t6 33q22 0 74 17t58 33q14 54 14 162v340q0 23 -188 350l-62 106
q-66 122 -112 149t-102 27q-8 0 -8 33t8 41q204 -12 267 -12z" />
    <glyph glyph-name="Thorn" unicode="&#xde;" horiz-adv-x="1144" 
d="M12 33q0 33 6 33q22 0 74 17t58 33q14 54 14 160v768q0 128 -13 150t-59 39t-68 17q-8 0 -8 35t4 39q276 -12 303 -12t267 12q6 -18 6 -46t-8 -28q-18 0 -72 -17t-58 -31q-14 -54 -14 -160v-10q0 -8 8 -8q80 16 144 16t138 -19t147 -58t120 -114t47 -171
q0 -162 -125 -280t-303 -118q-60 0 -94 19t-40 28t-8 41t8 32q26 -16 90 -16q168 0 168 273t-184 273q-76 0 -89 -8t-20 -22t-7 -182v-436q0 -104 16 -166q4 -14 55 -32t69 -18q8 0 8 -31t-4 -43l-278 16q-66 0 -290 -16q-8 8 -8 41z" />
    <glyph glyph-name="germandbls" unicode="&#xdf;" horiz-adv-x="1216" 
d="M334 8q-78 0 -270 -16q-6 6 -6 31t8 25q22 0 64 15t46 29q18 70 19 262t1 368q0 16 -10 16h-106q-6 0 -6 16t11 57t19 41h82q10 0 10 12v40q0 242 138 365t334 123q144 0 256 -72t112 -190q0 -90 -42 -147t-91 -78t-91 -58t-42 -89q0 -120 176 -216q84 -44 153 -121
t69 -161q0 -118 -81 -196t-180 -78t-185 40t-104 72q0 56 20 99t62 43t70 -22t38 -50q26 -72 80 -72q22 0 33 28t11 56v28q0 95 -127 172q-53 32 -107 66t-91 90t-37 121t23 107t55 71t65 60q79 74 79 203q0 186 -192 186q-97 0 -123 -108q-21 -87 -21 -226v-672
q0 -98 16 -170q2 -14 49 -31t63 -17q6 0 7 -30t-3 -38q-176 16 -254 16z" />
    <glyph glyph-name="agrave" unicode="&#xe0;" horiz-adv-x="972" 
d="M232 1292q0 18 23 38t71 20t66 -18q74 -87 130 -179q56 -91 56 -99t-12 -21t-22 -13q-26 0 -169 111t-143 161zM493 898q149 0 224 -77t75 -279v-324q0 -68 48 -68q34 0 68 26q14 -8 14 -44t-14 -60q-28 -26 -91 -55t-115 -29t-96 29t-58 67q-2 0 -16 -11
q-111 -87 -252 -87q-94 0 -159 61t-65 153q0 150 172 227q81 36 171 61q91 24 112 31t21 31v72q0 164 -100 164q-116 0 -116 -134q0 -44 -36 -65t-80 -21q-92 0 -126 60q0 102 135 187t284 85zM426 130q48 0 77 25t29 61v202q-4 -2 -39 -13t-45 -15t-38 -15
q-94 -37 -94 -124q0 -57 31 -89t79 -32z" />
    <glyph glyph-name="aacute" unicode="&#xe1;" horiz-adv-x="972" 
d="M578 1350q48 0 71 -20t23 -38q0 -50 -143 -161t-169 -111q-10 0 -22 13t-12 21t56 99t130 179q18 18 66 18zM493 898q149 0 224 -77t75 -279v-324q0 -68 48 -68q34 0 68 26q14 -8 14 -44t-14 -60q-28 -26 -91 -55t-115 -29t-96 29t-58 67q-2 0 -16 -11q-111 -87 -252 -87
q-94 0 -159 61t-65 153q0 150 172 227q81 36 171 61q91 24 112 31t21 31v72q0 164 -100 164q-116 0 -116 -134q0 -44 -36 -65t-80 -21q-92 0 -126 60q0 102 135 187t284 85zM426 130q48 0 77 25t29 61v202q-4 -2 -39 -13t-45 -15t-38 -15q-94 -37 -94 -124q0 -57 31 -89
t79 -32z" />
    <glyph glyph-name="acircumflex" unicode="&#xe2;" horiz-adv-x="972" 
d="M675 1020q-17 0 -95 54t-124 94q-46 -40 -124 -94t-95 -54t-17 46q48 48 111 129t87 121t35 40t22 -14t34 -49q84 -128 183 -227q0 -46 -17 -46zM493 898q149 0 224 -77t75 -279v-324q0 -68 48 -68q34 0 68 26q14 -8 14 -44t-14 -60q-28 -26 -91 -55t-115 -29t-96 29
t-58 67q-2 0 -16 -11q-111 -87 -252 -87q-94 0 -159 61t-65 153q0 150 172 227q81 36 171 61q91 24 112 31t21 31v72q0 164 -100 164q-116 0 -116 -134q0 -44 -36 -65t-80 -21q-92 0 -126 60q0 102 135 187t284 85zM426 130q48 0 77 25t29 61v202q-4 -2 -39 -13t-45 -15
t-38 -15q-94 -37 -94 -124q0 -57 31 -89t79 -32z" />
    <glyph glyph-name="atilde" unicode="&#xe3;" horiz-adv-x="972" 
d="M136 1038q-14 0 -14 37t32 91q64 92 134 92t166 -61t158 -61q32 0 72 51t50 51t10 -39t-30 -91q-58 -88 -130 -88t-168 60t-160 60q-28 0 -70 -51t-50 -51zM493 898q149 0 224 -77t75 -279v-324q0 -68 48 -68q34 0 68 26q14 -8 14 -44t-14 -60q-28 -26 -91 -55t-115 -29
t-96 29t-58 67q-2 0 -16 -11q-111 -87 -252 -87q-94 0 -159 61t-65 153q0 150 172 227q81 36 171 61q91 24 112 31t21 31v72q0 164 -100 164q-116 0 -116 -134q0 -44 -36 -65t-80 -21q-92 0 -126 60q0 102 135 187t284 85zM426 130q48 0 77 25t29 61v202q-4 -2 -39 -13
t-45 -15t-38 -15q-94 -37 -94 -124q0 -57 31 -89t79 -32z" />
    <glyph glyph-name="adieresis" unicode="&#xe4;" horiz-adv-x="972" 
d="M66 1164q0 60 41 101t101 41t102 -41t42 -101t-42 -102t-102 -42t-101 42t-41 102zM510 1164q0 60 42 101t102 41t102 -41t42 -101t-42 -102t-102 -42t-102 42t-42 102zM493 898q149 0 224 -77t75 -279v-324q0 -68 48 -68q34 0 68 26q14 -8 14 -44t-14 -60
q-28 -26 -91 -55t-115 -29t-96 29t-58 67q-2 0 -16 -11q-111 -87 -252 -87q-94 0 -159 61t-65 153q0 150 172 227q81 36 171 61q91 24 112 31t21 31v72q0 164 -100 164q-116 0 -116 -134q0 -44 -36 -65t-80 -21q-92 0 -126 60q0 102 135 187t284 85zM426 130q48 0 77 25
t29 61v202q-4 -2 -39 -13t-45 -15t-38 -15q-94 -37 -94 -124q0 -57 31 -89t79 -32z" />
    <glyph glyph-name="aring" unicode="&#xe5;" horiz-adv-x="972" 
d="M256 1218q0 80 58 138t140 58t139 -58t57 -139t-58 -139t-139 -58t-139 59t-58 139zM348 1218q0 -46 31 -77t75 -31t75 31t31 77t-31 77t-75 31t-75 -31t-31 -77zM493 898q149 0 224 -77t75 -279v-324q0 -68 48 -68q34 0 68 26q14 -8 14 -44t-14 -60q-28 -26 -91 -55
t-115 -29t-96 29t-58 67q-2 0 -16 -11q-111 -87 -252 -87q-94 0 -159 61t-65 153q0 150 172 227q81 36 171 61q91 24 112 31t21 31v72q0 164 -100 164q-116 0 -116 -134q0 -44 -36 -65t-80 -21q-92 0 -126 60q0 102 135 187t284 85zM426 130q48 0 77 25t29 61v202
q-4 -2 -39 -13t-45 -15t-38 -15q-94 -37 -94 -124q0 -57 31 -89t79 -32z" />
    <glyph glyph-name="ae" unicode="&#xe6;" horiz-adv-x="1358" 
d="M468 898q142 0 224 -90q126 90 234 90q201 0 298 -138q83 -119 92 -236q2 -22 -15 -36t-88 -25t-429 -57q-10 -2 -10 -19t11 -53t35 -81t74 -76t117 -31t126 20t81 34t64 44q18 -14 18 -36t-10 -46q-20 -48 -122 -113t-226 -65q-188 0 -320 138q-74 -70 -148 -103
t-190 -33t-181 61t-65 153q0 149 165 223q69 31 160 52t123 29q18 4 18 28v90q0 74 -25 119t-65 45q-116 0 -116 -134q0 -44 -36 -65t-80 -21q-92 0 -126 60q0 102 135 187t277 85zM914 784q-70 0 -105 -77t-35 -167q0 -12 14 -12q248 32 264 36q12 4 12 20q0 78 -40 139
t-110 61zM504 216v170q-154 -19 -189 -64q-17 -22 -17 -75t31 -85t77 -32t72 25t26 61z" />
    <glyph glyph-name="ccedilla" unicode="&#xe7;" horiz-adv-x="924" 
d="M549 -54q29 0 61 -31t32 -71q0 -72 -52 -114t-129 -42t-109 32q-4 12 -4 37t14 25l38 -14q36 -16 68 -16t52 17t20 41q0 56 -48 56q-30 0 -60 -12q-4 0 -17 13t-11 19q10 16 26 52t25 50q-159 16 -281 142t-122 316t139 319t339 129q86 0 177 -32t135 -86
q0 -184 -108 -184q-78 0 -118 100q-18 46 -45 69t-75 23q-160 0 -160 -300q0 -338 226 -338q66 0 126 19t84 34t64 45q18 -8 18 -35t-8 -43q-20 -50 -116 -113t-211 -67l-23 -42q24 2 53 2z" />
    <glyph glyph-name="egrave" unicode="&#xe8;" horiz-adv-x="924" 
d="M246 1292q0 18 23 38t71 20t66 -18q74 -87 130 -179q56 -91 56 -99t-12 -21t-22 -13q-26 0 -169 111t-143 161zM479 894q187 0 296 -125t109 -255q0 -46 -19 -60t-75 -14h-452q-12 0 -12 -14q0 -108 61 -194t175 -86q66 0 126 19t84 34t64 45q18 -8 18 -35t-8 -43
q-20 -48 -120 -114t-224 -66q-184 0 -317 134t-133 324t120 320t307 130zM469 784q-71 0 -107 -75t-36 -147q0 -12 14 -12h254q28 0 28 38q0 76 -41 136t-112 60z" />
    <glyph glyph-name="eacute" unicode="&#xe9;" horiz-adv-x="924" 
d="M620 1350q48 0 71 -20t23 -38q0 -50 -143 -161t-169 -111q-10 0 -22 13t-12 21t56 99t130 179q18 18 66 18zM479 894q187 0 296 -125t109 -255q0 -46 -19 -60t-75 -14h-452q-12 0 -12 -14q0 -108 61 -194t175 -86q66 0 126 19t84 34t64 45q18 -8 18 -35t-8 -43
q-20 -48 -120 -114t-224 -66q-184 0 -317 134t-133 324t120 320t307 130zM469 784q-71 0 -107 -75t-36 -147q0 -12 14 -12h254q28 0 28 38q0 76 -41 136t-112 60z" />
    <glyph glyph-name="ecircumflex" unicode="&#xea;" horiz-adv-x="924" 
d="M681 1020q-17 0 -95 54t-124 94q-46 -40 -124 -94t-95 -54t-17 46q48 48 111 129t87 121t35 40t22 -14t34 -49q84 -128 183 -227q0 -46 -17 -46zM479 894q187 0 296 -125t109 -255q0 -46 -19 -60t-75 -14h-452q-12 0 -12 -14q0 -108 61 -194t175 -86q66 0 126 19t84 34
t64 45q18 -8 18 -35t-8 -43q-20 -48 -120 -114t-224 -66q-184 0 -317 134t-133 324t120 320t307 130zM469 784q-71 0 -107 -75t-36 -147q0 -12 14 -12h254q28 0 28 38q0 76 -41 136t-112 60z" />
    <glyph glyph-name="edieresis" unicode="&#xeb;" horiz-adv-x="924" 
d="M96 1164q0 60 41 101t101 41t102 -41t42 -101t-42 -102t-102 -42t-101 42t-41 102zM540 1164q0 60 42 101t102 41t102 -41t42 -101t-42 -102t-102 -42t-102 42t-42 102zM479 894q187 0 296 -125t109 -255q0 -46 -19 -60t-75 -14h-452q-12 0 -12 -14q0 -108 61 -194
t175 -86q66 0 126 19t84 34t64 45q18 -8 18 -35t-8 -43q-20 -48 -120 -114t-224 -66q-184 0 -317 134t-133 324t120 320t307 130zM469 784q-71 0 -107 -75t-36 -147q0 -12 14 -12h254q28 0 28 38q0 76 -41 136t-112 60z" />
    <glyph glyph-name="igrave" unicode="&#xec;" horiz-adv-x="654" 
d="M110 1292q0 18 23 38t71 20t66 -18q74 -87 130 -179q56 -91 56 -99t-12 -21t-22 -13q-26 0 -169 111t-143 161zM456 652v-360q0 -118 16 -182q4 -14 50 -32t62 -18q6 0 7 -30t-3 -38q-192 16 -254 16t-270 -16q-8 8 -8 38t8 30q22 0 68 17t50 33q14 60 14 152v292
q0 112 -36 150q-23 27 -67 35q-43 9 -43 11q0 58 10 58q38 0 174 27t192 45l22 6q10 0 20 -13t10 -21q-22 -176 -22 -200z" />
    <glyph glyph-name="iacute" unicode="&#xed;" horiz-adv-x="654" 
d="M436 1350q48 0 71 -20t23 -38q0 -50 -143 -161t-169 -111q-10 0 -22 13t-12 21t56 99t130 179q18 18 66 18zM456 652v-360q0 -118 16 -182q4 -14 50 -32t62 -18q6 0 7 -30t-3 -38q-192 16 -254 16t-270 -16q-8 8 -8 38t8 30q22 0 68 17t50 33q14 60 14 152v292
q0 112 -36 150q-23 27 -67 35q-43 9 -43 11q0 58 10 58q38 0 174 27t192 45l22 6q10 0 20 -13t10 -21q-22 -176 -22 -200z" />
    <glyph glyph-name="icircumflex" unicode="&#xee;" horiz-adv-x="654" 
d="M529 1020q-17 0 -95 54t-124 94q-46 -40 -124 -94t-95 -54t-17 46q48 48 111 129t87 121t35 40t22 -14t34 -49q84 -128 183 -227q0 -46 -17 -46zM456 652v-360q0 -118 16 -182q4 -14 50 -32t62 -18q6 0 7 -30t-3 -38q-192 16 -254 16t-270 -16q-8 8 -8 38t8 30
q22 0 68 17t50 33q14 60 14 152v292q0 112 -36 150q-23 27 -67 35q-43 9 -43 11q0 58 10 58q38 0 174 27t192 45l22 6q10 0 20 -13t10 -21q-22 -176 -22 -200z" />
    <glyph glyph-name="idieresis" unicode="&#xef;" horiz-adv-x="654" 
d="M112 1300q58 0 99 -41t41 -97t-41 -98t-99 -42t-99 42t-41 98t41 97t99 41zM515 1300q57 0 98 -41t41 -97t-42 -98t-98 -42t-97 41t-41 98t41 98t98 41zM456 652v-360q0 -118 16 -182q4 -14 50 -32t62 -18q6 0 7 -30t-3 -38q-192 16 -254 16t-270 -16q-8 8 -8 38t8 30
q22 0 68 17t50 33q14 60 14 152v292q0 112 -36 150q-23 27 -67 35q-43 9 -43 11q0 58 10 58q38 0 174 27t192 45l22 6q10 0 20 -13t10 -21q-22 -176 -22 -200z" />
    <glyph glyph-name="eth" unicode="&#xf0;" horiz-adv-x="1042" 
d="M504 784q-164 0 -164 -294q0 -168 47 -281t153 -113q158 0 158 310q-4 168 -19 234t-68 105t-107 39zM184 1390q205 0 405 -125l209 129q50 -60 38 -70l-176 -109q72 -55 144 -138t125 -226t53 -303q0 -317 -150 -446q-132 -114 -312 -114t-322 127t-142 308t128 326
t316 145q104 0 130 -8q-44 133 -129 230l-213 -132q-50 60 -36 72l192 119q-118 105 -280 149q0 66 20 66z" />
    <glyph glyph-name="ntilde" unicode="&#xf1;" horiz-adv-x="1244" 
d="M318 1038q-14 0 -14 37t32 91q64 92 134 92t166 -61t158 -61q32 0 72 51t50 51t10 -39t-30 -91q-58 -88 -130 -88t-168 60t-160 60q-28 0 -70 -51t-50 -51zM776 448q0 274 -158 274q-152 0 -152 -88v-336q0 -128 14 -182q4 -14 53 -32t65 -18q6 0 7 -33t-3 -41
q-192 16 -278 16t-262 -16q-8 8 -8 41t8 33q22 0 74 18t56 32q14 60 14 152v274q0 112 -36 150q-23 27 -67 35q-43 9 -43 11q0 70 10 70q37 0 226 42l158 34l4 2q10 0 20 -13t10 -21q-8 -56 -8 -64t2 -10q4 0 14 10q112 104 278 104q116 0 189 -98t73 -298v-198
q0 -128 14 -182q4 -14 56 -32t70 -18q6 0 7 -33t-3 -41q-176 16 -262 16t-278 -16q-8 8 -8 41t8 33q22 0 70 18t52 32q14 60 14 152v180z" />
    <glyph glyph-name="ograve" unicode="&#xf2;" horiz-adv-x="1046" 
d="M278 1292q0 18 23 38t71 20t66 -18q74 -87 130 -179q56 -91 56 -99t-12 -21t-22 -13q-26 0 -169 111t-143 161zM522 894q196 0 333 -132t137 -322t-136 -322t-333 -132t-334 132t-137 322t137 322t333 132zM494 784q-58 0 -96 -46q-62 -75 -62 -236q0 -406 206 -406
q84 0 123 82t39 192q0 414 -210 414z" />
    <glyph glyph-name="oacute" unicode="&#xf3;" horiz-adv-x="1046" 
d="M684 1350q48 0 71 -20t23 -38q0 -50 -143 -161t-169 -111q-10 0 -22 13t-12 21t56 99t130 179q18 18 66 18zM522 894q196 0 333 -132t137 -322t-136 -322t-333 -132t-334 132t-137 322t137 322t333 132zM494 784q-58 0 -96 -46q-62 -75 -62 -236q0 -406 206 -406
q84 0 123 82t39 192q0 414 -210 414z" />
    <glyph glyph-name="ocircumflex" unicode="&#xf4;" horiz-adv-x="1046" 
d="M741 1020q-17 0 -95 54t-124 94q-46 -40 -124 -94t-95 -54t-17 46q48 48 111 129t87 121t35 40t22 -14t34 -49q84 -128 183 -227q0 -46 -17 -46zM522 894q196 0 333 -132t137 -322t-136 -322t-333 -132t-334 132t-137 322t137 322t333 132zM494 784q-58 0 -96 -46
q-62 -75 -62 -236q0 -406 206 -406q84 0 123 82t39 192q0 414 -210 414z" />
    <glyph glyph-name="otilde" unicode="&#xf5;" horiz-adv-x="1046" 
d="M224 1038q-14 0 -14 37t32 91q64 92 134 92t166 -61t158 -61q32 0 72 51t50 51t10 -39t-30 -91q-58 -88 -130 -88t-168 60t-160 60q-28 0 -70 -51t-50 -51zM522 894q196 0 333 -132t137 -322t-136 -322t-333 -132t-334 132t-137 322t137 322t333 132zM494 784
q-58 0 -96 -46q-62 -75 -62 -236q0 -406 206 -406q84 0 123 82t39 192q0 414 -210 414z" />
    <glyph glyph-name="odieresis" unicode="&#xf6;" horiz-adv-x="1046" 
d="M144 1164q0 60 41 101t101 41t102 -41t42 -101t-42 -102t-102 -42t-101 42t-41 102zM588 1164q0 60 42 101t102 41t102 -41t42 -101t-42 -102t-102 -42t-102 42t-42 102zM522 894q196 0 333 -132t137 -322t-136 -322t-333 -132t-334 132t-137 322t137 322t333 132z
M494 784q-58 0 -96 -46q-62 -75 -62 -236q0 -406 206 -406q84 0 123 82t39 192q0 414 -210 414z" />
    <glyph glyph-name="divide" unicode="&#xf7;" horiz-adv-x="1044" 
d="M50 445q0 17 7 69t21 52h898q14 -2 14 -34t-9 -67t-13 -38t-8 -3l-2 -2h-896q-12 6 -12 23zM518 -12q-48 0 -82 33t-40 83v10q0 46 37 84t85 38t82 -35t40 -85v-4q0 -46 -37 -85t-85 -39zM517 756q-49 0 -82 31t-39 81v8q0 46 37 83t86 37t82 -30t39 -80v-12
q0 -46 -37 -82t-86 -36z" />
    <glyph glyph-name="oslash" unicode="&#xf8;" horiz-adv-x="924" 
d="M494 784q-58 0 -96 -46q-62 -75 -62 -238t34 -260l264 470q-51 74 -140 74zM992 440q0 -190 -136 -322t-334 -132q-99 0 -183 34l-31 -56q-32 10 -51 24t-17 20l27 48q-41 26 -78 62q-137 132 -137 322t137 322t333 132q105 0 194 -38l30 54q74 -28 68 -42l-28 -50
q36 -24 69 -56q137 -132 137 -322zM545 96q81 0 120 82t39 214t-29 228l-260 -465q49 -59 130 -59z" />
    <glyph glyph-name="ugrave" unicode="&#xf9;" horiz-adv-x="1198" 
d="M316 1292q0 18 23 38t71 20t66 -18q74 -87 130 -179q56 -91 56 -99t-12 -21t-22 -13q-26 0 -169 111t-143 161zM1024 654v-392q0 -104 20 -125t76 -21h20q8 -4 8 -39t-12 -35q-85 -6 -196 -24q-112 -18 -140 -22l-28 -6q-12 0 -12 36v74q0 8 -2 10t-6 -2
q-42 -44 -123 -80t-187 -36t-177 104t-71 252v194q0 112 -36 150q-23 27 -67 35q-43 9 -43 11q0 70 10 70q38 0 185 29t174 39t33 10t16 -13t10 -21q-22 -176 -22 -200v-214q0 -156 40 -219t121 -63t115 31t34 69v286q0 112 -36 150q-23 27 -67 35q-43 9 -43 11q0 70 10 70
q38 0 174 27t192 45l22 6q10 0 20 -13t10 -21q-22 -176 -22 -198z" />
    <glyph glyph-name="uacute" unicode="&#xfa;" horiz-adv-x="1198" 
d="M798 1350q48 0 71 -20t23 -38q0 -50 -143 -161t-169 -111q-10 0 -22 13t-12 21t56 99t130 179q18 18 66 18zM1024 654v-392q0 -104 20 -125t76 -21h20q8 -4 8 -39t-12 -35q-85 -6 -196 -24q-112 -18 -140 -22l-28 -6q-12 0 -12 36v74q0 8 -2 10t-6 -2q-42 -44 -123 -80
t-187 -36t-177 104t-71 252v194q0 112 -36 150q-23 27 -67 35q-43 9 -43 11q0 70 10 70q38 0 185 29t174 39t33 10t16 -13t10 -21q-22 -176 -22 -200v-214q0 -156 40 -219t121 -63t115 31t34 69v286q0 112 -36 150q-23 27 -67 35q-43 9 -43 11q0 70 10 70q38 0 174 27
t192 45l22 6q10 0 20 -13t10 -21q-22 -176 -22 -198z" />
    <glyph glyph-name="ucircumflex" unicode="&#xfb;" horiz-adv-x="1198" 
d="M811 1020q-17 0 -95 54t-124 94q-46 -40 -124 -94t-95 -54t-17 46q48 48 111 129t87 121t35 40t22 -14t34 -49q84 -128 183 -227q0 -46 -17 -46zM1024 654v-392q0 -104 20 -125t76 -21h20q8 -4 8 -39t-12 -35q-85 -6 -196 -24q-112 -18 -140 -22l-28 -6q-12 0 -12 36v74
q0 8 -2 10t-6 -2q-42 -44 -123 -80t-187 -36t-177 104t-71 252v194q0 112 -36 150q-23 27 -67 35q-43 9 -43 11q0 70 10 70q38 0 185 29t174 39t33 10t16 -13t10 -21q-22 -176 -22 -200v-214q0 -156 40 -219t121 -63t115 31t34 69v286q0 112 -36 150q-23 27 -67 35
q-43 9 -43 11q0 70 10 70q38 0 174 27t192 45l22 6q10 0 20 -13t10 -21q-22 -176 -22 -198z" />
    <glyph glyph-name="udieresis" unicode="&#xfc;" horiz-adv-x="1198" 
d="M226 1164q0 60 41 101t101 41t102 -41t42 -101t-42 -102t-102 -42t-101 42t-41 102zM670 1164q0 60 42 101t102 41t102 -41t42 -101t-42 -102t-102 -42t-102 42t-42 102zM1024 654v-392q0 -104 20 -125t76 -21h20q8 -4 8 -39t-12 -35q-85 -6 -196 -24q-112 -18 -140 -22
l-28 -6q-12 0 -12 36v74q0 8 -2 10t-6 -2q-42 -44 -123 -80t-187 -36t-177 104t-71 252v194q0 112 -36 150q-23 27 -67 35q-43 9 -43 11q0 70 10 70q38 0 185 29t174 39t33 10t16 -13t10 -21q-22 -176 -22 -200v-214q0 -156 40 -219t121 -63t115 31t34 69v286q0 112 -36 150
q-23 27 -67 35q-43 9 -43 11q0 70 10 70q38 0 174 27t192 45l22 6q10 0 20 -13t10 -21q-22 -176 -22 -198z" />
    <glyph glyph-name="yacute" unicode="&#xfd;" horiz-adv-x="1088" 
d="M780 1350q48 0 71 -20t23 -38q0 -50 -143 -161t-169 -111q-10 0 -22 13t-12 21t56 99t130 179q18 18 66 18zM564 840q0 -28 -8 -28q-26 0 -75 -16t-49 -36l2 -18q4 -32 156 -390q136 294 148 323t12 51t-11 38t-45 32t-86 16q-8 0 -8 31t4 43q192 -16 262 -16l214 16
q8 -16 8 -45t-8 -29q-30 0 -89 -20t-79 -60l-372 -806q-166 -362 -388 -362q-60 0 -97 32t-37 84t46 84q254 0 330 156q46 98 62 132l-298 660l-10 24q-20 42 -61 59t-71 17q-8 0 -8 35t4 39l284 -16q86 0 262 16q6 -18 6 -46z" />
    <glyph glyph-name="thorn" unicode="&#xfe;" horiz-adv-x="1134" 
d="M600 776q-70 0 -112 -42t-42 -106v-378q0 -76 50 -117t106 -41q180 0 180 296q0 388 -182 388zM316 -420q-98 0 -274 -16q-8 8 -8 41t8 33q22 0 74 18t56 32q14 60 14 152v1216q0 100 -10 150q-10 32 -104 32h-18q-12 0 -12 37t12 37q174 17 260 41q86 25 106 31l20 6h4
q8 0 16 -12t10 -22q-24 -90 -24 -202v-318q0 -12 4 -12q88 68 180 68q190 0 315 -132t125 -306q0 -222 -142 -346t-358 -124q-49 0 -82 9q-32 9 -37 9t-5 -32v-100q0 -128 14 -182q4 -14 56 -32t70 -18q6 0 7 -33t-3 -41q-176 16 -274 16z" />
    <glyph glyph-name="ydieresis" unicode="&#xff;" horiz-adv-x="1088" 
d="M208 1164q0 60 41 101t101 41t102 -41t42 -101t-42 -102t-102 -42t-101 42t-41 102zM652 1164q0 60 42 101t102 41t102 -41t42 -101t-42 -102t-102 -42t-102 42t-42 102zM564 840q0 -28 -8 -28q-26 0 -75 -16t-49 -36l2 -18q4 -32 156 -390q136 294 148 323t12 51t-11 38
t-45 32t-86 16q-8 0 -8 31t4 43q192 -16 262 -16l214 16q8 -16 8 -45t-8 -29q-30 0 -89 -20t-79 -60l-372 -806q-166 -362 -388 -362q-60 0 -97 32t-37 84t46 84q254 0 330 156q46 98 62 132l-298 660l-10 24q-20 42 -61 59t-71 17q-8 0 -8 35t4 39l284 -16q86 0 262 16
q6 -18 6 -46z" />
    <glyph glyph-name="Amacron" unicode="&#x100;" horiz-adv-x="1440" 
d="M1046 1594q12 0 12 -20q-4 -86 -28 -118h-576l-10 4q-2 6 -2 18q5 116 30 116h574zM662 546q84 0 146 4l6 10l-144 358l-156 -358q0 -8 4 -8q60 -6 144 -6zM246 8l-216 -16q-8 8 -8 40t4 32q24 0 80 21t75 50t55 109l452 1040q22 52 74 52q30 0 48 -26l410 -1014
q38 -92 66 -164q12 -32 66 -49t82 -17q8 0 8 -34t-4 -40l-290 16q-14 0 -302 -16q-8 8 -8 41t8 33q44 0 90 19t46 51q0 4 -50 134l-60 146q-8 8 -30 9t-165 1t-213 -2q-8 0 -14 -10l-66 -152q-40 -90 -40 -122t42 -53t104 -21q6 -2 6 -32t-4 -42q-208 16 -246 16z" />
    <glyph glyph-name="amacron" unicode="&#x101;" horiz-adv-x="972" 
d="M694 1158q12 0 12 -20q-2 -77 -28 -118h-498l-10 4q-2 6 -2 18q5 116 30 116h496zM493 898q149 0 224 -77t75 -279v-324q0 -68 48 -68q34 0 68 26q14 -8 14 -44t-14 -60q-28 -26 -91 -55t-115 -29t-96 29t-58 67q-2 0 -16 -11q-111 -87 -252 -87q-94 0 -159 61t-65 153
q0 150 172 227q81 36 171 61q91 24 112 31t21 31v72q0 164 -100 164q-116 0 -116 -134q0 -44 -36 -65t-80 -21q-92 0 -126 60q0 102 135 187t284 85zM426 130q48 0 77 25t29 61v202q-4 -2 -39 -13t-45 -15t-38 -15q-94 -37 -94 -124q0 -57 31 -89t79 -32z" />
    <glyph glyph-name="Abreve" unicode="&#x102;" horiz-adv-x="1440" 
d="M750 1576q42 0 91 29t64 49t22 17t26 -25t17 -28t-2 -11t-2 -7q-86 -144 -216 -144t-216 144q-2 2 -2 7t-2 11t22 34t32 16q26 -34 75 -63t91 -29zM662 546q84 0 146 4l6 10l-144 358l-156 -358q0 -8 4 -8q60 -6 144 -6zM246 8l-216 -16q-8 8 -8 40t4 32q24 0 80 21
t75 50t55 109l452 1040q22 52 74 52q30 0 48 -26l410 -1014q38 -92 66 -164q12 -32 66 -49t82 -17q8 0 8 -34t-4 -40l-290 16q-14 0 -302 -16q-8 8 -8 41t8 33q44 0 90 19t46 51q0 4 -50 134l-60 146q-8 8 -30 9t-165 1t-213 -2q-8 0 -14 -10l-66 -152q-40 -90 -40 -122
t42 -53t104 -21q6 -2 6 -32t-4 -42q-208 16 -246 16z" />
    <glyph glyph-name="abreve" unicode="&#x103;" horiz-adv-x="972" 
d="M451 1140q49 0 92 31t59 85q4 6 11 6t32 -17t25 -27t-2 -14q-24 -82 -81 -133t-136 -51t-144 52t-87 132q-2 4 -2 14t25 27t32 17t11 -6q16 -54 66 -85t99 -31zM493 898q149 0 224 -77t75 -279v-324q0 -68 48 -68q34 0 68 26q14 -8 14 -44t-14 -60q-28 -26 -91 -55
t-115 -29t-96 29t-58 67q-2 0 -16 -11q-111 -87 -252 -87q-94 0 -159 61t-65 153q0 150 172 227q81 36 171 61q91 24 112 31t21 31v72q0 164 -100 164q-116 0 -116 -134q0 -44 -36 -65t-80 -21q-92 0 -126 60q0 102 135 187t284 85zM426 130q48 0 77 25t29 61v202
q-4 -2 -39 -13t-45 -15t-38 -15q-94 -37 -94 -124q0 -57 31 -89t79 -32z" />
    <glyph glyph-name="Aogonek" unicode="&#x104;" horiz-adv-x="1442" 
d="M280 8q-76 0 -150 -7t-110 -9q-8 8 -8 40t4 32q24 0 90 27t80 51l58 126l396 904q2 4 15 34q55 128 90 128q23 0 33 -16l442 -1036q30 -76 62 -150q14 -32 65 -49t77 -17q8 0 8 -34t-4 -40l-182 12q-188 -112 -188 -224q0 -30 24 -47t60 -17t85 23t73 43q10 0 10 -32
t-12 -48q-34 -44 -103 -91t-135 -47t-118 42t-52 118t87 165t181 117q-48 0 -300 -14q-8 8 -8 41t8 33q22 0 71 15t57 27t8 24t-48 136l-58 148q-8 8 -30 9t-167 1t-215 -2q-8 0 -14 -10l-66 -152q-40 -90 -40 -120t23 -42t72 -23t63 -11q6 -2 6 -32t-4 -42q-160 16 -236 16
zM676 546q84 0 146 4l6 10l-144 356l-156 -356q0 -8 4 -8q60 -6 144 -6z" />
    <glyph glyph-name="aogonek" unicode="&#x105;" horiz-adv-x="972" 
d="M826 150q23 0 60 22q4 0 13 -8t9 -12q0 -56 -14 -80l-92 -52q-82 -46 -157 -114t-75 -126q0 -30 24 -47t60 -17t85 23t73 43q10 0 10 -32t-12 -48q-34 -44 -103 -91t-135 -47t-118 42t-52 113t76 158t152 123q-78 20 -96 84q-2 0 -16 -11q-111 -87 -252 -87
q-94 0 -159 61t-65 153q0 150 172 227q81 36 171 61q91 24 112 31t21 31v72q0 164 -100 164q-116 0 -116 -134q0 -44 -36 -65t-80 -21q-92 0 -126 60q0 102 135 187t284 85t224 -77t75 -279v-324q0 -68 48 -68zM412 130q48 0 77 25t29 61v202q-4 -2 -39 -13t-45 -15t-38 -15
q-94 -37 -94 -124q0 -57 31 -89t79 -32z" />
    <glyph glyph-name="Cacute" unicode="&#x106;" horiz-adv-x="1276" 
d="M630 1497q0 11 87 97t153 136q16 8 44 8t66 -19t38 -57q0 -48 -162 -127t-198 -79q-10 0 -19 15t-9 26zM690 -14q-264 0 -452 195t-188 471t189 479t471 203q218 0 458 -58q10 -2 25 -134t15 -162t-54 -30q-2 0 -32 6q-23 82 -84 145q-118 121 -318 121q-358 0 -358 -536
q0 -250 110 -421t312 -171q148 0 256 108q42 42 79 147q11 31 13 31q82 0 90 -20q0 -28 -31 -156t-51 -136q-224 -82 -450 -82z" />
    <glyph glyph-name="cacute" unicode="&#x107;" horiz-adv-x="924" 
d="M654 1350q48 0 71 -20t23 -38q0 -50 -143 -161t-169 -111q-10 0 -22 13t-12 21t56 99t130 179q18 18 66 18zM530 894q86 0 177 -32t135 -86q0 -184 -108 -184q-78 0 -118 100q-18 46 -45 69t-75 23q-160 0 -160 -300q0 -338 226 -338q66 0 126 19t84 34t64 45
q18 -8 18 -35t-8 -43q-20 -50 -119 -115t-223 -65q-192 0 -322 135t-130 325t139 319t339 129z" />
    <glyph glyph-name="Ccircumflex" unicode="&#x108;" horiz-adv-x="1276" 
d="M952 1456q-18 0 -104 45t-138 79q-52 -34 -138 -79t-104 -45t-18 38q133 99 232 226q16 18 27 18t22 -11t37 -41q100 -116 202 -192q0 -38 -18 -38zM690 -14q-264 0 -452 195t-188 471t189 479t471 203q218 0 458 -58q10 -2 25 -134t15 -162t-54 -30q-2 0 -32 6
q-23 82 -84 145q-118 121 -318 121q-358 0 -358 -536q0 -250 110 -421t312 -171q148 0 256 108q42 42 79 147q11 31 13 31q82 0 90 -20q0 -28 -31 -156t-51 -136q-224 -82 -450 -82z" />
    <glyph glyph-name="ccircumflex" unicode="&#x109;" horiz-adv-x="924" 
d="M695 1020q-17 0 -95 54t-124 94q-46 -40 -124 -94t-95 -54t-17 46q48 48 111 129t87 121t35 40t22 -14t34 -49q84 -128 183 -227q0 -46 -17 -46zM530 894q86 0 177 -32t135 -86q0 -184 -108 -184q-78 0 -118 100q-18 46 -45 69t-75 23q-160 0 -160 -300q0 -338 226 -338
q66 0 126 19t84 34t64 45q18 -8 18 -35t-8 -43q-20 -50 -119 -115t-223 -65q-192 0 -322 135t-130 325t139 319t339 129z" />
    <glyph glyph-name="Cdotaccent" unicode="&#x10a;" horiz-adv-x="1276" 
d="M560 1604q0 62 43 105t105 43t105 -43t43 -105t-43 -105t-105 -43t-105 43t-43 105zM690 -14q-264 0 -452 195t-188 471t189 479t471 203q218 0 458 -58q10 -2 25 -134t15 -162t-54 -30q-2 0 -32 6q-23 82 -84 145q-118 121 -318 121q-358 0 -358 -536q0 -250 110 -421
t312 -171q148 0 256 108q42 42 79 147q11 31 13 31q82 0 90 -20q0 -28 -31 -156t-51 -136q-224 -82 -450 -82z" />
    <glyph glyph-name="cdotaccent" unicode="&#x10b;" horiz-adv-x="924" 
d="M344 1232q0 62 43 105t105 43t105 -43t43 -105t-43 -105t-105 -43t-105 43t-43 105zM530 894q86 0 177 -32t135 -86q0 -184 -108 -184q-78 0 -118 100q-18 46 -45 69t-75 23q-160 0 -160 -300q0 -338 226 -338q66 0 126 19t84 34t64 45q18 -8 18 -35t-8 -43
q-20 -50 -119 -115t-223 -65q-192 0 -322 135t-130 325t139 319t339 129z" />
    <glyph glyph-name="Ccaron" unicode="&#x10c;" horiz-adv-x="1276" 
d="M952 1738q18 0 18 -38q-76 -57 -232 -226q-18 -18 -29 -18t-37 31t-100 104t-122 109q0 38 18 38t104 -45t138 -79q52 34 138 79t104 45zM690 -14q-264 0 -452 195t-188 471t189 479t471 203q218 0 458 -58q10 -2 25 -134t15 -162t-54 -30q-2 0 -32 6q-23 82 -84 145
q-118 121 -318 121q-358 0 -358 -536q0 -250 110 -421t312 -171q148 0 256 108q42 42 79 147q11 31 13 31q82 0 90 -20q0 -28 -31 -156t-51 -136q-224 -82 -450 -82z" />
    <glyph glyph-name="ccaron" unicode="&#x10d;" horiz-adv-x="924" 
d="M699 1356q17 0 17 -46q-99 -99 -162 -194q-63 -96 -75 -96q-13 0 -25 20q-36 60 -99 141t-111 129q0 46 17 46t95 -54t124 -94q46 40 124 94t95 54zM530 894q86 0 177 -32t135 -86q0 -184 -108 -184q-78 0 -118 100q-18 46 -45 69t-75 23q-160 0 -160 -300
q0 -338 226 -338q66 0 126 19t84 34t64 45q18 -8 18 -35t-8 -43q-20 -50 -119 -115t-223 -65q-192 0 -322 135t-130 325t139 319t339 129z" />
    <glyph glyph-name="Dcaron" unicode="&#x10e;" horiz-adv-x="1448" 
d="M896 1738q18 0 18 -38q-76 -57 -232 -226q-18 -18 -29 -18t-37 31t-100 104t-122 109q0 38 18 38t104 -45t138 -79q52 34 138 79t104 45zM486 1048v-776q0 -130 18 -140q44 -26 219 -26t267 144t92 430q0 220 -97 373t-269 153h-10q-170 0 -195 -34t-25 -124zM54 33
q0 33 8 33q24 0 75 14t57 30q12 46 12 176v756q0 110 -12 156q-6 16 -59 36t-75 20q-8 0 -8 34t6 40q160 -10 294 -10h348q326 0 510 -193t184 -467t-186 -469t-510 -195l-344 10l-292 -12q-8 8 -8 41z" />
    <glyph glyph-name="dcaron" unicode="&#x10f;" horiz-adv-x="1108" 
d="M1006 1284q0 77 63 95q45 13 115 13q28 -50 28 -141t-56 -182t-120 -131h-4q-10 0 -29 19t-19 24t24 28q70 67 70 125q0 26 -36 67t-36 83zM516 894q82 0 140 -18q6 0 6 28v158q0 84 -12 144q-10 32 -104 32h-18q-12 0 -12 37t12 37q174 17 260 41q86 25 106 31l20 6h4
q8 0 16 -12t10 -22q-22 -90 -22 -202v-860q0 -86 12 -144q10 -34 98 -34l20 -2q6 -2 6 -38t-12 -36q-171 -11 -342 -48l-30 -4q-12 0 -12 34v42q0 8 -2 10t-6 -2q-84 -84 -202 -84q-162 0 -289 121t-127 318t137 332t343 135zM324 472q0 -362 180 -362q68 0 113 39t45 95
v364q0 49 -18 92q-35 86 -135 86q-99 0 -142 -75t-43 -239z" />
    <glyph glyph-name="Dcroat" unicode="&#x110;" horiz-adv-x="1412" 
d="M24 33q0 33 8 33q24 0 75 14t57 30q12 46 12 176v328h-102q-10 0 -10 37t12 55h100v336q0 110 -12 156q-6 16 -59 36t-75 20q-8 0 -8 34t6 40q162 -10 294 -10h348q220 0 381 -96t235 -240t74 -310q0 -290 -184 -484t-508 -194l-344 10l-292 -12q-8 8 -8 41zM456 614
v-342q0 -130 18 -140q44 -26 220 -26t269 144t93 430q0 220 -99 373t-271 153h-10q-170 0 -195 -34t-25 -124v-342h310q12 0 12 -33t-12 -59h-310z" />
    <glyph glyph-name="dcroat" unicode="&#x111;" horiz-adv-x="1148" 
d="M706 904v104q0 8 -8 8h-294q-12 0 -12 36t9 66t12 32t7 2h274q6 0 6 12t-6 42q-10 32 -104 32h-18q-12 0 -12 37t12 37q174 17 260 41q86 25 106 31l20 6h4q8 0 16 -12t10 -22q-18 -58 -22 -156v-38q0 -10 10 -10h110q16 0 16 -14q0 -36 -12 -79t-18 -43h-96
q-10 0 -10 -10v-712q0 -86 12 -144q10 -34 98 -34l20 -2q6 -2 6 -38t-12 -36q-171 -11 -342 -48l-30 -4q-12 0 -12 34v50q0 8 -2 10t-19 -15t-30 -29t-59 -31t-100 -19q-162 0 -282 114t-120 312t127 342t319 146q86 2 158 -36q8 0 8 38zM544 792q-50 0 -108 -85t-58 -232
t49 -245t129 -98q150 0 150 156v358q0 52 -28 86q-48 60 -134 60z" />
    <glyph glyph-name="Emacron" unicode="&#x112;" horiz-adv-x="1196" 
d="M858 1594q12 0 12 -20q-4 -86 -28 -118h-576l-10 4q-2 6 -2 18q5 116 30 116h574zM54 33q0 33 8 33q24 0 75 14t57 30q12 46 12 176v756q0 110 -12 156q-6 16 -59 36t-75 20q-8 0 -8 34t6 40q160 -10 294 -10l646 10q2 -20 58 -296q-10 -10 -39 -10t-35 14
q-38 76 -120 130t-160 54h-76q-126 0 -130 -26q-10 -48 -10 -156v-308q0 -12 86 -12h106q124 0 136 8q10 8 15 48t13 68q2 14 33 14t41 -10v-378q-8 -8 -38 -8t-36 16q-26 92 -34 100t-14 11t-8 5q-26 16 -163 16t-137 -18v-308q0 -96 16 -142q10 -32 136 -32h52
q124 0 224 52q34 18 77 68t67 112q2 12 39 12t49 -12q-98 -276 -108 -344l-684 8l-292 -12q-8 8 -8 41z" />
    <glyph glyph-name="emacron" unicode="&#x113;" horiz-adv-x="924" 
d="M736 1158q12 0 12 -20q-2 -77 -28 -118h-498l-10 4q-2 6 -2 18q5 116 30 116h496zM479 894q187 0 296 -125t109 -255q0 -46 -19 -60t-75 -14h-452q-12 0 -12 -14q0 -108 61 -194t175 -86q66 0 126 19t84 34t64 45q18 -8 18 -35t-8 -43q-20 -48 -120 -114t-224 -66
q-184 0 -317 134t-133 324t120 320t307 130zM469 784q-71 0 -107 -75t-36 -147q0 -12 14 -12h254q28 0 28 38q0 76 -41 136t-112 60z" />
    <glyph glyph-name="Ebreve" unicode="&#x114;" horiz-adv-x="1196" 
d="M574 1576q42 0 91 29t64 49t22 17t26 -25t17 -28t-2 -11t-2 -7q-86 -144 -216 -144t-216 144q-2 2 -2 7t-2 11t22 34t32 16q26 -34 75 -63t91 -29zM54 33q0 33 8 33q24 0 75 14t57 30q12 46 12 176v756q0 110 -12 156q-6 16 -59 36t-75 20q-8 0 -8 34t6 40
q160 -10 294 -10l646 10q2 -20 58 -296q-10 -10 -39 -10t-35 14q-38 76 -120 130t-160 54h-76q-126 0 -130 -26q-10 -48 -10 -156v-308q0 -12 86 -12h106q124 0 136 8q10 8 15 48t13 68q2 14 33 14t41 -10v-378q-8 -8 -38 -8t-36 16q-26 92 -34 100t-14 11t-8 5
q-26 16 -163 16t-137 -18v-308q0 -96 16 -142q10 -32 136 -32h52q124 0 224 52q34 18 77 68t67 112q2 12 39 12t49 -12q-98 -276 -108 -344l-684 8l-292 -12q-8 8 -8 41z" />
    <glyph glyph-name="ebreve" unicode="&#x115;" horiz-adv-x="924" 
d="M477 1140q49 0 92 31t59 85q4 6 11 6t32 -17t25 -27t-2 -14q-24 -82 -81 -133t-136 -51t-144 52t-87 132q-2 4 -2 14t25 27t32 17t11 -6q16 -54 66 -85t99 -31zM479 894q187 0 296 -125t109 -255q0 -46 -19 -60t-75 -14h-452q-12 0 -12 -14q0 -108 61 -194t175 -86
q66 0 126 19t84 34t64 45q18 -8 18 -35t-8 -43q-20 -48 -120 -114t-224 -66q-184 0 -317 134t-133 324t120 320t307 130zM469 784q-71 0 -107 -75t-36 -147q0 -12 14 -12h254q28 0 28 38q0 76 -41 136t-112 60z" />
    <glyph glyph-name="Edotaccent" unicode="&#x116;" horiz-adv-x="1196" 
d="M412 1604q0 62 43 105t105 43t105 -43t43 -105t-43 -105t-105 -43t-105 43t-43 105zM54 33q0 33 8 33q24 0 75 14t57 30q12 46 12 176v756q0 110 -12 156q-6 16 -59 36t-75 20q-8 0 -8 34t6 40q160 -10 294 -10l646 10q2 -20 58 -296q-10 -10 -39 -10t-35 14
q-38 76 -120 130t-160 54h-76q-126 0 -130 -26q-10 -48 -10 -156v-308q0 -12 86 -12h106q124 0 136 8q10 8 15 48t13 68q2 14 33 14t41 -10v-378q-8 -8 -38 -8t-36 16q-26 92 -34 100t-14 11t-8 5q-26 16 -163 16t-137 -18v-308q0 -96 16 -142q10 -32 136 -32h52
q124 0 224 52q34 18 77 68t67 112q2 12 39 12t49 -12q-98 -276 -108 -344l-684 8l-292 -12q-8 8 -8 41z" />
    <glyph glyph-name="edotaccent" unicode="&#x117;" horiz-adv-x="924" 
d="M328 1232q0 62 43 105t105 43t105 -43t43 -105t-43 -105t-105 -43t-105 43t-43 105zM479 894q187 0 296 -125t109 -255q0 -46 -19 -60t-75 -14h-452q-12 0 -12 -14q0 -108 61 -194t175 -86q66 0 126 19t84 34t64 45q18 -8 18 -35t-8 -43q-20 -48 -120 -114t-224 -66
q-184 0 -317 134t-133 324t120 320t307 130zM469 784q-71 0 -107 -75t-36 -147q0 -12 14 -12h254q28 0 28 38q0 76 -41 136t-112 60z" />
    <glyph glyph-name="Eogonek" unicode="&#x118;" horiz-adv-x="1212" 
d="M987 1022q-29 0 -35 14q-38 76 -120 130t-160 54h-76q-126 0 -130 -26q-10 -48 -10 -156v-308q0 -12 86 -12h106q124 0 136 8q10 8 15 48t13 68q2 14 33 14t41 -10v-378q-8 -8 -38 -8t-36 16q-26 92 -34 100t-14 11t-8 5q-26 16 -163 16t-137 -18v-308q0 -96 16 -142
q10 -32 136 -32h52q124 0 224 52q34 18 77 68t67 112q4 12 40 12t48 -12q-98 -276 -108 -344q-76 -16 -174 -82t-98 -134q0 -30 24 -47t60 -17t85 23t73 43q10 0 10 -32t-12 -48q-34 -44 -103 -91t-135 -47t-118 42t-52 118t80 160t178 114q-462 6 -502 6l-292 -12
q-8 8 -8 41t8 33q24 0 75 14t57 30q12 46 12 176v756q0 110 -12 156q-6 16 -59 36t-75 20q-8 0 -8 34t6 40q160 -10 294 -10l646 10q2 -20 58 -296q-10 -10 -39 -10z" />
    <glyph glyph-name="eogonek" unicode="&#x119;" horiz-adv-x="862" 
d="M488 898q92 0 164 -38t111 -99q77 -120 77 -247q0 -44 -22 -55q-38 -19 -498 -19q-12 0 -12 -18q0 -108 65 -202q51 -74 159 -74q66 0 126 19t84 34t64 45q18 -8 18 -35t-14 -52t-105 -101q-201 -168 -201 -276q0 -30 24 -47t60 -17t85 23t73 43q10 0 10 -32t-12 -48
q-34 -44 -103 -91t-135 -47t-118 42t-52 112t68 152t136 122q-32 -8 -78 -8q-194 0 -317 133t-123 324t135 324t331 133zM436 786q-68 0 -99 -74t-31 -150q0 -12 14 -12h222q28 0 28 38q0 78 -33 138t-101 60z" />
    <glyph glyph-name="Ecaron" unicode="&#x11a;" horiz-adv-x="1196" 
d="M804 1738q18 0 18 -38q-76 -57 -232 -226q-18 -18 -29 -18t-37 31t-100 104t-122 109q0 38 18 38t104 -45t138 -79q52 34 138 79t104 45zM54 33q0 33 8 33q24 0 75 14t57 30q12 46 12 176v756q0 110 -12 156q-6 16 -59 36t-75 20q-8 0 -8 34t6 40q160 -10 294 -10l646 10
q2 -20 58 -296q-10 -10 -39 -10t-35 14q-38 76 -120 130t-160 54h-76q-126 0 -130 -26q-10 -48 -10 -156v-308q0 -12 86 -12h106q124 0 136 8q10 8 15 48t13 68q2 14 33 14t41 -10v-378q-8 -8 -38 -8t-36 16q-26 92 -34 100t-14 11t-8 5q-26 16 -163 16t-137 -18v-308
q0 -96 16 -142q10 -32 136 -32h52q124 0 224 52q34 18 77 68t67 112q2 12 39 12t49 -12q-98 -276 -108 -344l-684 8l-292 -12q-8 8 -8 41z" />
    <glyph glyph-name="ecaron" unicode="&#x11b;" horiz-adv-x="924" 
d="M701 1356q17 0 17 -46q-99 -99 -162 -194q-63 -96 -75 -96q-13 0 -25 20q-36 60 -99 141t-111 129q0 46 17 46t95 -54t124 -94q46 40 124 94t95 54zM479 894q187 0 296 -125t109 -255q0 -46 -19 -60t-75 -14h-452q-12 0 -12 -14q0 -108 61 -194t175 -86q66 0 126 19
t84 34t64 45q18 -8 18 -35t-8 -43q-20 -48 -120 -114t-224 -66q-184 0 -317 134t-133 324t120 320t307 130zM469 784q-71 0 -107 -75t-36 -147q0 -12 14 -12h254q28 0 28 38q0 76 -41 136t-112 60z" />
    <glyph glyph-name="Gcircumflex" unicode="&#x11c;" horiz-adv-x="1410" 
d="M950 1456q-18 0 -104 45t-138 79q-52 -34 -138 -79t-104 -45t-18 38q133 99 232 226q16 18 27 18t22 -11t37 -41q100 -116 202 -192q0 -38 -18 -38zM1056 596q56 0 296 12q6 -18 6 -47t-8 -29q-46 0 -106 -30q-32 -16 -32 -158v-116q0 -36 6 -54t6 -22q0 -34 -42 -56
q-74 -38 -115 -55t-146 -38t-235 -21q-264 0 -450 197t-186 472t192 479t466 204q218 0 458 -58q10 -2 28 -151t18 -177q0 -16 -39 -16t-59 10q-21 81 -98 168q-44 50 -122 81t-176 31q-360 0 -360 -532q0 -334 177 -502q99 -94 247 -94q88 0 128 32q22 18 22 60v140
q0 102 -15 155t-131 53q-8 0 -9 33t7 41q216 -12 272 -12z" />
    <glyph glyph-name="gcircumflex" unicode="&#x11d;" horiz-adv-x="970" 
d="M657 1020q-17 0 -95 54t-124 94q-46 -40 -124 -94t-95 -54t-17 46q48 48 111 129t87 121t35 40t22 -14t34 -49q84 -128 183 -227q0 -46 -17 -46zM446 898q72 0 169 -26t155 -26h110q6 -2 22 -36t16 -55t-12 -21h-118q-8 -2 -8 -5t15 -56t15 -99q0 -126 -102 -230
t-256 -104q-80 0 -136 10q-24 -8 -36 -27t-12 -33t20 -23q26 -12 116 -20q90 -9 180 -9q320 -16 322 -210q2 -146 -158 -255t-327 -109t-271 60t-104 160q0 44 47 94t117 72q-52 22 -94 71t-42 91t14 66q25 43 138 106q-58 32 -106 113t-48 167q0 164 109 249t265 85z
M330 615v-51q0 -157 52 -200q24 -20 62 -20q76 0 92 58t16 160t-24 166t-97 64t-89 -72q-12 -54 -12 -105zM674 -162q0 90 -336 90q-6 -2 -40 -13t-48 -31t-14 -56q0 -60 63 -101t154 -41t156 38t65 114z" />
    <glyph glyph-name="Gbreve" unicode="&#x11e;" horiz-adv-x="1410" 
d="M708 1576q42 0 91 29t64 49t22 17t26 -25t17 -28t-2 -11t-2 -7q-86 -144 -216 -144t-216 144q-2 2 -2 7t-2 11t22 34t32 16q26 -34 75 -63t91 -29zM1056 596q56 0 296 12q6 -18 6 -47t-8 -29q-46 0 -106 -30q-32 -16 -32 -158v-116q0 -36 6 -54t6 -22q0 -34 -42 -56
q-74 -38 -115 -55t-146 -38t-235 -21q-264 0 -450 197t-186 472t192 479t466 204q218 0 458 -58q10 -2 28 -151t18 -177q0 -16 -39 -16t-59 10q-21 81 -98 168q-44 50 -122 81t-176 31q-360 0 -360 -532q0 -334 177 -502q99 -94 247 -94q88 0 128 32q22 18 22 60v140
q0 102 -15 155t-131 53q-8 0 -9 33t7 41q216 -12 272 -12z" />
    <glyph glyph-name="gbreve" unicode="&#x11f;" horiz-adv-x="970" 
d="M445 1140q49 0 92 31t59 85q4 6 11 6t32 -17t25 -27t-2 -14q-24 -82 -81 -133t-136 -51t-144 52t-87 132q-2 4 -2 14t25 27t32 17t11 -6q16 -54 66 -85t99 -31zM446 898q72 0 169 -26t155 -26h110q6 -2 22 -36t16 -55t-12 -21h-118q-8 -2 -8 -5t15 -56t15 -99
q0 -126 -102 -230t-256 -104q-80 0 -136 10q-24 -8 -36 -27t-12 -33t20 -23q26 -12 116 -20q90 -9 180 -9q320 -16 322 -210q2 -146 -158 -255t-327 -109t-271 60t-104 160q0 44 47 94t117 72q-52 22 -94 71t-42 91t14 66q25 43 138 106q-58 32 -106 113t-48 167
q0 164 109 249t265 85zM330 615v-51q0 -157 52 -200q24 -20 62 -20q76 0 92 58t16 160t-24 166t-97 64t-89 -72q-12 -54 -12 -105zM674 -162q0 90 -336 90q-6 -2 -40 -13t-48 -31t-14 -56q0 -60 63 -101t154 -41t156 38t65 114z" />
    <glyph glyph-name="Gdotaccent" unicode="&#x120;" horiz-adv-x="1410" 
d="M560 1604q0 62 43 105t105 43t105 -43t43 -105t-43 -105t-105 -43t-105 43t-43 105zM1056 596q56 0 296 12q6 -18 6 -47t-8 -29q-46 0 -106 -30q-32 -16 -32 -158v-116q0 -36 6 -54t6 -22q0 -34 -42 -56q-74 -38 -115 -55t-146 -38t-235 -21q-264 0 -450 197t-186 472
t192 479t466 204q218 0 458 -58q10 -2 28 -151t18 -177q0 -16 -39 -16t-59 10q-21 81 -98 168q-44 50 -122 81t-176 31q-360 0 -360 -532q0 -334 177 -502q99 -94 247 -94q88 0 128 32q22 18 22 60v140q0 102 -15 155t-131 53q-8 0 -9 33t7 41q216 -12 272 -12z" />
    <glyph glyph-name="gdotaccent" unicode="&#x121;" horiz-adv-x="970" 
d="M288 1232q0 62 43 105t105 43t105 -43t43 -105t-43 -105t-105 -43t-105 43t-43 105zM446 898q72 0 169 -26t155 -26h110q6 -2 22 -36t16 -55t-12 -21h-118q-8 -2 -8 -5t15 -56t15 -99q0 -126 -102 -230t-256 -104q-80 0 -136 10q-24 -8 -36 -27t-12 -33t20 -23
q26 -12 116 -20q90 -9 180 -9q320 -16 322 -210q2 -146 -158 -255t-327 -109t-271 60t-104 160q0 44 47 94t117 72q-52 22 -94 71t-42 91t14 66q25 43 138 106q-58 32 -106 113t-48 167q0 164 109 249t265 85zM330 615v-51q0 -157 52 -200q24 -20 62 -20q76 0 92 58t16 160
t-24 166t-97 64t-89 -72q-12 -54 -12 -105zM674 -162q0 90 -336 90q-6 -2 -40 -13t-48 -31t-14 -56q0 -60 63 -101t154 -41t156 38t65 114z" />
    <glyph glyph-name="Gcommaaccent" unicode="&#x122;" horiz-adv-x="1410" 
d="M586 -180q0 44 63 69t143 25q44 -40 44 -118t-58 -141t-126 -91h-6q-10 0 -31 12t-21 20q0 2 21 15t41 35t20 50t-45 54t-45 70zM1056 596q56 0 296 12q6 -18 6 -47t-8 -29q-46 0 -106 -30q-32 -16 -32 -158v-116q0 -36 6 -54t6 -22q0 -34 -42 -56q-74 -38 -115 -55
t-146 -38t-235 -21q-264 0 -450 197t-186 472t192 479t466 204q218 0 458 -58q10 -2 28 -151t18 -177q0 -16 -39 -16t-59 10q-21 81 -98 168q-44 50 -122 81t-176 31q-360 0 -360 -532q0 -334 177 -502q99 -94 247 -94q88 0 128 32q22 18 22 60v140q0 102 -15 155t-131 53
q-8 0 -9 33t7 41q216 -12 272 -12z" />
    <glyph glyph-name="gcommaaccent" unicode="&#x123;" horiz-adv-x="970" 
d="M596 1134q0 -44 -63 -69t-143 -25q-44 40 -44 118t58 141t126 91h6q10 0 31 -12t21 -20q0 -2 -20 -15q-62 -40 -62 -77q0 -36 45 -62t45 -70zM446 898q72 0 169 -26t155 -26h110q6 -2 22 -36t16 -55t-12 -21h-118q-8 -2 -8 -5t15 -56t15 -99q0 -126 -102 -230t-256 -104
q-80 0 -136 10q-24 -8 -36 -27t-12 -33t20 -23q26 -12 116 -20q90 -9 180 -9q320 -16 322 -210q2 -146 -158 -255t-327 -109t-271 60t-104 160q0 44 47 94t117 72q-52 22 -94 71t-42 91t14 66q25 43 138 106q-58 32 -106 113t-48 167q0 164 109 249t265 85zM330 615v-51
q0 -157 52 -200q24 -20 62 -20q76 0 92 58t16 160t-24 166t-97 64t-89 -72q-12 -54 -12 -105zM674 -162q0 90 -336 90q-6 -2 -40 -13t-48 -31t-14 -56q0 -60 63 -101t154 -41t156 38t65 114z" />
    <glyph glyph-name="Hcircumflex" unicode="&#x124;" horiz-adv-x="1454" 
d="M968 1456q-18 0 -104 45t-138 79q-52 -34 -138 -79t-104 -45t-18 38q133 99 232 226q16 18 27 18t22 -11t37 -41q100 -116 202 -192q0 -38 -18 -38zM822 66q22 0 74 18t58 34q12 46 12 158v334l-4 8q-482 10 -482 -2l4 -4v-328q0 -106 16 -168q4 -14 55 -32t69 -18
q8 0 9 -30t-5 -44l-288 16q-40 0 -280 -16q-8 8 -8 41t4 33q24 0 76 16t58 32q14 54 14 162v764q0 122 -14 156q-10 22 -56 38t-70 16q-8 0 -8 35t4 39q276 -12 303 -12t267 12q6 -10 6 -42t-8 -32q-18 0 -70 -17t-58 -31q-16 -42 -16 -170v-284l4 -6q196 -4 245 -4t229 4
q4 4 4 8v290q0 104 -14 158q-6 16 -55 34t-71 18q-8 0 -9 33t7 41q276 -12 302 -12t266 12q6 -18 6 -46t-10 -28q-18 0 -70 -17t-56 -31q-16 -60 -16 -170v-748q0 -108 16 -170q4 -14 55 -30t69 -16q8 0 8 -29t-6 -47l-270 16q-90 0 -298 -16q-8 8 -7 41t9 33z" />
    <glyph glyph-name="hcircumflex" unicode="&#x125;" horiz-adv-x="1244" 
d="M556 1456q-18 0 -104 45t-138 79q-52 -34 -138 -79t-104 -45t-18 38q133 99 232 226q16 18 27 18t22 -11t37 -41q100 -116 202 -192q0 -38 -18 -38zM322 8q-86 0 -262 -16q-8 8 -8 41t8 33q22 0 74 18t56 32q14 60 14 152v794q0 94 -10 144q-10 32 -104 32h-18
q-12 0 -12 37t12 37q174 17 260 41q86 25 106 31l20 6h4q8 0 16 -12t10 -22q-24 -90 -24 -202v-372q0 -14 5 -14t13 8q44 50 124 83t166 33q116 0 189 -98t73 -298v-198q0 -128 14 -182q4 -14 56 -32t70 -18q6 0 7 -33t-3 -41q-176 16 -262 16t-278 -16q-8 8 -8 41t8 33
q22 0 70 18t52 32q14 60 14 152v180q0 148 -40 211t-130 63q-140 0 -140 -88v-336q0 -128 14 -182q4 -14 53 -32t65 -18q6 0 7 -33t-3 -41q-192 16 -278 16z" />
    <glyph glyph-name="Hbar" unicode="&#x126;" horiz-adv-x="1454" 
d="M733 738q49 0 229 4q4 4 4 8v228q-146 2 -240 2l-242 -2v-230l4 -6q196 -4 245 -4zM52 33q0 33 4 33q24 0 76 16t58 32q14 54 14 162v702h-120q-10 0 -10 37t12 55h118q-4 102 -14 125t-56 39t-70 16q-8 0 -8 35t4 39q276 -12 303 -12t267 12q6 -10 6 -42t-8 -32
q-18 0 -70 -17t-58 -31q-10 -26 -14 -132q144 -2 238 -2l242 2q-2 84 -14 128q-6 16 -55 34t-71 18q-8 0 -9 33t7 41q276 -12 302 -12t266 12q6 -18 6 -46t-10 -28q-18 0 -70 -17t-56 -31q-14 -54 -16 -132h124q12 0 12 -33t-12 -59h-124v-694q0 -108 16 -170q4 -14 55 -30
t69 -16q8 0 8 -29t-6 -47l-270 16q-90 0 -298 -16q-8 8 -7 41t9 33q22 0 74 18t58 34q12 46 12 158v334l-4 8q-482 10 -482 -2l4 -4v-328q0 -106 16 -168q4 -14 55 -32t69 -18q8 0 9 -30t-5 -44l-288 16q-40 0 -280 -16q-8 8 -8 41z" />
    <glyph glyph-name="hbar" unicode="&#x127;" horiz-adv-x="1180" 
d="M322 8q-86 0 -262 -16q-8 8 -8 41t8 33q22 0 74 18t56 32q14 60 14 152v772h-108q-10 0 -10 37t12 55h104q-2 45 -8 74q-10 32 -104 32h-18q-12 0 -12 37t12 37q174 17 260 41q86 25 106 31l20 6h4q8 0 16 -12t10 -22q-24 -90 -24 -202v-22h272q12 0 12 -32t-12 -60h-272
v-258q0 -14 5 -14t13 8q44 50 124 83t166 33q116 0 189 -98t73 -298v-198q0 -128 14 -182q4 -14 56 -32t70 -18q6 0 7 -33t-3 -41q-176 16 -262 16t-278 -16q-8 8 -8 41t8 33q22 0 70 18t52 32q14 60 14 152v180q0 148 -40 211t-130 63q-140 0 -140 -88v-336q0 -128 14 -182
q4 -14 53 -32t65 -18q6 0 7 -33t-3 -41q-192 16 -278 16z" />
    <glyph glyph-name="Itilde" unicode="&#x128;" horiz-adv-x="692" 
d="M-16 1478q-16 0 -16 46t36 98q76 102 164 102t204 -68t192 -68q38 0 86 57t58 57q16 0 16 -47t-36 -99q-70 -100 -172 -100q-76 0 -192 68t-192 68q-36 0 -88 -57t-60 -57zM52 33q0 33 6 33q22 0 74 17t58 33q14 54 14 160v768q0 128 -13 150t-59 39t-68 17q-8 0 -8 35
t4 39q30 -2 115 -8t150 -5t305 13q6 -18 6 -46t-8 -28q-18 0 -72 -17t-58 -31q-14 -56 -14 -140v-770q0 -114 16 -176q4 -14 55 -32t69 -18q8 0 8 -31t-4 -43l-278 16q-66 0 -290 -16q-8 8 -8 41z" />
    <glyph glyph-name="itilde" unicode="&#x129;" horiz-adv-x="654" 
d="M20 1038q-14 0 -14 37t32 91q64 92 134 92t166 -61t158 -61q32 0 72 51t50 51t10 -39t-30 -91q-58 -88 -130 -88t-168 60t-160 60q-28 0 -70 -51t-50 -51zM456 652v-360q0 -118 16 -182q4 -14 50 -32t62 -18q6 0 7 -30t-3 -38q-192 16 -254 16t-270 -16q-8 8 -8 38t8 30
q22 0 68 17t50 33q14 60 14 152v292q0 112 -36 150q-23 27 -67 35q-43 9 -43 11q0 58 10 58q38 0 174 27t192 45l22 6q10 0 20 -13t10 -21q-22 -176 -22 -200z" />
    <glyph glyph-name="Imacron" unicode="&#x12a;" horiz-adv-x="692" 
d="M68 1594h574q12 0 12 -20q-4 -86 -28 -118h-576l-10 4q-2 6 -2 18q5 116 30 116zM52 33q0 33 6 33q22 0 74 17t58 33q14 54 14 160v768q0 128 -13 150t-59 39t-68 17q-8 0 -8 35t4 39q30 -2 115 -8t150 -5t305 13q6 -18 6 -46t-8 -28q-18 0 -72 -17t-58 -31
q-14 -56 -14 -140v-770q0 -114 16 -176q4 -14 55 -32t69 -18q8 0 8 -31t-4 -43l-278 16q-66 0 -290 -16q-8 8 -8 41z" />
    <glyph glyph-name="imacron" unicode="&#x12b;" horiz-adv-x="654" 
d="M88 1158h496q12 0 12 -20q-2 -77 -28 -118h-498l-10 4q-2 6 -2 18q5 116 30 116zM456 652v-360q0 -118 16 -182q4 -14 50 -32t62 -18q6 0 7 -30t-3 -38q-192 16 -254 16t-270 -16q-8 8 -8 38t8 30q22 0 68 17t50 33q14 60 14 152v292q0 112 -36 150q-23 27 -67 35
q-43 9 -43 11q0 58 10 58q38 0 174 27t192 45l22 6q10 0 20 -13t10 -21q-22 -176 -22 -200z" />
    <glyph glyph-name="Ibreve" unicode="&#x12c;" horiz-adv-x="692" 
d="M358 1576q42 0 91 29t64 49t22 17t26 -25t17 -28t-2 -11t-2 -7q-86 -144 -216 -144t-216 144q-2 2 -2 7t-2 11t22 34t32 16q26 -34 75 -63t91 -29zM52 33q0 33 6 33q22 0 74 17t58 33q14 54 14 160v768q0 128 -13 150t-59 39t-68 17q-8 0 -8 35t4 39q30 -2 115 -8t150 -5
t305 13q6 -18 6 -46t-8 -28q-18 0 -72 -17t-58 -31q-14 -56 -14 -140v-770q0 -114 16 -176q4 -14 55 -32t69 -18q8 0 8 -31t-4 -43l-278 16q-66 0 -290 -16q-8 8 -8 41z" />
    <glyph glyph-name="ibreve" unicode="&#x12d;" horiz-adv-x="654" 
d="M333 1140q49 0 92 31t59 85q4 6 11 6t32 -17t25 -27t-2 -14q-24 -82 -81 -133t-136 -51t-144 52t-87 132q-2 4 -2 14t25 27t32 17t11 -6q16 -54 66 -85t99 -31zM456 652v-360q0 -118 16 -182q4 -14 50 -32t62 -18q6 0 7 -30t-3 -38q-192 16 -254 16t-270 -16q-8 8 -8 38
t8 30q22 0 68 17t50 33q14 60 14 152v292q0 112 -36 150q-23 27 -67 35q-43 9 -43 11q0 58 10 58q38 0 174 27t192 45l22 6q10 0 20 -13t10 -21q-22 -176 -22 -200z" />
    <glyph glyph-name="Iogonek" unicode="&#x12e;" horiz-adv-x="566" 
d="M283 8q-59 0 -283 -16q-8 8 -8 41t6 33q22 0 74 17t58 33q14 54 14 160v768q0 128 -13 150t-59 39t-68 17q-8 0 -8 35t4 39q276 -12 303 -12t267 12q6 -18 6 -46t-8 -28q-18 0 -72 -17t-58 -31q-14 -56 -14 -140v-770q0 -114 16 -176q4 -14 55 -32t69 -18q8 0 8 -31
t-4 -43q-78 4 -114 8q-182 -110 -182 -220q0 -30 24 -47t60 -17t85 23t73 43q10 0 10 -32t-12 -48q-34 -44 -103 -91t-135 -47t-118 42t-52 118t86 165t180 117q-28 2 -87 2z" />
    <glyph glyph-name="iogonek" unicode="&#x12f;" horiz-adv-x="620" 
d="M304 1380q62 0 105 -43t43 -105t-43 -105t-105 -43t-105 43t-43 105t43 105t105 43zM287 8q-63 0 -239 -16q-8 8 -8 41t8 33q22 0 74 18t56 32q14 60 14 152v274q0 112 -36 150q-23 27 -67 35q-43 9 -43 11q0 70 10 70q38 0 174 27t192 45l22 6q10 0 20 -13t10 -21
q-22 -176 -22 -200v-354q0 -128 14 -182q4 -14 56 -32t70 -18q6 0 7 -33t-3 -41q-38 2 -94 6q-178 -108 -178 -218q0 -30 24 -47t60 -17t85 23t73 43q10 0 10 -32t-12 -48q-34 -44 -103 -91t-135 -47t-118 42t-52 117t85 163t177 118q-68 4 -131 4z" />
    <glyph glyph-name="Idotaccent" unicode="&#x130;" horiz-adv-x="692" 
d="M196 1604q0 62 43 105t105 43t105 -43t43 -105t-43 -105t-105 -43t-105 43t-43 105zM52 33q0 33 6 33q22 0 74 17t58 33q14 54 14 160v768q0 128 -13 150t-59 39t-68 17q-8 0 -8 35t4 39q30 -2 115 -8t150 -5t305 13q6 -18 6 -46t-8 -28q-18 0 -72 -17t-58 -31
q-14 -56 -14 -140v-770q0 -114 16 -176q4 -14 55 -32t69 -18q8 0 8 -31t-4 -43l-278 16q-66 0 -290 -16q-8 8 -8 41z" />
    <glyph glyph-name="dotlessi" unicode="&#x131;" horiz-adv-x="654" 
d="M456 652v-360q0 -118 16 -182q4 -14 50 -32t62 -18q6 0 7 -30t-3 -38q-192 16 -254 16t-270 -16q-8 8 -8 38t8 30q22 0 68 17t50 33q14 60 14 152v292q0 112 -36 150q-23 27 -67 35q-43 9 -43 11q0 58 10 58q38 0 174 27t192 45l22 6q10 0 20 -13t10 -21
q-22 -176 -22 -200z" />
    <glyph glyph-name="IJ" unicode="&#x132;" horiz-adv-x="1340" 
d="M1105 1312q27 0 267 12q6 -18 6 -46t-8 -28q-18 0 -72 -17t-58 -31q-14 -54 -14 -170v-746q0 -340 -159 -531t-433 -191q-68 0 -114 36q-30 48 -30 101t38 89t87 36t104 -61t83 -61q88 0 116 140t28 426v774q0 128 -13 150t-59 39t-68 17q-8 0 -8 35t4 39
q276 -12 303 -12zM88 33q0 33 6 33q22 0 74 17t58 33q14 54 14 160v768q0 128 -13 150t-59 39t-68 17q-8 0 -8 35t4 39q30 -2 115 -8t150 -5t305 13q6 -18 6 -46t-8 -28q-18 0 -72 -17t-58 -31q-14 -56 -14 -140v-770q0 -114 16 -176q4 -14 55 -32t69 -18q8 0 8 -31t-4 -43
l-278 16q-66 0 -290 -16q-8 8 -8 41z" />
    <glyph glyph-name="ij" unicode="&#x133;" horiz-adv-x="1232" 
d="M758 1232q0 62 43 105t105 43t105 -43t43 -105t-43 -105t-105 -43t-105 43t-43 105zM792 542q0 112 -36 150q-24 27 -66 36q-42 8 -42 10q0 70 8 70q38 0 186 29t192 47l10 2q12 0 22 -13t9 -27t-12 -78t-11 -116v-412q0 -294 -96 -444q-48 -76 -169 -154t-169 -78
q-32 18 -32 42t2 26l26 13q10 5 48 47t62 97t46 164t22 247v342zM464 652v-354q0 -128 14 -182q4 -14 57 -32t69 -18q8 0 8 -33t-4 -41q-160 16 -258 16t-290 -16q-6 8 -6 41t6 33q24 0 75 18t55 32q14 60 14 152v274q0 112 -30 145t-73 41t-43 10q0 70 10 70q40 0 175 27
t164 36t49 15q12 0 21 -13t9 -21q-22 -176 -22 -200zM168 1232q0 62 44 105t105 43t104 -43t43 -105t-43 -105t-104 -43t-105 43t-44 105z" />
    <glyph glyph-name="Jcircumflex" unicode="&#x134;" horiz-adv-x="986" 
d="M886 1456q-18 0 -104 45t-138 79q-52 -34 -138 -79t-104 -45t-18 38q133 99 232 226q16 18 27 18t22 -11t37 -41q100 -116 202 -192q0 -38 -18 -38zM661 1312q27 0 267 12q6 -18 6 -46t-8 -28q-18 0 -72 -17t-58 -31q-14 -54 -14 -170v-746q0 -340 -159 -531t-433 -191
q-68 0 -114 36q-30 48 -30 101t38 89t87 36t104 -61t83 -61q88 0 116 140t28 426v774q0 128 -13 150t-59 39t-68 17q-8 0 -8 35t4 39q276 -12 303 -12z" />
    <glyph glyph-name="jcircumflex" unicode="&#x135;" horiz-adv-x="590" 
d="M603 1020q-17 0 -95 54t-124 94q-46 -40 -124 -94t-95 -54t-17 46q48 48 111 129t87 121t35 40t22 -14t34 -49q84 -128 183 -227q0 -46 -17 -46zM252 200v354q0 112 -36 150q-24 27 -66 36q-42 8 -42 10q0 58 8 58q38 0 186 29t192 47l10 2q12 0 22 -13t9 -27t-12 -78
t-11 -116v-412q0 -294 -96 -444q-48 -76 -169 -154t-169 -78q-32 18 -32 42t2 26l26 13q10 5 48 47t62 97t46 164t22 247z" />
    <glyph glyph-name="Kcommaaccent" unicode="&#x136;" horiz-adv-x="1482" 
d="M566 -180q0 44 63 69t143 25q44 -40 44 -118t-58 -141t-126 -91h-6q-10 0 -31 12t-21 20q0 2 21 15t41 35t20 50t-45 54t-45 70zM52 33q0 33 6 33q22 0 74 17t58 33q14 54 14 160v768q0 128 -13 150t-59 39t-68 17q-8 0 -8 35t4 39q276 -12 303 -12t267 12q6 -18 6 -46
t-8 -28q-18 0 -72 -17t-58 -31q-14 -54 -14 -170v-316q0 -16 12 -16h16q14 0 137 126t315 346q16 20 16 46q0 20 -44 28t-76 8q-8 0 -12 28t0 42q222 -12 257 -12t275 12q4 -8 3 -39t-7 -31l-12 -2q-106 0 -191 -55q-17 -11 -29 -25l-344 -380q-26 -30 -2 -58l474 -618
q22 -26 69 -38t71 -12q8 0 8 -29t-8 -45l-302 16q-108 0 -284 -16q-8 8 -8 41t8 33q22 0 58 12t36 28q0 64 -356 466q-6 6 -28 6q-52 0 -52 -34v-252q0 -114 16 -176q4 -14 55 -32t69 -18q8 0 8 -31t-4 -43l-278 16q-66 0 -290 -16q-8 8 -8 41z" />
    <glyph glyph-name="kcommaaccent" unicode="&#x137;" horiz-adv-x="1292" 
d="M498 -180q0 44 63 69t143 25q44 -40 44 -118t-58 -141t-126 -91h-6q-10 0 -31 12t-21 20q0 2 21 15t41 35t20 50t-45 54t-45 70zM334 8q-98 0 -274 -16q-8 8 -8 41t8 33q22 0 74 18t56 32q14 60 14 152v794q0 94 -10 144q-10 32 -104 32h-18q-12 0 -12 37t12 37
q174 17 260 41q86 25 106 31l20 6h4q8 0 16 -12t10 -22q-24 -90 -24 -202v-636q54 14 77 34t60 51t56 48t42 36t33 30t23 25t13 33t-20 25t-44 7t-28 3q-4 14 -4 42t8 30q144 -2 245 -2t191 4q14 -7 10 -41q-4 -33 -8 -33q-62 0 -140 -46q-142 -82 -274 -218
q58 -62 205 -232t178 -194t73 -39t60 -15q10 0 10 -32t-4 -40q-240 12 -252 12l-266 -14q-8 8 -8 41t8 33q20 0 46 8t26 15t-2 9l-292 334l-22 -6v-128q0 -128 14 -182q4 -14 56 -32t70 -18q6 0 7 -33t-3 -41q-176 16 -274 16z" />
    <glyph glyph-name="kgreenlandic" unicode="&#x138;" horiz-adv-x="1216" 
d="M298 8q-98 0 -274 -16q-8 8 -8 41t8 33q22 0 74 18t56 32q14 60 14 152v290q0 94 -10 144q-10 32 -104 32h-18q-12 0 -12 37t12 37q174 17 260 41q86 25 106 31l20 6h4q8 0 16 -12t10 -22q-24 -90 -24 -202v-132q34 0 68 26q150 114 201 159t51 68t-20 29t-44 7t-28 3
q-4 14 -4 42t8 30q144 -4 228 -4l258 12q14 -7 10 -42q-4 -34 -8 -34q-24 0 -82 -11t-108 -39q-178 -102 -290 -218q58 -62 205 -232t178 -194t73 -39t60 -15q10 0 10 -32t-4 -40q-240 12 -252 12l-266 -14q-8 8 -8 41t8 33q20 0 46 8t26 15t-2 9l-292 334l-22 -6v-128
q0 -128 14 -182q4 -14 56 -32t70 -18q6 0 7 -33t-3 -41q-176 16 -274 16z" />
    <glyph glyph-name="Lacute" unicode="&#x139;" horiz-adv-x="1196" 
d="M192 1497q0 11 87 97t153 136q16 8 44 8t66 -19t38 -57q0 -48 -162 -127t-198 -79q-10 0 -19 15t-9 26zM52 33q0 33 8 33q24 0 75 14t57 30q12 46 12 176v764q0 122 -13 144t-59 39t-68 17q-8 0 -8 35t4 39q276 -12 303 -12t267 12q6 -18 6 -46t-8 -28q-18 0 -72 -17
t-58 -31q-14 -54 -14 -160v-758q0 -98 16 -144q10 -32 136 -32h52q124 0 224 52q34 18 77 68t67 112q4 12 40 12t48 -12q-98 -276 -108 -344l-684 8l-292 -12q-8 8 -8 41z" />
    <glyph glyph-name="lacute" unicode="&#x13a;" horiz-adv-x="668" 
d="M194 1497q0 11 87 97t153 136q16 8 44 8t66 -19t38 -57q0 -48 -162 -127t-198 -79q-10 0 -19 15t-9 26zM334 8q-98 0 -274 -16q-8 8 -8 41t8 33q22 0 74 18t56 32q14 60 14 152v794q0 94 -10 144q-10 32 -104 32h-18q-12 0 -12 37t12 37q174 17 260 41q86 25 106 31l20 6
h4q8 0 16 -12t10 -22q-22 -90 -22 -202l-2 -856q0 -128 14 -182q4 -14 56 -32t70 -18q6 0 7 -33t-3 -41q-176 16 -274 16z" />
    <glyph glyph-name="Lcommaaccent" unicode="&#x13b;" horiz-adv-x="1196" 
d="M462 -180q0 44 63 69t143 25q44 -40 44 -118t-58 -141t-126 -91h-6q-10 0 -31 12t-21 20q0 2 21 15t41 35t20 50t-45 54t-45 70zM52 33q0 33 8 33q24 0 75 14t57 30q12 46 12 176v764q0 122 -13 144t-59 39t-68 17q-8 0 -8 35t4 39q276 -12 303 -12t267 12q6 -18 6 -46
t-8 -28q-18 0 -72 -17t-58 -31q-14 -54 -14 -160v-758q0 -98 16 -144q10 -32 136 -32h52q124 0 224 52q34 18 77 68t67 112q4 12 40 12t48 -12q-98 -276 -108 -344l-684 8l-292 -12q-8 8 -8 41z" />
    <glyph glyph-name="lcommaaccent" unicode="&#x13c;" horiz-adv-x="668" 
d="M204 -180q0 44 63 69t143 25q44 -40 44 -118t-58 -141t-126 -91h-6q-10 0 -31 12t-21 20q0 2 21 15t41 35t20 50t-45 54t-45 70zM334 8q-98 0 -274 -16q-8 8 -8 41t8 33q22 0 74 18t56 32q14 60 14 152v794q0 94 -10 144q-10 32 -104 32h-18q-12 0 -12 37t12 37
q174 17 260 41q86 25 106 31l20 6h4q8 0 16 -12t10 -22q-22 -90 -22 -202l-2 -856q0 -128 14 -182q4 -14 56 -32t70 -18q6 0 7 -33t-3 -41q-176 16 -274 16z" />
    <glyph glyph-name="Lcaron" unicode="&#x13d;" horiz-adv-x="1196" 
d="M930 1284q0 77 63 95q45 13 115 13q28 -50 28 -141t-56 -182t-120 -131h-4q-10 0 -29 19t-19 24t24 28q70 67 70 125q0 26 -36 67t-36 83zM52 33q0 33 8 33q24 0 75 14t57 30q12 46 12 176v764q0 122 -13 144t-59 39t-68 17q-8 0 -8 35t4 39q276 -12 303 -12t267 12
q6 -18 6 -46t-8 -28q-18 0 -72 -17t-58 -31q-14 -54 -14 -160v-758q0 -98 16 -144q10 -32 136 -32h52q124 0 224 52q34 18 77 68t67 112q4 12 40 12t48 -12q-98 -276 -108 -344l-684 8l-292 -12q-8 8 -8 41z" />
    <glyph glyph-name="lcaron" unicode="&#x13e;" horiz-adv-x="668" 
d="M578 1284q0 77 63 95q45 13 115 13q28 -50 28 -141t-56 -182t-120 -131h-4q-10 0 -29 19t-19 24t24 28q70 67 70 125q0 26 -36 67t-36 83zM334 8q-98 0 -274 -16q-8 8 -8 41t8 33q22 0 74 18t56 32q14 60 14 152v794q0 94 -10 144q-10 32 -104 32h-18q-12 0 -12 37t12 37
q174 17 260 41q86 25 106 31l20 6h4q8 0 16 -12t10 -22q-22 -90 -22 -202l-2 -856q0 -128 14 -182q4 -14 56 -32t70 -18q6 0 7 -33t-3 -41q-176 16 -274 16z" />
    <glyph glyph-name="Ldot" unicode="&#x13f;" horiz-adv-x="1196" 
d="M794 692q0 62 43 105t105 43t105 -43t43 -105t-43 -105t-105 -43t-105 43t-43 105zM52 33q0 33 8 33q24 0 75 14t57 30q12 46 12 176v764q0 122 -13 144t-59 39t-68 17q-8 0 -8 35t4 39q276 -12 303 -12t267 12q6 -18 6 -46t-8 -28q-18 0 -72 -17t-58 -31
q-14 -54 -14 -160v-758q0 -98 16 -144q10 -32 136 -32h52q124 0 224 52q34 18 77 68t67 112q4 12 40 12t48 -12q-98 -276 -108 -344l-684 8l-292 -12q-8 8 -8 41z" />
    <glyph glyph-name="ldot" unicode="&#x140;" horiz-adv-x="1022" 
d="M676 572q0 62 43 105t105 43t105 -43t43 -105t-43 -105t-105 -43t-105 43t-43 105zM334 8q-98 0 -274 -16q-8 8 -8 41t8 33q22 0 74 18t56 32q14 60 14 152v794q0 94 -10 144q-10 32 -104 32h-18q-12 0 -12 37t12 37q174 17 260 41q86 25 106 31l20 6h4q8 0 16 -12
t10 -22q-22 -90 -22 -202l-2 -856q0 -128 14 -182q4 -14 56 -32t70 -18q6 0 7 -33t-3 -41q-176 16 -274 16z" />
    <glyph glyph-name="Lslash" unicode="&#x141;" horiz-adv-x="1176" 
d="M52 33q0 33 8 33q24 0 75 14t57 30q12 46 12 176v160l-132 -90q-54 56 -40 68l172 120v506q0 122 -13 144t-59 39t-68 17q-8 0 -8 35t4 39q276 -12 303 -12t267 12q6 -18 6 -46t-8 -28q-18 0 -72 -17t-58 -31q-14 -54 -14 -160v-304l252 174q54 -56 42 -68l-294 -204
v-356q0 -98 16 -144q10 -32 136 -32h52q124 0 224 52q34 18 77 68t67 112q4 12 40 12t48 -12q-98 -276 -108 -344l-684 8l-292 -12q-8 8 -8 41z" />
    <glyph glyph-name="lslash" unicode="&#x142;" horiz-adv-x="668" 
d="M334 8q-98 0 -274 -16q-8 8 -8 41t8 33q22 0 74 18t56 32q14 60 14 152v272l-122 -80q-14 16 -29 41t-5 31l156 104v426q0 94 -10 144q-10 32 -104 32h-18q-12 0 -12 37t12 37q174 17 260 41q86 25 106 31l20 6h4q8 0 16 -12t10 -22q-22 -90 -22 -202v-348l118 78
q12 -14 28 -41t8 -31l-156 -100v-414q0 -128 14 -182q4 -14 56 -32t70 -18q6 0 7 -33t-3 -41q-176 16 -274 16z" />
    <glyph glyph-name="Nacute" unicode="&#x143;" horiz-adv-x="1554" 
d="M684 1497q0 11 87 97t153 136q16 8 44 8t66 -19t38 -57q0 -48 -162 -127t-198 -79q-10 0 -19 15t-9 26zM359 1308q43 0 171 16q56 -111 388 -516q156 -190 248 -312q4 14 4 82v470q0 114 -22 140t-79 44t-81 18q-8 0 -10 33t4 41q184 -16 252 -16t260 16q8 -16 8 -45
t-10 -29q-110 0 -166 -66q-28 -34 -28 -146v-760q0 -72 8 -280q-8 -8 -41 -8t-71 46l-814 1012v-766q0 -110 17 -143t83 -52t96 -19q6 0 7 -34t-3 -42l-270 16q-52 0 -132 -7t-116 -9q-6 6 -6 40t6 34q55 0 104 23q48 23 67 54t19 145v786q0 104 -30 142q-10 14 -70 24
t-88 10q-8 0 -10 33t6 41q256 -16 299 -16z" />
    <glyph glyph-name="nacute" unicode="&#x144;" horiz-adv-x="1244" 
d="M834 1350q48 0 71 -20t23 -38q0 -50 -143 -161t-169 -111q-10 0 -22 13t-12 21t56 99t130 179q18 18 66 18zM776 448q0 274 -158 274q-152 0 -152 -88v-336q0 -128 14 -182q4 -14 53 -32t65 -18q6 0 7 -33t-3 -41q-192 16 -278 16t-262 -16q-8 8 -8 41t8 33q22 0 74 18
t56 32q14 60 14 152v274q0 112 -36 150q-23 27 -67 35q-43 9 -43 11q0 70 10 70q37 0 226 42l158 34l4 2q10 0 20 -13t10 -21q-8 -56 -8 -64t2 -10q4 0 14 10q112 104 278 104q116 0 189 -98t73 -298v-198q0 -128 14 -182q4 -14 56 -32t70 -18q6 0 7 -33t-3 -41
q-176 16 -262 16t-278 -16q-8 8 -8 41t8 33q22 0 70 18t52 32q14 60 14 152v180z" />
    <glyph glyph-name="Ncommaaccent" unicode="&#x145;" horiz-adv-x="1554" 
d="M682 -180q0 44 63 69t143 25q44 -40 44 -118t-58 -141t-126 -91h-6q-10 0 -31 12t-21 20q0 2 21 15t41 35t20 50t-45 54t-45 70zM359 1308q43 0 171 16q56 -111 388 -516q156 -190 248 -312q4 14 4 82v470q0 114 -22 140t-79 44t-81 18q-8 0 -10 33t4 41q184 -16 252 -16
t260 16q8 -16 8 -45t-10 -29q-110 0 -166 -66q-28 -34 -28 -146v-760q0 -72 8 -280q-8 -8 -41 -8t-71 46l-814 1012v-766q0 -110 17 -143t83 -52t96 -19q6 0 7 -34t-3 -42l-270 16q-52 0 -132 -7t-116 -9q-6 6 -6 40t6 34q55 0 104 23q48 23 67 54t19 145v786q0 104 -30 142
q-10 14 -70 24t-88 10q-8 0 -10 33t6 41q256 -16 299 -16z" />
    <glyph glyph-name="ncommaaccent" unicode="&#x146;" horiz-adv-x="1244" 
d="M482 -180q0 44 63 69t143 25q44 -40 44 -118t-58 -141t-126 -91h-6q-10 0 -31 12t-21 20q0 2 21 15t41 35t20 50t-45 54t-45 70zM776 448q0 274 -158 274q-152 0 -152 -88v-336q0 -128 14 -182q4 -14 53 -32t65 -18q6 0 7 -33t-3 -41q-192 16 -278 16t-262 -16
q-8 8 -8 41t8 33q22 0 74 18t56 32q14 60 14 152v274q0 112 -36 150q-23 27 -67 35q-43 9 -43 11q0 70 10 70q37 0 226 42l158 34l4 2q10 0 20 -13t10 -21q-8 -56 -8 -64t2 -10q4 0 14 10q112 104 278 104q116 0 189 -98t73 -298v-198q0 -128 14 -182q4 -14 56 -32t70 -18
q6 0 7 -33t-3 -41q-176 16 -262 16t-278 -16q-8 8 -8 41t8 33q22 0 70 18t52 32q14 60 14 152v180z" />
    <glyph glyph-name="Ncaron" unicode="&#x147;" horiz-adv-x="1554" 
d="M1046 1738q18 0 18 -38q-76 -57 -232 -226q-18 -18 -29 -18t-37 31t-100 104t-122 109q0 38 18 38t104 -45t138 -79q52 34 138 79t104 45zM359 1308q43 0 171 16q56 -111 388 -516q156 -190 248 -312q4 14 4 82v470q0 114 -22 140t-79 44t-81 18q-8 0 -10 33t4 41
q184 -16 252 -16t260 16q8 -16 8 -45t-10 -29q-110 0 -166 -66q-28 -34 -28 -146v-760q0 -72 8 -280q-8 -8 -41 -8t-71 46l-814 1012v-766q0 -110 17 -143t83 -52t96 -19q6 0 7 -34t-3 -42l-270 16q-52 0 -132 -7t-116 -9q-6 6 -6 40t6 34q55 0 104 23q48 23 67 54t19 145
v786q0 104 -30 142q-10 14 -70 24t-88 10q-8 0 -10 33t6 41q256 -16 299 -16z" />
    <glyph glyph-name="ncaron" unicode="&#x148;" horiz-adv-x="1244" 
d="M835 1356q17 0 17 -46q-99 -99 -162 -194q-63 -96 -75 -96q-13 0 -25 20q-36 60 -99 141t-111 129q0 46 17 46t95 -54t124 -94q46 40 124 94t95 54zM776 448q0 274 -158 274q-152 0 -152 -88v-336q0 -128 14 -182q4 -14 53 -32t65 -18q6 0 7 -33t-3 -41q-192 16 -278 16
t-262 -16q-8 8 -8 41t8 33q22 0 74 18t56 32q14 60 14 152v274q0 112 -36 150q-23 27 -67 35q-43 9 -43 11q0 70 10 70q37 0 226 42l158 34l4 2q10 0 20 -13t10 -21q-8 -56 -8 -64t2 -10q4 0 14 10q112 104 278 104q116 0 189 -98t73 -298v-198q0 -128 14 -182q4 -14 56 -32
t70 -18q6 0 7 -33t-3 -41q-176 16 -262 16t-278 -16q-8 8 -8 41t8 33q22 0 70 18t52 32q14 60 14 152v180z" />
    <glyph glyph-name="Eng" unicode="&#x14a;" horiz-adv-x="1496" 
d="M1208 1308q68 0 260 16q8 -16 8 -45t-10 -29q-110 0 -166 -66q-28 -34 -28 -146v-752q0 -350 -132 -536t-400 -186q-68 0 -114 36q-30 48 -30 101t38 89t87 36t104 -61t83 -61q76 0 137 105t85 275l-776 964v-766q0 -110 17 -143t83 -52t96 -19q6 0 7 -34t-3 -42l-270 16
q-52 0 -132 -7t-116 -9q-6 6 -6 40t6 34q55 0 104 23q48 23 67 54t19 145v786q0 104 -30 142q-10 14 -70 24t-88 10q-8 0 -10 33t6 41q256 -16 299 -16t171 16q56 -111 388 -516q156 -190 248 -312q4 14 4 82v470q0 114 -22 140t-79 44t-81 18q-8 0 -10 33t4 41
q184 -16 252 -16z" />
    <glyph glyph-name="eng" unicode="&#x14b;" horiz-adv-x="1092" 
d="M462 768q4 0 16 12q100 114 240 114t220 -77t80 -217v-360q0 -294 -96 -444q-48 -76 -169 -154t-169 -78q-32 18 -32 42t2 26l26 13q10 5 48 47t62 97t46 164t22 247v248q0 162 -33 228t-123 66q-62 0 -108 -38t-46 -72v-334q0 -128 14 -182q4 -14 53 -32t65 -18
q6 0 7 -33t-3 -41q-192 16 -278 16t-262 -16q-8 8 -8 41t8 33q22 0 74 18t56 32q14 60 14 152v274q0 112 -36 150q-23 27 -67 35q-43 9 -43 11q0 70 10 70q37 0 226 42l158 34l4 2q10 0 20 -13t10 -21l-8 -70q-4 -14 0 -14z" />
    <glyph glyph-name="Omacron" unicode="&#x14c;" horiz-adv-x="1390" 
d="M992 1594q12 0 12 -20q-4 -86 -28 -118h-576l-10 4q-2 6 -2 18q5 116 30 116h574zM50 656q0 280 189 479t453 199t454 -199t190 -479t-190 -478t-454 -198t-453 198t-189 478zM661 1222q-105 0 -175 -77q-124 -136 -124 -445q0 -207 77 -395q39 -95 113 -154t172 -59
q150 0 225 152t75 375t-72 400q-38 93 -112 148t-179 55z" />
    <glyph glyph-name="omacron" unicode="&#x14d;" horiz-adv-x="1046" 
d="M780 1158q12 0 12 -20q-2 -77 -28 -118h-498l-10 4q-2 6 -2 18q5 116 30 116h496zM522 894q196 0 333 -132t137 -322t-136 -322t-333 -132t-334 132t-137 322t137 322t333 132zM494 784q-58 0 -96 -46q-62 -75 -62 -236q0 -406 206 -406q84 0 123 82t39 192
q0 414 -210 414z" />
    <glyph glyph-name="Obreve" unicode="&#x14e;" horiz-adv-x="1390" 
d="M692 1576q42 0 91 29t64 49t22 17t26 -25t17 -28t-2 -11t-2 -7q-86 -144 -216 -144t-216 144q-2 2 -2 7t-2 11t22 34t32 16q26 -34 75 -63t91 -29zM50 656q0 280 189 479t453 199t454 -199t190 -479t-190 -478t-454 -198t-453 198t-189 478zM661 1222q-105 0 -175 -77
q-124 -136 -124 -445q0 -207 77 -395q39 -95 113 -154t172 -59q150 0 225 152t75 375t-72 400q-38 93 -112 148t-179 55z" />
    <glyph glyph-name="obreve" unicode="&#x14f;" horiz-adv-x="1046" 
d="M529 1140q49 0 92 31t59 85q4 6 11 6t32 -17t25 -27t-2 -14q-24 -82 -81 -133t-136 -51t-144 52t-87 132q-2 4 -2 14t25 27t32 17t11 -6q16 -54 66 -85t99 -31zM522 894q196 0 333 -132t137 -322t-136 -322t-333 -132t-334 132t-137 322t137 322t333 132zM494 784
q-58 0 -96 -46q-62 -75 -62 -236q0 -406 206 -406q84 0 123 82t39 192q0 414 -210 414z" />
    <glyph glyph-name="Ohungarumlaut" unicode="&#x150;" horiz-adv-x="1390" 
d="M440 1497q0 11 87 97t153 136q16 8 44 8t66 -19t38 -57q0 -48 -162 -127t-198 -79q-10 0 -19 15t-9 26zM776 1497q0 11 87 97t153 136q16 8 44 8t66 -19t38 -57q0 -48 -162 -127t-198 -79q-10 0 -19 15t-9 26zM50 656q0 280 189 479t453 199t454 -199t190 -479t-190 -478
t-454 -198t-453 198t-189 478zM661 1222q-105 0 -175 -77q-124 -136 -124 -445q0 -207 77 -395q39 -95 113 -154t172 -59q150 0 225 152t75 375t-72 400q-38 93 -112 148t-179 55z" />
    <glyph glyph-name="ohungarumlaut" unicode="&#x151;" horiz-adv-x="1046" 
d="M602 1350q48 0 71 -20t23 -38q0 -50 -143 -161t-169 -111q-10 0 -22 13t-12 21t56 99t130 179q18 18 66 18zM880 1350q48 0 71 -20t23 -38q0 -50 -143 -161t-169 -111q-10 0 -22 13t-12 21t56 99t130 179q18 18 66 18zM522 894q196 0 333 -132t137 -322t-136 -322
t-333 -132t-334 132t-137 322t137 322t333 132zM494 784q-58 0 -96 -46q-62 -75 -62 -236q0 -406 206 -406q84 0 123 82t39 192q0 414 -210 414z" />
    <glyph glyph-name="OE" unicode="&#x152;" horiz-adv-x="2072" 
d="M724 -20q-264 0 -453 198t-189 479t185 479t457 198l508 -16l646 10q2 -20 58 -296q-10 -10 -39 -10t-35 14q-38 76 -120 130t-160 54h-76q-126 0 -130 -26q-10 -48 -10 -156v-308q0 -12 86 -12h106q124 0 136 8q10 8 15 48t13 68q2 14 33 14t41 -10v-378q-8 -8 -38 -8
t-36 16q-26 92 -34 100t-14 11t-8 5q-26 16 -163 16t-137 -18v-308q0 -96 16 -142q10 -32 136 -32h52q124 0 224 52q34 18 77 68t67 112q2 12 39 12t49 -12q-98 -276 -108 -344l-684 8q-148 0 -324 -12t-186 -12zM694 1222q-106 0 -176 -77q-124 -136 -124 -445
q0 -207 77 -395q39 -95 113 -154t153 -59t109 2q87 6 134 42q106 84 106 332v450q0 176 -82 240t-310 64z" />
    <glyph glyph-name="oe" unicode="&#x153;" horiz-adv-x="1832" 
d="M1114 786q-68 0 -99 -74t-31 -150q0 -12 14 -12h222q28 0 28 38q0 78 -33 138t-101 60zM1210 146q66 0 126 19t84 34t64 45q18 -8 18 -35t-8 -43q-20 -48 -124 -115t-230 -67q-180 0 -304 120q-134 -118 -324 -118t-327 133t-137 323t137 323t329 133t328 -126
q136 126 324 126q92 0 164 -38t111 -99q77 -120 77 -247q0 -44 -22 -55q-38 -19 -498 -19q-6 0 -10 -6l-2 -28q14 -112 65 -186t159 -74zM490 788q-58 0 -96 -47q-62 -77 -62 -237q0 -408 206 -408q84 0 123 83t39 193q0 416 -210 416z" />
    <glyph glyph-name="Racute" unicode="&#x154;" horiz-adv-x="1418" 
d="M452 1497q0 11 87 97t153 136q16 8 44 8t66 -19t38 -57q0 -48 -162 -127t-198 -79q-10 0 -19 15t-9 26zM1092 984q0 -134 -78 -234t-168 -130q-16 -6 -6 -22q86 -144 139 -217t91 -129t119 -121t157 -65q8 -10 8 -34t-8 -42q-28 -4 -98 -4t-151 19t-130 43t-98 72t-73 80
t-54 79t-62 97q-57 89 -95 145q-38 55 -59 63q-6 2 -23 2t-17 -32v-272q0 -102 14 -164q6 -24 66 -38t90 -14q8 0 8 -31t-4 -43q-240 12 -306 12l-292 -12q-8 8 -8 41t8 33q24 0 75 14t57 30q12 46 12 176v756q0 110 -12 156q-6 16 -59 36t-75 20q-8 0 -8 34t6 40
q184 -10 294 -10l280 2q146 0 290 -70q74 -36 122 -105t48 -161zM602 1210q-70 0 -92 -16t-24 -196v-216q0 -75 54 -84q12 -2 30 -2h54q78 0 121 68t43 180q0 266 -186 266z" />
    <glyph glyph-name="racute" unicode="&#x155;" horiz-adv-x="930" 
d="M630 1350q48 0 71 -20t23 -38q0 -50 -143 -161t-169 -111q-10 0 -22 13t-12 21t56 99t130 179q18 18 66 18zM876 820q0 -204 -103 -204q-53 0 -105 46t-92 46q-60 0 -85 -67t-25 -143v-202q0 -126 14 -180q4 -14 53 -32t65 -18q6 0 7 -33t-3 -41q-192 16 -278 16
t-262 -16q-8 8 -8 41t8 33q22 0 74 18t56 32q14 60 14 152v274q0 112 -36 150q-23 27 -67 35q-43 9 -43 11q0 70 10 70q45 0 215 39q171 39 177 39t16 -13t8 -29t-4 -44t-4 -36q98 130 226 130q88 0 172 -74z" />
    <glyph glyph-name="Rcommaaccent" unicode="&#x156;" horiz-adv-x="1418" 
d="M578 -180q0 44 63 69t143 25q44 -40 44 -118t-58 -141t-126 -91h-6q-10 0 -31 12t-21 20q0 2 21 15t41 35t20 50t-45 54t-45 70zM1092 984q0 -134 -78 -234t-168 -130q-16 -6 -6 -22q86 -144 139 -217t91 -129t119 -121t157 -65q8 -10 8 -34t-8 -42q-28 -4 -98 -4
t-151 19t-130 43t-98 72t-73 80t-54 79t-62 97q-57 89 -95 145q-38 55 -59 63q-6 2 -23 2t-17 -32v-272q0 -102 14 -164q6 -24 66 -38t90 -14q8 0 8 -31t-4 -43q-240 12 -306 12l-292 -12q-8 8 -8 41t8 33q24 0 75 14t57 30q12 46 12 176v756q0 110 -12 156q-6 16 -59 36
t-75 20q-8 0 -8 34t6 40q184 -10 294 -10l280 2q146 0 290 -70q74 -36 122 -105t48 -161zM602 1210q-70 0 -92 -16t-24 -196v-216q0 -75 54 -84q12 -2 30 -2h54q78 0 121 68t43 180q0 266 -186 266z" />
    <glyph glyph-name="rcommaaccent" unicode="&#x157;" horiz-adv-x="930" 
d="M212 -180q0 44 63 69t143 25q44 -40 44 -118t-58 -141t-126 -91h-6q-10 0 -31 12t-21 20q0 2 21 15t41 35t20 50t-45 54t-45 70zM876 820q0 -204 -103 -204q-53 0 -105 46t-92 46q-60 0 -85 -67t-25 -143v-202q0 -126 14 -180q4 -14 53 -32t65 -18q6 0 7 -33t-3 -41
q-192 16 -278 16t-262 -16q-8 8 -8 41t8 33q22 0 74 18t56 32q14 60 14 152v274q0 112 -36 150q-23 27 -67 35q-43 9 -43 11q0 70 10 70q45 0 215 39q171 39 177 39t16 -13t8 -29t-4 -44t-4 -36q98 130 226 130q88 0 172 -74z" />
    <glyph glyph-name="Rcaron" unicode="&#x158;" horiz-adv-x="1418" 
d="M834 1738q18 0 18 -38q-76 -57 -232 -226q-18 -18 -29 -18t-37 31t-100 104t-122 109q0 38 18 38t104 -45t138 -79q52 34 138 79t104 45zM1092 984q0 -134 -78 -234t-168 -130q-16 -6 -6 -22q86 -144 139 -217t91 -129t119 -121t157 -65q8 -10 8 -34t-8 -42
q-28 -4 -98 -4t-151 19t-130 43t-98 72t-73 80t-54 79t-62 97q-57 89 -95 145q-38 55 -59 63q-6 2 -23 2t-17 -32v-272q0 -102 14 -164q6 -24 66 -38t90 -14q8 0 8 -31t-4 -43q-240 12 -306 12l-292 -12q-8 8 -8 41t8 33q24 0 75 14t57 30q12 46 12 176v756q0 110 -12 156
q-6 16 -59 36t-75 20q-8 0 -8 34t6 40q184 -10 294 -10l280 2q146 0 290 -70q74 -36 122 -105t48 -161zM602 1210q-70 0 -92 -16t-24 -196v-216q0 -75 54 -84q12 -2 30 -2h54q78 0 121 68t43 180q0 266 -186 266z" />
    <glyph glyph-name="rcaron" unicode="&#x159;" horiz-adv-x="930" 
d="M687 1356q17 0 17 -46q-99 -99 -162 -194q-63 -96 -75 -96q-13 0 -25 20q-36 60 -99 141t-111 129q0 46 17 46t95 -54t124 -94q46 40 124 94t95 54zM876 820q0 -204 -103 -204q-53 0 -105 46t-92 46q-60 0 -85 -67t-25 -143v-202q0 -126 14 -180q4 -14 53 -32t65 -18
q6 0 7 -33t-3 -41q-192 16 -278 16t-262 -16q-8 8 -8 41t8 33q22 0 74 18t56 32q14 60 14 152v274q0 112 -36 150q-23 27 -67 35q-43 9 -43 11q0 70 10 70q45 0 215 39q171 39 177 39t16 -13t8 -29t-4 -44t-4 -36q98 130 226 130q88 0 172 -74z" />
    <glyph glyph-name="Sacute" unicode="&#x15a;" horiz-adv-x="966" 
d="M380 1503q0 11 87 97t153 136q16 8 44 8t66 -19t38 -57q0 -48 -162 -127t-198 -79q-10 0 -19 15t-9 26zM488 1340q92 0 198 -25t138 -31q22 -194 22 -332q-8 -20 -30 -20q-58 0 -62 14q-14 100 -86 191t-178 91q-68 0 -115 -42t-47 -141t164 -209q102 -68 172 -110
t91 -57q83 -59 120 -131t37 -188q0 -160 -132 -265t-297 -105t-387 52q-16 64 -31 175t-15 157q6 20 52 20t48 -12q16 -92 100 -185t186 -93q198 0 198 218q0 87 -136 184q-28 20 -116 75q-156 98 -238 182t-82 229q0 146 133 252t293 106z" />
    <glyph glyph-name="sacute" unicode="&#x15b;" horiz-adv-x="768" 
d="M526 1350q48 0 71 -20t23 -38q0 -50 -143 -161t-169 -111q-10 0 -22 13t-12 21t56 99t130 179q18 18 66 18zM418 898q158 0 242 -40q20 -92 20 -248q0 -18 -26 -18q-62 0 -66 16q-18 84 -61 132t-137 48q-44 0 -72 -21t-28 -64t40 -76t106 -65q107 -52 179 -107
q101 -77 101 -208t-101 -199t-257 -68q-70 0 -156 22t-124 54q-24 138 -24 244q8 6 51 6t45 -18q34 -198 216 -198q48 0 80 22t32 67t-43 79t-157 90t-170 123t-56 165q0 136 104 199t262 63z" />
    <glyph glyph-name="Scircumflex" unicode="&#x15c;" horiz-adv-x="966" 
d="M730 1462q-18 0 -104 45t-138 79q-52 -34 -138 -79t-104 -45t-18 38q133 99 232 226q16 18 27 18t22 -11t37 -41q100 -116 202 -192q0 -38 -18 -38zM488 1340q92 0 198 -25t138 -31q22 -194 22 -332q-8 -20 -30 -20q-58 0 -62 14q-14 100 -86 191t-178 91q-68 0 -115 -42
t-47 -141t164 -209q102 -68 172 -110t91 -57q83 -59 120 -131t37 -188q0 -160 -132 -265t-297 -105t-387 52q-16 64 -31 175t-15 157q6 20 52 20t48 -12q16 -92 100 -185t186 -93q198 0 198 218q0 87 -136 184q-28 20 -116 75q-156 98 -238 182t-82 229q0 146 133 252
t293 106z" />
    <glyph glyph-name="scircumflex" unicode="&#x15d;" horiz-adv-x="768" 
d="M607 1020q-17 0 -95 54t-124 94q-46 -40 -124 -94t-95 -54t-17 46q48 48 111 129t87 121t35 40t22 -14t34 -49q84 -128 183 -227q0 -46 -17 -46zM418 898q158 0 242 -40q20 -92 20 -248q0 -18 -26 -18q-62 0 -66 16q-18 84 -61 132t-137 48q-44 0 -72 -21t-28 -64t40 -76
t106 -65q107 -52 179 -107q101 -77 101 -208t-101 -199t-257 -68q-70 0 -156 22t-124 54q-24 138 -24 244q8 6 51 6t45 -18q34 -198 216 -198q48 0 80 22t32 67t-43 79t-157 90t-170 123t-56 165q0 136 104 199t262 63z" />
    <glyph glyph-name="Scedilla" unicode="&#x15e;" horiz-adv-x="966" 
d="M520 -68q50 0 89 -37t39 -83q0 -84 -61 -134t-152 -50t-129 38q-4 16 -4 44t16 28q2 0 44 -17t81 -17t62 20t23 48q0 66 -58 66q-36 0 -70 -14q-4 0 -19 16t-13 22q12 20 32 62t29 57q-143 6 -333 51q-16 64 -31 175t-15 157q6 20 52 20t48 -12q16 -92 100 -185t186 -93
q198 0 198 218q0 87 -136 184q-28 20 -116 75q-156 98 -238 182t-82 229q0 146 133 252t293 106q92 0 198 -25t138 -31q22 -194 22 -332q-8 -20 -30 -20q-58 0 -62 14q-14 100 -86 191t-178 91q-68 0 -115 -42t-47 -141t164 -209q102 -68 172 -110t91 -57q83 -59 120 -131
t37 -188q0 -160 -127 -261t-283 -108l-26 -51q28 2 44 2z" />
    <glyph glyph-name="scedilla" unicode="&#x15f;" horiz-adv-x="768" 
d="M425 -56q29 0 61 -31t32 -71q0 -72 -52 -114t-129 -42t-109 32q-4 12 -4 37t14 25l38 -14q36 -16 68 -16t52 17t20 41q0 56 -48 56q-30 0 -60 -12q-4 0 -17 13t-11 19q10 16 26 50t22 47q-58 3 -135 23t-115 52q-24 138 -24 244q8 6 51 6t45 -18q34 -198 216 -198
q48 0 80 22t32 67t-43 79t-157 90t-170 123t-56 165q0 136 104 199t262 63t242 -40q20 -92 20 -248q0 -18 -26 -18q-62 0 -66 16q-18 84 -61 132t-137 48q-44 0 -72 -21t-28 -64t40 -76t106 -65q107 -52 179 -107q101 -77 101 -208t-95 -195t-228 -71l-21 -39q24 2 53 2z
" />
    <glyph glyph-name="Scaron" unicode="&#x160;" horiz-adv-x="966" 
d="M730 1744q18 0 18 -38q-76 -57 -232 -226q-18 -18 -29 -18t-37 31t-100 104t-122 109q0 38 18 38t104 -45t138 -79q52 34 138 79t104 45zM488 1340q92 0 198 -25t138 -31q22 -194 22 -332q-8 -20 -30 -20q-58 0 -62 14q-14 100 -86 191t-178 91q-68 0 -115 -42t-47 -141
t164 -209q102 -68 172 -110t91 -57q83 -59 120 -131t37 -188q0 -160 -132 -265t-297 -105t-387 52q-16 64 -31 175t-15 157q6 20 52 20t48 -12q16 -92 100 -185t186 -93q198 0 198 218q0 87 -136 184q-28 20 -116 75q-156 98 -238 182t-82 229q0 146 133 252t293 106z" />
    <glyph glyph-name="scaron" unicode="&#x161;" horiz-adv-x="768" 
d="M595 1356q17 0 17 -46q-99 -99 -162 -194q-63 -96 -75 -96q-13 0 -25 20q-36 60 -99 141t-111 129q0 46 17 46t95 -54t124 -94q46 40 124 94t95 54zM418 898q158 0 242 -40q20 -92 20 -248q0 -18 -26 -18q-62 0 -66 16q-18 84 -61 132t-137 48q-44 0 -72 -21t-28 -64
t40 -76t106 -65q107 -52 179 -107q101 -77 101 -208t-101 -199t-257 -68q-70 0 -156 22t-124 54q-24 138 -24 244q8 6 51 6t45 -18q34 -198 216 -198q48 0 80 22t32 67t-43 79t-157 90t-170 123t-56 165q0 136 104 199t262 63z" />
    <glyph glyph-name="Tcommaaccent" unicode="&#x162;" horiz-adv-x="1330" 
d="M1233 1006q-31 0 -33 10q-50 198 -213 198t-171 -36q-16 -56 -16 -178v-722q0 -100 16 -162q4 -14 55 -32t69 -18q8 0 8 -31t-4 -43l-278 16q-66 0 -290 -16q-8 8 -8 41t6 33q22 0 74 17t58 33q14 54 14 154v724q0 174 -23 197t-157 23q-82 0 -134 -45t-80 -151
q-2 -10 -33 -10t-45 14l38 326q88 -22 138 -22l438 -12l440 12q50 0 138 22l38 -328q-14 -14 -45 -14zM538 -180q0 44 63 69t143 25q44 -40 44 -118t-58 -141t-126 -91h-6q-10 0 -31 12t-21 20q0 2 21 15t41 35t20 50t-45 54t-45 70z" />
    <glyph glyph-name="tcommaaccent" unicode="&#x163;" horiz-adv-x="748" 
d="M194 740h-130q-16 0 -16 39t4 45q112 56 161 93t89 72t69 60t31 27q16 0 34 -7t18 -15v-196h216q16 0 16 -20q0 -58 -20 -98h-212v-474q0 -152 108 -152q56 0 82 15t31 15t14 -20t9 -30q0 -24 -82 -66t-154 -42q-110 0 -189 69t-79 223v462zM274 -180q0 44 63 69t143 25
q44 -40 44 -118t-58 -141t-126 -91h-6q-10 0 -31 12t-21 20q0 2 21 15t41 35t20 50t-45 54t-45 70z" />
    <glyph glyph-name="Tcaron" unicode="&#x164;" horiz-adv-x="1330" 
d="M906 1752q18 0 18 -38q-76 -57 -232 -226q-18 -18 -29 -18t-37 31t-100 104t-122 109q0 38 18 38t104 -45t138 -79q52 34 138 79t104 45zM1233 1006q-31 0 -33 10q-50 198 -213 198t-171 -36q-16 -56 -16 -178v-722q0 -100 16 -162q4 -14 55 -32t69 -18q8 0 8 -31t-4 -43
l-278 16q-66 0 -290 -16q-8 8 -8 41t6 33q22 0 74 17t58 33q14 54 14 154v724q0 174 -23 197t-157 23q-82 0 -134 -45t-80 -151q-2 -10 -33 -10t-45 14l38 326q88 -22 138 -22l438 -12l440 12q50 0 138 22l38 -328q-14 -14 -45 -14z" />
    <glyph glyph-name="tcaron" unicode="&#x165;" horiz-adv-x="748" 
d="M604 1284q0 77 63 95q45 13 115 13q28 -50 28 -141t-56 -182t-120 -131h-4q-10 0 -29 19t-19 24t24 28q70 67 70 125q0 26 -36 67t-36 83zM194 740h-130q-16 0 -16 39t4 45q112 56 161 93t89 72t69 60t31 27q16 0 34 -7t18 -15v-196h216q16 0 16 -20q0 -58 -20 -98h-212
v-474q0 -152 108 -152q56 0 82 15t31 15t14 -20t9 -30q0 -24 -82 -66t-154 -42q-110 0 -189 69t-79 223v462z" />
    <glyph glyph-name="Tbar" unicode="&#x166;" horiz-adv-x="1332" 
d="M1233 1006q-31 0 -33 10q-50 198 -213 198t-171 -36q-16 -56 -16 -178v-286h212q12 0 12 -33t-12 -59h-212v-344q0 -100 16 -162q4 -14 55 -32t69 -18q8 0 8 -31t-4 -43l-278 16q-66 0 -290 -16q-8 8 -8 41t6 33q22 0 74 17t58 33q14 54 14 154v352h-200q-10 0 -10 37
t12 55h198v280q0 174 -23 197t-157 23q-82 0 -134 -45t-80 -151q-2 -10 -33 -10t-45 14l38 326q88 -22 138 -22l438 -12l440 12q50 0 138 22l38 -328q-14 -14 -45 -14z" />
    <glyph glyph-name="tbar" unicode="&#x167;" horiz-adv-x="768" 
d="M454 1054v-196h216q16 0 16 -20q0 -58 -20 -98h-212v-112h194q12 0 12 -32t-12 -60h-194v-270q0 -152 108 -152q56 0 82 15t31 15t14 -20t9 -30q0 -24 -82 -66t-154 -42q-110 0 -189 69t-79 223v258h-134q-10 0 -10 37t12 55h132v112h-130q-16 0 -16 39t4 45
q112 56 161 93t89 72t69 60t31 27q16 0 34 -7t18 -15z" />
    <glyph glyph-name="Utilde" unicode="&#x168;" horiz-adv-x="1506" 
d="M450 1474q-14 0 -14 37t32 91q64 92 134 92t166 -61t158 -61q32 0 72 51t50 51t10 -39t-30 -91q-58 -88 -130 -88t-168 60t-160 60q-28 0 -70 -51t-50 -51zM1186 1308q68 0 260 16q8 -16 8 -45t-10 -29q-110 0 -166 -66q-28 -34 -28 -146v-456q0 -292 -143 -442
t-379 -150t-384 152t-148 480v422q0 128 -13 150t-59 39t-68 17q-8 0 -8 35t4 39q276 -12 303 -12t267 12q6 -18 6 -46t-8 -28q-18 0 -72 -17t-58 -31q-14 -54 -14 -170v-474q0 -184 83 -296t228 -112t240 97t95 325v476q0 114 -22 140t-79 44t-81 18q-8 0 -10 33t4 41
q184 -16 252 -16z" />
    <glyph glyph-name="utilde" unicode="&#x169;" horiz-adv-x="1198" 
d="M304 1038q-14 0 -14 37t32 91q64 92 134 92t166 -61t158 -61q32 0 72 51t50 51t10 -39t-30 -91q-58 -88 -130 -88t-168 60t-160 60q-28 0 -70 -51t-50 -51zM1024 654v-392q0 -104 20 -125t76 -21h20q8 -4 8 -39t-12 -35q-85 -6 -196 -24q-112 -18 -140 -22l-28 -6
q-12 0 -12 36v74q0 8 -2 10t-6 -2q-42 -44 -123 -80t-187 -36t-177 104t-71 252v194q0 112 -36 150q-23 27 -67 35q-43 9 -43 11q0 70 10 70q38 0 185 29t174 39t33 10t16 -13t10 -21q-22 -176 -22 -200v-214q0 -156 40 -219t121 -63t115 31t34 69v286q0 112 -36 150
q-23 27 -67 35q-43 9 -43 11q0 70 10 70q38 0 174 27t192 45l22 6q10 0 20 -13t10 -21q-22 -176 -22 -198z" />
    <glyph glyph-name="Umacron" unicode="&#x16a;" horiz-adv-x="1506" 
d="M1044 1594q12 0 12 -20q-4 -86 -28 -118h-576l-10 4q-2 6 -2 18q5 116 30 116h574zM1186 1308q68 0 260 16q8 -16 8 -45t-10 -29q-110 0 -166 -66q-28 -34 -28 -146v-456q0 -292 -143 -442t-379 -150t-384 152t-148 480v422q0 128 -13 150t-59 39t-68 17q-8 0 -8 35t4 39
q276 -12 303 -12t267 12q6 -18 6 -46t-8 -28q-18 0 -72 -17t-58 -31q-14 -54 -14 -170v-474q0 -184 83 -296t228 -112t240 97t95 325v476q0 114 -22 140t-79 44t-81 18q-8 0 -10 33t4 41q184 -16 252 -16z" />
    <glyph glyph-name="umacron" unicode="&#x16b;" horiz-adv-x="1198" 
d="M854 1158q12 0 12 -20q-2 -77 -28 -118h-498l-10 4q-2 6 -2 18q5 116 30 116h496zM1024 654v-392q0 -104 20 -125t76 -21h20q8 -4 8 -39t-12 -35q-85 -6 -196 -24q-112 -18 -140 -22l-28 -6q-12 0 -12 36v74q0 8 -2 10t-6 -2q-42 -44 -123 -80t-187 -36t-177 104t-71 252
v194q0 112 -36 150q-23 27 -67 35q-43 9 -43 11q0 70 10 70q38 0 185 29t174 39t33 10t16 -13t10 -21q-22 -176 -22 -200v-214q0 -156 40 -219t121 -63t115 31t34 69v286q0 112 -36 150q-23 27 -67 35q-43 9 -43 11q0 70 10 70q38 0 174 27t192 45l22 6q10 0 20 -13t10 -21
q-22 -176 -22 -198z" />
    <glyph glyph-name="Ubreve" unicode="&#x16c;" horiz-adv-x="1506" 
d="M746 1576q42 0 91 29t64 49t22 17t26 -25t17 -28t-2 -11t-2 -7q-86 -144 -216 -144t-216 144q-2 2 -2 7t-2 11t22 34t32 16q26 -34 75 -63t91 -29zM1186 1308q68 0 260 16q8 -16 8 -45t-10 -29q-110 0 -166 -66q-28 -34 -28 -146v-456q0 -292 -143 -442t-379 -150
t-384 152t-148 480v422q0 128 -13 150t-59 39t-68 17q-8 0 -8 35t4 39q276 -12 303 -12t267 12q6 -18 6 -46t-8 -28q-18 0 -72 -17t-58 -31q-14 -54 -14 -170v-474q0 -184 83 -296t228 -112t240 97t95 325v476q0 114 -22 140t-79 44t-81 18q-8 0 -10 33t4 41
q184 -16 252 -16z" />
    <glyph glyph-name="ubreve" unicode="&#x16d;" horiz-adv-x="1198" 
d="M591 1140q49 0 92 31t59 85q4 6 11 6t32 -17t25 -27t-2 -14q-24 -82 -81 -133t-136 -51t-144 52t-87 132q-2 4 -2 14t25 27t32 17t11 -6q16 -54 66 -85t99 -31zM1024 654v-392q0 -104 20 -125t76 -21h20q8 -4 8 -39t-12 -35q-85 -6 -196 -24q-112 -18 -140 -22l-28 -6
q-12 0 -12 36v74q0 8 -2 10t-6 -2q-42 -44 -123 -80t-187 -36t-177 104t-71 252v194q0 112 -36 150q-23 27 -67 35q-43 9 -43 11q0 70 10 70q38 0 185 29t174 39t33 10t16 -13t10 -21q-22 -176 -22 -200v-214q0 -156 40 -219t121 -63t115 31t34 69v286q0 112 -36 150
q-23 27 -67 35q-43 9 -43 11q0 70 10 70q38 0 174 27t192 45l22 6q10 0 20 -13t10 -21q-22 -176 -22 -198z" />
    <glyph glyph-name="Uring" unicode="&#x16e;" horiz-adv-x="1506" 
d="M550 1653q0 81 58 139t140 58t139 -57t57 -139t-58 -140t-139 -58t-139 58t-58 139zM642 1654q0 -46 31 -77t75 -31t75 31t31 77t-31 77t-75 31t-75 -31t-31 -77zM1186 1308q68 0 260 16q8 -16 8 -45t-10 -29q-110 0 -166 -66q-28 -34 -28 -146v-456q0 -292 -143 -442
t-379 -150t-384 152t-148 480v422q0 128 -13 150t-59 39t-68 17q-8 0 -8 35t4 39q276 -12 303 -12t267 12q6 -18 6 -46t-8 -28q-18 0 -72 -17t-58 -31q-14 -54 -14 -170v-474q0 -184 83 -296t228 -112t240 97t95 325v476q0 114 -22 140t-79 44t-81 18q-8 0 -10 33t4 41
q184 -16 252 -16z" />
    <glyph glyph-name="uring" unicode="&#x16f;" horiz-adv-x="1198" 
d="M412 1218q0 80 58 138t140 58t139 -58t57 -139t-58 -139t-139 -58t-139 59t-58 139zM504 1218q0 -46 31 -77t75 -31t75 31t31 77t-31 77t-75 31t-75 -31t-31 -77zM1024 654v-392q0 -104 20 -125t76 -21h20q8 -4 8 -39t-12 -35q-85 -6 -196 -24q-112 -18 -140 -22l-28 -6
q-12 0 -12 36v74q0 8 -2 10t-6 -2q-42 -44 -123 -80t-187 -36t-177 104t-71 252v194q0 112 -36 150q-23 27 -67 35q-43 9 -43 11q0 70 10 70q38 0 185 29t174 39t33 10t16 -13t10 -21q-22 -176 -22 -200v-214q0 -156 40 -219t121 -63t115 31t34 69v286q0 112 -36 150
q-23 27 -67 35q-43 9 -43 11q0 70 10 70q38 0 174 27t192 45l22 6q10 0 20 -13t10 -21q-22 -176 -22 -198z" />
    <glyph glyph-name="Uhungarumlaut" unicode="&#x170;" horiz-adv-x="1506" 
d="M520 1497q0 11 87 97t153 136q16 8 44 8t66 -19t38 -57q0 -48 -162 -127t-198 -79q-10 0 -19 15t-9 26zM856 1497q0 11 87 97t153 136q16 8 44 8t66 -19t38 -57q0 -48 -162 -127t-198 -79q-10 0 -19 15t-9 26zM1186 1308q68 0 260 16q8 -16 8 -45t-10 -29
q-110 0 -166 -66q-28 -34 -28 -146v-456q0 -292 -143 -442t-379 -150t-384 152t-148 480v422q0 128 -13 150t-59 39t-68 17q-8 0 -8 35t4 39q276 -12 303 -12t267 12q6 -18 6 -46t-8 -28q-18 0 -72 -17t-58 -31q-14 -54 -14 -170v-474q0 -184 83 -296t228 -112t240 97
t95 325v476q0 114 -22 140t-79 44t-81 18q-8 0 -10 33t4 41q184 -16 252 -16z" />
    <glyph glyph-name="uhungarumlaut" unicode="&#x171;" horiz-adv-x="1198" 
d="M650 1350q48 0 71 -20t23 -38q0 -50 -143 -161t-169 -111q-10 0 -22 13t-12 21t56 99t130 179q18 18 66 18zM928 1350q48 0 71 -20t23 -38q0 -50 -143 -161t-169 -111q-10 0 -22 13t-12 21t56 99t130 179q18 18 66 18zM1024 654v-392q0 -104 20 -125t76 -21h20
q8 -4 8 -39t-12 -35q-85 -6 -196 -24q-112 -18 -140 -22l-28 -6q-12 0 -12 36v74q0 8 -2 10t-6 -2q-42 -44 -123 -80t-187 -36t-177 104t-71 252v194q0 112 -36 150q-23 27 -67 35q-43 9 -43 11q0 70 10 70q38 0 185 29t174 39t33 10t16 -13t10 -21q-22 -176 -22 -200v-214
q0 -156 40 -219t121 -63t115 31t34 69v286q0 112 -36 150q-23 27 -67 35q-43 9 -43 11q0 70 10 70q38 0 174 27t192 45l22 6q10 0 20 -13t10 -21q-22 -176 -22 -198z" />
    <glyph glyph-name="Uogonek" unicode="&#x172;" horiz-adv-x="1436" 
d="M1142 1308q68 0 260 16q8 -16 8 -45t-10 -29q-110 0 -166 -66q-28 -34 -28 -146v-456q0 -346 -208 -500q-74 -56 -131 -147t-57 -155q0 -30 24 -47t60 -17t85 23t73 43q10 0 10 -32t-12 -48q-34 -44 -103 -91t-135 -47t-118 42t-52 111t52 152t122 133q-60 -12 -124 -12
q-244 0 -392 152t-148 480v422q0 128 -13 150t-59 39t-68 17q-8 0 -8 35t4 39q276 -12 303 -12t267 12q6 -18 6 -46t-8 -28q-18 0 -72 -17t-58 -31q-14 -54 -14 -170v-474q0 -184 83 -296t228 -112t240 97t95 325v476q0 114 -22 140t-79 44t-81 18q-8 0 -10 33t4 41
q184 -16 252 -16z" />
    <glyph glyph-name="uogonek" unicode="&#x173;" horiz-adv-x="1136" 
d="M424 652v-220q0 -162 33 -228t123 -66q60 0 107 39t47 65v300q0 112 -36 150q-23 27 -67 35q-43 9 -43 11q0 70 10 70q38 0 185 29t174 39t33 10t16 -13t10 -21q-22 -176 -22 -198v-398q0 -104 20 -125t74 -21h22q8 -4 8 -39t-12 -35q-147 -6 -236 -115q-60 -73 -60 -141
q0 -30 24 -47t60 -17t85 23t73 43q10 0 10 -32t-12 -48q-34 -44 -103 -91t-135 -47t-118 42t-52 111t52 152t122 133q-18 -4 -42 -9t-32 -9q-12 0 -12 36v74q0 8 -2 10t-23 -19t-93 -60t-144 -39q-122 0 -213 88t-91 206v262q0 112 -36 150q-23 27 -67 35q-43 9 -43 11
q0 70 10 70q38 0 174 27t192 45l22 6q10 0 20 -13t10 -21q-22 -176 -22 -200z" />
    <glyph glyph-name="Wcircumflex" unicode="&#x174;" horiz-adv-x="2188" 
d="M1340 1456q-18 0 -104 45t-138 79q-52 -34 -138 -79t-104 -45t-18 38q133 99 232 226q16 18 27 18t22 -11t37 -41q100 -116 202 -192q0 -38 -18 -38zM304 1312q20 0 260 12q4 -12 5 -42t-5 -32q-92 0 -92 -68l24 -62l368 -730q10 -22 30 10l124 220l-220 434
q-62 122 -86 146q-50 50 -116 50q-8 0 -8 35t4 39q276 -12 289 -12t253 12q4 -12 5 -42t-5 -32q-32 0 -62 -15t-30 -49l24 -62l116 -230l96 190q40 82 40 106t-44 43t-104 19q-8 0 -9 32t7 40q192 -12 220 -12t268 12q4 -12 5 -41t-5 -31q-30 0 -78 -19t-68 -41
q-54 -58 -112 -172l-140 -276l174 -342q10 -20 26 8l342 678q36 72 36 100q0 34 -53 49t-89 15q-8 0 -9 32t7 40q192 -12 220 -12t268 12q6 -16 6 -44t-6 -28q-30 0 -76 -18t-66 -38q-56 -60 -116 -176l-494 -982q-32 -64 -68 -64q-16 0 -22 10l-246 482l-240 -428
q-36 -64 -68 -64q-12 0 -18 10l-542 1070q-54 106 -92 154q-16 20 -55 31t-65 11q-8 0 -8 35t4 39q276 -12 296 -12z" />
    <glyph glyph-name="wcircumflex" unicode="&#x175;" horiz-adv-x="1760" 
d="M1103 1020q-17 0 -95 54t-124 94q-46 -40 -124 -94t-95 -54t-17 46q48 48 111 129t87 121t35 40t22 -14t34 -49q84 -128 183 -227q0 -46 -17 -46zM784 711q0 101 -144 101q-8 0 -9 33t7 41l117 -9q91 -7 139 -7l270 16q4 -10 1 -43t-9 -33q-34 0 -71 -14t-37 -45
t156 -399q36 78 105 219t69 155q0 44 -52 64t-104 20h-8q-8 0 -10 34t6 42q252 -18 279 -18l211 18q6 -18 6 -46t-8 -28q-22 0 -88 -31t-82 -67l-330 -694q-6 -14 -29 -28t-44 -14t-31 22l-238 516l-228 -494q-6 -14 -26 -29t-45 -15t-37 22l-338 744q-14 28 -58 47t-68 19
q-8 0 -8 35t6 41q192 -16 262 -16l278 16q4 -12 5 -41t-5 -31q-24 0 -74 -19t-50 -45t162 -396q55 120 83 177q69 137 69 180z" />
    <glyph glyph-name="Ycircumflex" unicode="&#x176;" horiz-adv-x="1338" 
d="M958 1456q-18 0 -104 45t-138 79q-52 -34 -138 -79t-104 -45t-18 38q133 99 232 226q16 18 27 18t22 -11t37 -41q100 -116 202 -192q0 -38 -18 -38zM337 1312q63 0 303 12q4 -8 3 -41t-7 -33q-30 0 -67 -11t-39 -31q0 -16 16 -44l200 -354q10 -10 20 4q58 84 138 222
t80 170q0 44 -128 44q-8 0 -9 33t7 41q180 -12 237 -12t231 12q6 -18 6 -45t-8 -27q-36 0 -82 -18t-74 -54q-52 -70 -201 -308t-149 -264v-318q0 -112 16 -174q4 -14 55 -32t69 -18q8 0 8 -31t-4 -43l-278 16q-66 0 -290 -16q-8 8 -8 41t6 33q22 0 74 17t58 33q14 54 14 162
v340q0 23 -188 350l-62 106q-66 122 -112 149t-102 27q-8 0 -8 33t8 41q204 -12 267 -12z" />
    <glyph glyph-name="ycircumflex" unicode="&#x177;" horiz-adv-x="1088" 
d="M781 1020q-17 0 -95 54t-124 94q-46 -40 -124 -94t-95 -54t-17 46q48 48 111 129t87 121t35 40t22 -14t34 -49q84 -128 183 -227q0 -46 -17 -46zM564 840q0 -28 -8 -28q-26 0 -75 -16t-49 -36l2 -18q4 -32 156 -390q136 294 148 323t12 51t-11 38t-45 32t-86 16
q-8 0 -8 31t4 43q192 -16 262 -16l214 16q8 -16 8 -45t-8 -29q-30 0 -89 -20t-79 -60l-372 -806q-166 -362 -388 -362q-60 0 -97 32t-37 84t46 84q254 0 330 156q46 98 62 132l-298 660l-10 24q-20 42 -61 59t-71 17q-8 0 -8 35t4 39l284 -16q86 0 262 16q6 -18 6 -46z" />
    <glyph glyph-name="Ydieresis" unicode="&#x178;" horiz-adv-x="1338" 
d="M338 1604q0 62 43 105t105 43t105 -43t43 -105t-43 -105t-105 -43t-105 43t-43 105zM798 1604q0 62 43 105t105 43t105 -43t43 -105t-43 -105t-105 -43t-105 43t-43 105zM337 1312q63 0 303 12q4 -8 3 -41t-7 -33q-30 0 -67 -11t-39 -31q0 -16 16 -44l200 -354
q10 -10 20 4q58 84 138 222t80 170q0 44 -128 44q-8 0 -9 33t7 41q180 -12 237 -12t231 12q6 -18 6 -45t-8 -27q-36 0 -82 -18t-74 -54q-52 -70 -201 -308t-149 -264v-318q0 -112 16 -174q4 -14 55 -32t69 -18q8 0 8 -31t-4 -43l-278 16q-66 0 -290 -16q-8 8 -8 41t6 33
q22 0 74 17t58 33q14 54 14 162v340q0 23 -188 350l-62 106q-66 122 -112 149t-102 27q-8 0 -8 33t8 41q204 -12 267 -12z" />
    <glyph glyph-name="Zacute" unicode="&#x179;" horiz-adv-x="1270" 
d="M518 1497q0 11 87 97t153 136q16 8 44 8t66 -19t38 -57q0 -48 -162 -127t-198 -79q-10 0 -19 15t-9 26zM60 47q0 29 8 39l736 1112h-342q-143 0 -196 -64q-30 -36 -41 -59t-25 -61t-18 -48t-44 -10t-48 8q48 254 60 360q48 -12 324 -12h218q184 0 464 20q6 -2 13 -26
t7 -40l-730 -1102q-14 -20 -14 -30q0 -20 28 -20h318q140 0 229 67t123 167q6 12 40 12t48 -12q-100 -283 -108 -348h-1034q-16 18 -16 47z" />
    <glyph glyph-name="zacute" unicode="&#x17a;" horiz-adv-x="860" 
d="M566 1350q48 0 71 -20t23 -38q0 -50 -143 -161t-169 -111q-10 0 -22 13t-12 21t56 99t130 179q18 18 66 18zM368 119q0 -11 24 -11h124q158 0 216 152q6 18 37 18t39 -8l-34 -270h-684q-40 24 -40 46q0 6 2 8l408 684l-122 2q-74 2 -125 -46t-71 -94q-6 -12 -40 -12
t-34 4q0 10 14 109t18 159q118 -12 190 -12h244q126 0 258 16q6 -10 6 -48l-416 -666q-14 -20 -14 -31z" />
    <glyph glyph-name="Zdotaccent" unicode="&#x17b;" horiz-adv-x="1270" 
d="M516 1604q0 62 43 105t105 43t105 -43t43 -105t-43 -105t-105 -43t-105 43t-43 105zM60 47q0 29 8 39l736 1112h-342q-143 0 -196 -64q-30 -36 -41 -59t-25 -61t-18 -48t-44 -10t-48 8q48 254 60 360q48 -12 324 -12h218q184 0 464 20q6 -2 13 -26t7 -40l-730 -1102
q-14 -20 -14 -30q0 -20 28 -20h318q140 0 229 67t123 167q6 12 40 12t48 -12q-100 -283 -108 -348h-1034q-16 18 -16 47z" />
    <glyph glyph-name="zdotaccent" unicode="&#x17c;" horiz-adv-x="860" 
d="M288 1232q0 62 43 105t105 43t105 -43t43 -105t-43 -105t-105 -43t-105 43t-43 105zM368 119q0 -11 24 -11h124q158 0 216 152q6 18 37 18t39 -8l-34 -270h-684q-40 24 -40 46q0 6 2 8l408 684l-122 2q-74 2 -125 -46t-71 -94q-6 -12 -40 -12t-34 4q0 10 14 109t18 159
q118 -12 190 -12h244q126 0 258 16q6 -10 6 -48l-416 -666q-14 -20 -14 -31z" />
    <glyph glyph-name="Zcaron" unicode="&#x17d;" horiz-adv-x="1270" 
d="M914 1738q18 0 18 -38q-76 -57 -232 -226q-18 -18 -29 -18t-37 31t-100 104t-122 109q0 38 18 38t104 -45t138 -79q52 34 138 79t104 45zM60 47q0 29 8 39l736 1112h-342q-143 0 -196 -64q-30 -36 -41 -59t-25 -61t-18 -48t-44 -10t-48 8q48 254 60 360q48 -12 324 -12
h218q184 0 464 20q6 -2 13 -26t7 -40l-730 -1102q-14 -20 -14 -30q0 -20 28 -20h318q140 0 229 67t123 167q6 12 40 12t48 -12q-100 -283 -108 -348h-1034q-16 18 -16 47z" />
    <glyph glyph-name="zcaron" unicode="&#x17e;" horiz-adv-x="860" 
d="M669 1356q17 0 17 -46q-99 -99 -162 -194q-63 -96 -75 -96q-13 0 -25 20q-36 60 -99 141t-111 129q0 46 17 46t95 -54t124 -94q46 40 124 94t95 54zM368 119q0 -11 24 -11h124q158 0 216 152q6 18 37 18t39 -8l-34 -270h-684q-40 24 -40 46q0 6 2 8l408 684l-122 2
q-74 2 -125 -46t-71 -94q-6 -12 -40 -12t-34 4q0 10 14 109t18 159q118 -12 190 -12h244q126 0 258 16q6 -10 6 -48l-416 -666q-14 -20 -14 -31z" />
    <glyph glyph-name="Ohorn" unicode="&#x1a0;" horiz-adv-x="1434" 
d="M692 1334q122 0 283 -64t227 -64t66 38q0 12 -22 45t-22 59q0 92 188 92q14 -14 26 -55t12 -81q0 -80 -78 -136t-164 -56q-32 0 -50 10q178 -198 178 -472t-190 -472t-454 -198t-453 198t-189 479t185 479t457 198zM661 1222q-105 0 -175 -77q-124 -136 -124 -445
q0 -207 77 -395q39 -95 113 -154t172 -59q150 0 225 152t75 375t-72 400q-38 93 -112 148t-179 55z" />
    <glyph glyph-name="ohorn" unicode="&#x1a1;" horiz-adv-x="1046" 
d="M494 784q-58 0 -96 -46q-62 -75 -62 -236q0 -406 206 -406q84 0 123 82t39 192q0 414 -210 414zM522 894q108 0 212 -48t180 -48t76 38q0 12 -22 45t-22 59q0 92 188 92q14 -14 26 -55t12 -81q0 -80 -78 -136t-164 -56q-12 0 -26 2q88 -118 88 -266q0 -190 -136 -322
t-333 -132t-334 132t-137 322t137 322t333 132z" />
    <glyph glyph-name="Uhorn" unicode="&#x1af;" horiz-adv-x="1420" 
d="M1472 1382q0 14 -22 47t-22 59q0 92 188 92q14 -14 26 -55t12 -87t-51 -91q-81 -72 -219 -105q-74 -18 -104 -55t-30 -149v-456q0 -292 -143 -442t-379 -150t-384 152t-148 480v422q0 128 -13 150t-59 39t-68 17q-8 0 -8 35t4 39q276 -12 303 -12t267 12q6 -18 6 -46
t-8 -28q-18 0 -72 -17t-58 -31q-14 -54 -14 -170v-474q0 -184 83 -296t228 -112t240 97t95 325v476q0 114 -22 140t-79 44t-81 18q-8 0 -10 33t4 41q184 -16 275 -16t157 15t86 30t20 29z" />
    <glyph glyph-name="uhorn" unicode="&#x1b0;" horiz-adv-x="1198" 
d="M1154 928q0 12 -22 45t-22 59q0 92 188 92q14 -14 26 -55t12 -89t-39 -93t-79 -64t-96 -39l-56 -20q-26 -12 -34 -35t-8 -75v-392q0 -104 20 -125t76 -21h20q8 -4 8 -39t-12 -35q-85 -6 -196 -24q-112 -18 -140 -22l-28 -6q-12 0 -12 36v74q0 8 -2 10t-6 -2
q-42 -44 -123 -80t-187 -36t-177 104t-71 252v194q0 112 -36 150q-23 27 -67 35q-43 9 -43 11q0 70 10 70q38 0 185 29t174 39t33 10t16 -13t10 -21q-22 -176 -22 -200v-214q0 -156 40 -219t121 -63t115 31t34 69v286q0 112 -36 150q-23 27 -67 35q-43 9 -43 11q0 70 10 70
q70 0 404 66q122 24 122 54z" />
    <glyph glyph-name="uni01CD" unicode="&#x1cd;" horiz-adv-x="1440" 
d="M992 1738q18 0 18 -38q-76 -57 -232 -226q-18 -18 -29 -18t-37 31t-100 104t-122 109q0 38 18 38t104 -45t138 -79q52 34 138 79t104 45zM662 546q84 0 146 4l6 10l-144 358l-156 -358q0 -8 4 -8q60 -6 144 -6zM246 8l-216 -16q-8 8 -8 40t4 32q24 0 80 21t75 50t55 109
l452 1040q22 52 74 52q30 0 48 -26l410 -1014q38 -92 66 -164q12 -32 66 -49t82 -17q8 0 8 -34t-4 -40l-290 16q-14 0 -302 -16q-8 8 -8 41t8 33q44 0 90 19t46 51q0 4 -50 134l-60 146q-8 8 -30 9t-165 1t-213 -2q-8 0 -14 -10l-66 -152q-40 -90 -40 -122t42 -53t104 -21
q6 -2 6 -32t-4 -42q-208 16 -246 16z" />
    <glyph glyph-name="uni01CE" unicode="&#x1ce;" horiz-adv-x="972" 
d="M695 1356q17 0 17 -46q-99 -99 -162 -194q-63 -96 -75 -96q-13 0 -25 20q-36 60 -99 141t-111 129q0 46 17 46t95 -54t124 -94q46 40 124 94t95 54zM493 898q149 0 224 -77t75 -279v-324q0 -68 48 -68q34 0 68 26q14 -8 14 -44t-14 -60q-28 -26 -91 -55t-115 -29t-96 29
t-58 67q-2 0 -16 -11q-111 -87 -252 -87q-94 0 -159 61t-65 153q0 150 172 227q81 36 171 61q91 24 112 31t21 31v72q0 164 -100 164q-116 0 -116 -134q0 -44 -36 -65t-80 -21q-92 0 -126 60q0 102 135 187t284 85zM426 130q48 0 77 25t29 61v202q-4 -2 -39 -13t-45 -15
t-38 -15q-94 -37 -94 -124q0 -57 31 -89t79 -32z" />
    <glyph glyph-name="uni01CF" unicode="&#x1cf;" horiz-adv-x="692" 
d="M586 1738q18 0 18 -38q-76 -57 -232 -226q-18 -18 -29 -18t-37 31t-100 104t-122 109q0 38 18 38t104 -45t138 -79q52 34 138 79t104 45zM52 33q0 33 6 33q22 0 74 17t58 33q14 54 14 160v768q0 128 -13 150t-59 39t-68 17q-8 0 -8 35t4 39q30 -2 115 -8t150 -5t305 13
q6 -18 6 -46t-8 -28q-18 0 -72 -17t-58 -31q-14 -56 -14 -140v-770q0 -114 16 -176q4 -14 55 -32t69 -18q8 0 8 -31t-4 -43l-278 16q-66 0 -290 -16q-8 8 -8 41z" />
    <glyph glyph-name="uni01D0" unicode="&#x1d0;" horiz-adv-x="654" 
d="M545 1356q17 0 17 -46q-99 -99 -162 -194q-63 -96 -75 -96q-13 0 -25 20q-36 60 -99 141t-111 129q0 46 17 46t95 -54t124 -94q46 40 124 94t95 54zM456 652v-360q0 -118 16 -182q4 -14 50 -32t62 -18q6 0 7 -30t-3 -38q-192 16 -254 16t-270 -16q-8 8 -8 38t8 30
q22 0 68 17t50 33q14 60 14 152v292q0 112 -36 150q-23 27 -67 35q-43 9 -43 11q0 58 10 58q38 0 174 27t192 45l22 6q10 0 20 -13t10 -21q-22 -176 -22 -200z" />
    <glyph glyph-name="uni01D1" unicode="&#x1d1;" horiz-adv-x="1390" 
d="M934 1738q18 0 18 -38q-76 -57 -232 -226q-18 -18 -29 -18t-37 31t-100 104t-122 109q0 38 18 38t104 -45t138 -79q52 34 138 79t104 45zM50 656q0 280 189 479t453 199t454 -199t190 -479t-190 -478t-454 -198t-453 198t-189 478zM661 1222q-105 0 -175 -77
q-124 -136 -124 -445q0 -207 77 -395q39 -95 113 -154t172 -59q150 0 225 152t75 375t-72 400q-38 93 -112 148t-179 55z" />
    <glyph glyph-name="uni01D2" unicode="&#x1d2;" horiz-adv-x="1046" 
d="M741 1356q17 0 17 -46q-99 -99 -162 -194q-63 -96 -75 -96q-13 0 -25 20q-36 60 -99 141t-111 129q0 46 17 46t95 -54t124 -94q46 40 124 94t95 54zM522 894q196 0 333 -132t137 -322t-136 -322t-333 -132t-334 132t-137 322t137 322t333 132zM494 784q-58 0 -96 -46
q-62 -75 -62 -236q0 -406 206 -406q84 0 123 82t39 192q0 414 -210 414z" />
    <glyph glyph-name="uni01D3" unicode="&#x1d3;" horiz-adv-x="1506" 
d="M990 1738q18 0 18 -38q-76 -57 -232 -226q-18 -18 -29 -18t-37 31t-100 104t-122 109q0 38 18 38t104 -45t138 -79q52 34 138 79t104 45zM1186 1308q68 0 260 16q8 -16 8 -45t-10 -29q-110 0 -166 -66q-28 -34 -28 -146v-456q0 -292 -143 -442t-379 -150t-384 152
t-148 480v422q0 128 -13 150t-59 39t-68 17q-8 0 -8 35t4 39q276 -12 303 -12t267 12q6 -18 6 -46t-8 -28q-18 0 -72 -17t-58 -31q-14 -54 -14 -170v-474q0 -184 83 -296t228 -112t240 97t95 325v476q0 114 -22 140t-79 44t-81 18q-8 0 -10 33t4 41q184 -16 252 -16z" />
    <glyph glyph-name="uni01D4" unicode="&#x1d4;" horiz-adv-x="1198" 
d="M951 1356q17 0 17 -46q-99 -99 -162 -194q-63 -96 -75 -96q-13 0 -25 20q-36 60 -99 141t-111 129q0 46 17 46t95 -54t124 -94q46 40 124 94t95 54zM1024 654v-392q0 -104 20 -125t76 -21h20q8 -4 8 -39t-12 -35q-85 -6 -196 -24q-112 -18 -140 -22l-28 -6q-12 0 -12 36
v74q0 8 -2 10t-6 -2q-42 -44 -123 -80t-187 -36t-177 104t-71 252v194q0 112 -36 150q-23 27 -67 35q-43 9 -43 11q0 70 10 70q38 0 185 29t174 39t33 10t16 -13t10 -21q-22 -176 -22 -200v-214q0 -156 40 -219t121 -63t115 31t34 69v286q0 112 -36 150q-23 27 -67 35
q-43 9 -43 11q0 70 10 70q38 0 174 27t192 45l22 6q10 0 20 -13t10 -21q-22 -176 -22 -198z" />
    <glyph glyph-name="uni01D5" unicode="&#x1d5;" horiz-adv-x="1506" 
d="M1044 2012q12 0 12 -20q-4 -86 -28 -118h-576l-10 4q-2 6 -2 18q5 116 30 116h574zM368 1604q0 62 43 105t105 43t105 -43t43 -105t-43 -105t-105 -43t-105 43t-43 105zM828 1604q0 62 43 105t105 43t105 -43t43 -105t-43 -105t-105 -43t-105 43t-43 105zM1186 1308
q68 0 260 16q8 -16 8 -45t-10 -29q-110 0 -166 -66q-28 -34 -28 -146v-456q0 -292 -143 -442t-379 -150t-384 152t-148 480v422q0 128 -13 150t-59 39t-68 17q-8 0 -8 35t4 39q276 -12 303 -12t267 12q6 -18 6 -46t-8 -28q-18 0 -72 -17t-58 -31q-14 -54 -14 -170v-474
q0 -184 83 -296t228 -112t240 97t95 325v476q0 114 -22 140t-79 44t-81 18q-8 0 -10 33t4 41q184 -16 252 -16z" />
    <glyph glyph-name="uni01D6" unicode="&#x1d6;" horiz-adv-x="1198" 
d="M848 1566q12 0 12 -20q-2 -77 -28 -118h-498l-10 4q-2 6 -2 18q5 116 30 116h496zM226 1164q0 60 41 101t101 41t102 -41t42 -101t-42 -102t-102 -42t-101 42t-41 102zM670 1164q0 60 42 101t102 41t102 -41t42 -101t-42 -102t-102 -42t-102 42t-42 102zM1024 654v-392
q0 -104 20 -125t76 -21h20q8 -4 8 -39t-12 -35q-85 -6 -196 -24q-112 -18 -140 -22l-28 -6q-12 0 -12 36v74q0 8 -2 10t-6 -2q-42 -44 -123 -80t-187 -36t-177 104t-71 252v194q0 112 -36 150q-23 27 -67 35q-43 9 -43 11q0 70 10 70q38 0 185 29t174 39t33 10t16 -13
t10 -21q-22 -176 -22 -200v-214q0 -156 40 -219t121 -63t115 31t34 69v286q0 112 -36 150q-23 27 -67 35q-43 9 -43 11q0 70 10 70q38 0 174 27t192 45l22 6q10 0 20 -13t10 -21q-22 -176 -22 -198z" />
    <glyph glyph-name="uni01D7" unicode="&#x1d7;" horiz-adv-x="1506" 
d="M720 1915q0 11 87 97t153 136q16 8 44 8t66 -19t38 -57q0 -48 -162 -127t-198 -79q-10 0 -19 15t-9 26zM368 1604q0 62 43 105t105 43t105 -43t43 -105t-43 -105t-105 -43t-105 43t-43 105zM828 1604q0 62 43 105t105 43t105 -43t43 -105t-43 -105t-105 -43t-105 43
t-43 105zM1186 1308q68 0 260 16q8 -16 8 -45t-10 -29q-110 0 -166 -66q-28 -34 -28 -146v-456q0 -292 -143 -442t-379 -150t-384 152t-148 480v422q0 128 -13 150t-59 39t-68 17q-8 0 -8 35t4 39q276 -12 303 -12t267 12q6 -18 6 -46t-8 -28q-18 0 -72 -17t-58 -31
q-14 -54 -14 -170v-474q0 -184 83 -296t228 -112t240 97t95 325v476q0 114 -22 140t-79 44t-81 18q-8 0 -10 33t4 41q184 -16 252 -16z" />
    <glyph glyph-name="uni01D8" unicode="&#x1d8;" horiz-adv-x="1198" 
d="M810 1758q48 0 71 -20t23 -38q0 -50 -143 -161t-169 -111q-10 0 -22 13t-12 21t56 99t130 179q18 18 66 18zM226 1164q0 60 41 101t101 41t102 -41t42 -101t-42 -102t-102 -42t-101 42t-41 102zM670 1164q0 60 42 101t102 41t102 -41t42 -101t-42 -102t-102 -42t-102 42
t-42 102zM1024 654v-392q0 -104 20 -125t76 -21h20q8 -4 8 -39t-12 -35q-85 -6 -196 -24q-112 -18 -140 -22l-28 -6q-12 0 -12 36v74q0 8 -2 10t-6 -2q-42 -44 -123 -80t-187 -36t-177 104t-71 252v194q0 112 -36 150q-23 27 -67 35q-43 9 -43 11q0 70 10 70q38 0 185 29
t174 39t33 10t16 -13t10 -21q-22 -176 -22 -200v-214q0 -156 40 -219t121 -63t115 31t34 69v286q0 112 -36 150q-23 27 -67 35q-43 9 -43 11q0 70 10 70q38 0 174 27t192 45l22 6q10 0 20 -13t10 -21q-22 -176 -22 -198z" />
    <glyph glyph-name="uni01D9" unicode="&#x1d9;" horiz-adv-x="1506" 
d="M990 2156q18 0 18 -38q-76 -57 -232 -226q-18 -18 -29 -18t-37 31t-100 104t-122 109q0 38 18 38t104 -45t138 -79q52 34 138 79t104 45zM368 1604q0 62 43 105t105 43t105 -43t43 -105t-43 -105t-105 -43t-105 43t-43 105zM828 1604q0 62 43 105t105 43t105 -43t43 -105
t-43 -105t-105 -43t-105 43t-43 105zM1186 1308q68 0 260 16q8 -16 8 -45t-10 -29q-110 0 -166 -66q-28 -34 -28 -146v-456q0 -292 -143 -442t-379 -150t-384 152t-148 480v422q0 128 -13 150t-59 39t-68 17q-8 0 -8 35t4 39q276 -12 303 -12t267 12q6 -18 6 -46t-8 -28
q-18 0 -72 -17t-58 -31q-14 -54 -14 -170v-474q0 -184 83 -296t228 -112t240 97t95 325v476q0 114 -22 140t-79 44t-81 18q-8 0 -10 33t4 41q184 -16 252 -16z" />
    <glyph glyph-name="uni01DA" unicode="&#x1da;" horiz-adv-x="1198" 
d="M811 1764q17 0 17 -46q-99 -99 -162 -194q-63 -96 -75 -96q-13 0 -25 20q-36 60 -99 141t-111 129q0 46 17 46t95 -54t124 -94q46 40 124 94t95 54zM226 1164q0 60 41 101t101 41t102 -41t42 -101t-42 -102t-102 -42t-101 42t-41 102zM670 1164q0 60 42 101t102 41
t102 -41t42 -101t-42 -102t-102 -42t-102 42t-42 102zM1024 654v-392q0 -104 20 -125t76 -21h20q8 -4 8 -39t-12 -35q-85 -6 -196 -24q-112 -18 -140 -22l-28 -6q-12 0 -12 36v74q0 8 -2 10t-6 -2q-42 -44 -123 -80t-187 -36t-177 104t-71 252v194q0 112 -36 150
q-23 27 -67 35q-43 9 -43 11q0 70 10 70q38 0 185 29t174 39t33 10t16 -13t10 -21q-22 -176 -22 -200v-214q0 -156 40 -219t121 -63t115 31t34 69v286q0 112 -36 150q-23 27 -67 35q-43 9 -43 11q0 70 10 70q38 0 174 27t192 45l22 6q10 0 20 -13t10 -21q-22 -176 -22 -198z
" />
    <glyph glyph-name="uni01DB" unicode="&#x1db;" horiz-adv-x="1506" 
d="M776 1915q0 -11 -9 -26t-19 -15q-36 0 -198 79t-162 127q0 38 38 57t66 19t44 -8q66 -50 153 -136t87 -97zM368 1604q0 62 43 105t105 43t105 -43t43 -105t-43 -105t-105 -43t-105 43t-43 105zM828 1604q0 62 43 105t105 43t105 -43t43 -105t-43 -105t-105 -43t-105 43
t-43 105zM1186 1308q68 0 260 16q8 -16 8 -45t-10 -29q-110 0 -166 -66q-28 -34 -28 -146v-456q0 -292 -143 -442t-379 -150t-384 152t-148 480v422q0 128 -13 150t-59 39t-68 17q-8 0 -8 35t4 39q276 -12 303 -12t267 12q6 -18 6 -46t-8 -28q-18 0 -72 -17t-58 -31
q-14 -54 -14 -170v-474q0 -184 83 -296t228 -112t240 97t95 325v476q0 114 -22 140t-79 44t-81 18q-8 0 -10 33t4 41q184 -16 252 -16z" />
    <glyph glyph-name="uni01DC" unicode="&#x1dc;" horiz-adv-x="1198" 
d="M280 1700q0 18 23 38t71 20t66 -18q74 -87 130 -179q56 -91 56 -99t-12 -21t-22 -13q-26 0 -169 111t-143 161zM226 1164q0 60 41 101t101 41t102 -41t42 -101t-42 -102t-102 -42t-101 42t-41 102zM670 1164q0 60 42 101t102 41t102 -41t42 -101t-42 -102t-102 -42
t-102 42t-42 102zM1024 654v-392q0 -104 20 -125t76 -21h20q8 -4 8 -39t-12 -35q-85 -6 -196 -24q-112 -18 -140 -22l-28 -6q-12 0 -12 36v74q0 8 -2 10t-6 -2q-42 -44 -123 -80t-187 -36t-177 104t-71 252v194q0 112 -36 150q-23 27 -67 35q-43 9 -43 11q0 70 10 70
q38 0 185 29t174 39t33 10t16 -13t10 -21q-22 -176 -22 -200v-214q0 -156 40 -219t121 -63t115 31t34 69v286q0 112 -36 150q-23 27 -67 35q-43 9 -43 11q0 70 10 70q38 0 174 27t192 45l22 6q10 0 20 -13t10 -21q-22 -176 -22 -198z" />
    <glyph glyph-name="uni01DE" unicode="&#x1de;" horiz-adv-x="1440" 
d="M1046 2012q12 0 12 -20q-4 -86 -28 -118h-576l-10 4q-2 6 -2 18q5 116 30 116h574zM372 1604q0 62 43 105t105 43t105 -43t43 -105t-43 -105t-105 -43t-105 43t-43 105zM832 1604q0 62 43 105t105 43t105 -43t43 -105t-43 -105t-105 -43t-105 43t-43 105zM662 546
q84 0 146 4l6 10l-144 358l-156 -358q0 -8 4 -8q60 -6 144 -6zM246 8l-216 -16q-8 8 -8 40t4 32q24 0 80 21t75 50t55 109l452 1040q22 52 74 52q30 0 48 -26l410 -1014q38 -92 66 -164q12 -32 66 -49t82 -17q8 0 8 -34t-4 -40l-290 16q-14 0 -302 -16q-8 8 -8 41t8 33
q44 0 90 19t46 51q0 4 -50 134l-60 146q-8 8 -30 9t-165 1t-213 -2q-8 0 -14 -10l-66 -152q-40 -90 -40 -122t42 -53t104 -21q6 -2 6 -32t-4 -42q-208 16 -246 16z" />
    <glyph glyph-name="uni01DF" unicode="&#x1df;" horiz-adv-x="972" 
d="M688 1566q12 0 12 -20q-2 -77 -28 -118h-498l-10 4q-2 6 -2 18q5 116 30 116h496zM66 1164q0 60 41 101t101 41t102 -41t42 -101t-42 -102t-102 -42t-101 42t-41 102zM510 1164q0 60 42 101t102 41t102 -41t42 -101t-42 -102t-102 -42t-102 42t-42 102zM493 898
q149 0 224 -77t75 -279v-324q0 -68 48 -68q34 0 68 26q14 -8 14 -44t-14 -60q-28 -26 -91 -55t-115 -29t-96 29t-58 67q-2 0 -16 -11q-111 -87 -252 -87q-94 0 -159 61t-65 153q0 150 172 227q81 36 171 61q91 24 112 31t21 31v72q0 164 -100 164q-116 0 -116 -134
q0 -44 -36 -65t-80 -21q-92 0 -126 60q0 102 135 187t284 85zM426 130q48 0 77 25t29 61v202q-4 -2 -39 -13t-45 -15t-38 -15q-94 -37 -94 -124q0 -57 31 -89t79 -32z" />
    <glyph glyph-name="uni01E2" unicode="&#x1e2;" horiz-adv-x="1862" 
d="M1524 1594q12 0 12 -20q-4 -86 -28 -118h-576l-10 4q-2 6 -2 18q5 116 30 116h574zM896 564v386q0 10 -7 10t-13 -10l-244 -394q0 -8 4 -8q60 -6 130 -6l112 4q18 0 18 18zM756 33q0 33 8 33q22 0 68 16t52 30q12 46 12 158v130q0 20 -18 20q-52 2 -152 2t-170 -2
q-12 0 -16 -10l-94 -152q-60 -90 -66 -123t20 -47q48 -22 120 -22q6 0 0 -31t-12 -43q-28 2 -104 9t-127 7t-135 -7t-118 -9q-4 4 -4 19t5 35t7 20q24 0 93 24t87 48l82 126l564 904q8 12 8 28q0 22 -38 40t-60 18q-8 0 -8 34t6 40q142 -16 276 -16l646 16q2 -20 58 -296
q-10 -10 -39 -10t-35 14q-38 76 -120 130t-160 54h-76q-126 0 -130 -26q-10 -48 -10 -156v-308q0 -12 86 -12h106q124 0 136 8q10 8 15 48t13 68q2 14 33 14t41 -10v-378q-8 -8 -38 -8t-36 16q-26 92 -34 100t-14 11t-8 5q-26 16 -163 16t-137 -18v-308q0 -96 16 -142
q10 -32 136 -32h52q124 0 224 52q34 18 77 68t67 112q4 12 40 12t48 -12q-98 -276 -108 -344l-684 8l-280 -12q-8 8 -8 41z" />
    <glyph glyph-name="uni01E3" unicode="&#x1e3;" horiz-adv-x="1358" 
d="M966 1158q12 0 12 -20q-2 -77 -28 -118h-498l-10 4q-2 6 -2 18q5 116 30 116h496zM468 898q142 0 224 -90q126 90 234 90q201 0 298 -138q83 -119 92 -236q2 -22 -15 -36t-88 -25t-429 -57q-10 -2 -10 -19t11 -53t35 -81t74 -76t117 -31t126 20t81 34t64 44
q18 -14 18 -36t-10 -46q-20 -48 -122 -113t-226 -65q-188 0 -320 138q-74 -70 -148 -103t-190 -33t-181 61t-65 153q0 149 165 223q69 31 160 52t123 29q18 4 18 28v90q0 74 -25 119t-65 45q-116 0 -116 -134q0 -44 -36 -65t-80 -21q-92 0 -126 60q0 102 135 187t277 85z
M914 784q-70 0 -105 -77t-35 -167q0 -12 14 -12q248 32 264 36q12 4 12 20q0 78 -40 139t-110 61zM504 216v170q-154 -19 -189 -64q-17 -22 -17 -75t31 -85t77 -32t72 25t26 61z" />
    <glyph glyph-name="Gcaron" unicode="&#x1e6;" horiz-adv-x="1410" 
d="M950 1738q18 0 18 -38q-76 -57 -232 -226q-18 -18 -29 -18t-37 31t-100 104t-122 109q0 38 18 38t104 -45t138 -79q52 34 138 79t104 45zM1056 596q56 0 296 12q6 -18 6 -47t-8 -29q-46 0 -106 -30q-32 -16 -32 -158v-116q0 -36 6 -54t6 -22q0 -34 -42 -56
q-74 -38 -115 -55t-146 -38t-235 -21q-264 0 -450 197t-186 472t192 479t466 204q218 0 458 -58q10 -2 28 -151t18 -177q0 -16 -39 -16t-59 10q-21 81 -98 168q-44 50 -122 81t-176 31q-360 0 -360 -532q0 -334 177 -502q99 -94 247 -94q88 0 128 32q22 18 22 60v140
q0 102 -15 155t-131 53q-8 0 -9 33t7 41q216 -12 272 -12z" />
    <glyph glyph-name="gcaron" unicode="&#x1e7;" horiz-adv-x="970" 
d="M677 1356q17 0 17 -46q-99 -99 -162 -194q-63 -96 -75 -96q-13 0 -25 20q-36 60 -99 141t-111 129q0 46 17 46t95 -54t124 -94q46 40 124 94t95 54zM446 898q72 0 169 -26t155 -26h110q6 -2 22 -36t16 -55t-12 -21h-118q-8 -2 -8 -5t15 -56t15 -99q0 -126 -102 -230
t-256 -104q-80 0 -136 10q-24 -8 -36 -27t-12 -33t20 -23q26 -12 116 -20q90 -9 180 -9q320 -16 322 -210q2 -146 -158 -255t-327 -109t-271 60t-104 160q0 44 47 94t117 72q-52 22 -94 71t-42 91t14 66q25 43 138 106q-58 32 -106 113t-48 167q0 164 109 249t265 85z
M330 615v-51q0 -157 52 -200q24 -20 62 -20q76 0 92 58t16 160t-24 166t-97 64t-89 -72q-12 -54 -12 -105zM674 -162q0 90 -336 90q-6 -2 -40 -13t-48 -31t-14 -56q0 -60 63 -101t154 -41t156 38t65 114z" />
    <glyph glyph-name="uni01E8" unicode="&#x1e8;" horiz-adv-x="1482" 
d="M962 1738q18 0 18 -38q-76 -57 -232 -226q-18 -18 -29 -18t-37 31t-100 104t-122 109q0 38 18 38t104 -45t138 -79q52 34 138 79t104 45zM52 33q0 33 6 33q22 0 74 17t58 33q14 54 14 160v768q0 128 -13 150t-59 39t-68 17q-8 0 -8 35t4 39q276 -12 303 -12t267 12
q6 -18 6 -46t-8 -28q-18 0 -72 -17t-58 -31q-14 -54 -14 -170v-316q0 -16 12 -16h16q14 0 137 126t315 346q16 20 16 46q0 20 -44 28t-76 8q-8 0 -12 28t0 42q222 -12 257 -12t275 12q4 -8 3 -39t-7 -31l-12 -2q-106 0 -191 -55q-17 -11 -29 -25l-344 -380q-26 -30 -2 -58
l474 -618q22 -26 69 -38t71 -12q8 0 8 -29t-8 -45l-302 16q-108 0 -284 -16q-8 8 -8 41t8 33q22 0 58 12t36 28q0 64 -356 466q-6 6 -28 6q-52 0 -52 -34v-252q0 -114 16 -176q4 -14 55 -32t69 -18q8 0 8 -31t-4 -43l-278 16q-66 0 -290 -16q-8 8 -8 41z" />
    <glyph glyph-name="uni01E9" unicode="&#x1e9;" horiz-adv-x="1292" 
d="M679 1848q17 0 17 -46q-99 -99 -162 -194q-63 -96 -75 -96q-13 0 -25 20q-36 60 -99 141t-111 129q0 46 17 46t95 -54t124 -94q46 40 124 94t95 54zM334 8q-98 0 -274 -16q-8 8 -8 41t8 33q22 0 74 18t56 32q14 60 14 152v794q0 94 -10 144q-10 32 -104 32h-18
q-12 0 -12 37t12 37q174 17 260 41q86 25 106 31l20 6h4q8 0 16 -12t10 -22q-24 -90 -24 -202v-636q54 14 77 34t60 51t56 48t42 36t33 30t23 25t13 33t-20 25t-44 7t-28 3q-4 14 -4 42t8 30q144 -2 245 -2t191 4q14 -7 10 -41q-4 -33 -8 -33q-62 0 -140 -46
q-142 -82 -274 -218q58 -62 205 -232t178 -194t73 -39t60 -15q10 0 10 -32t-4 -40q-240 12 -252 12l-266 -14q-8 8 -8 41t8 33q20 0 46 8t26 15t-2 9l-292 334l-22 -6v-128q0 -128 14 -182q4 -14 56 -32t70 -18q6 0 7 -33t-3 -41q-176 16 -274 16z" />
    <glyph glyph-name="uni01EA" unicode="&#x1ea;" horiz-adv-x="1448" 
d="M724 1334q264 0 454 -199t190 -479q0 -176 -75 -319t-209 -241q-88 -64 -148 -151t-60 -165q0 -30 24 -47t60 -17t85 23t73 43q10 0 10 -32t-12 -48q-34 -44 -103 -91t-135 -47t-118 42t-52 111t52 152t122 133q-60 -22 -158 -22q-264 0 -453 198t-189 478t189 479
t453 199zM693 1222q-105 0 -175 -77q-124 -136 -124 -445q0 -207 77 -395q39 -95 113 -154t172 -59q150 0 225 152t75 375t-72 400q-38 93 -112 148t-179 55z" />
    <glyph glyph-name="uni01EB" unicode="&#x1eb;" horiz-adv-x="1040" 
d="M490 788q-58 0 -96 -47q-62 -77 -62 -237q0 -408 206 -408q84 0 123 83t39 193q0 416 -210 416zM518 898q196 0 333 -133t137 -323q0 -156 -94 -276q-14 -18 -49 -62t-50 -63t-42 -55q-28 -38 -61 -98q-32 -60 -32 -99q0 -73 82 -73q38 0 87 23t73 43q10 0 10 -32
t-12 -48q-34 -44 -103 -91t-135 -47t-118 42t-52 109t51 152t117 139q-62 -20 -142 -20q-196 0 -333 133t-137 323t137 323t333 133z" />
    <glyph glyph-name="uni01EC" unicode="&#x1ec;" horiz-adv-x="1448" 
d="M1020 1594q12 0 12 -20q-4 -86 -28 -118h-576l-10 4q-2 6 -2 18q5 116 30 116h574zM724 1334q264 0 454 -199t190 -479q0 -176 -75 -319t-209 -241q-88 -64 -148 -151t-60 -165q0 -30 24 -47t60 -17t85 23t73 43q10 0 10 -32t-12 -48q-34 -44 -103 -91t-135 -47t-118 42
t-52 111t52 152t122 133q-60 -22 -158 -22q-264 0 -453 198t-189 478t189 479t453 199zM693 1222q-105 0 -175 -77q-124 -136 -124 -445q0 -207 77 -395q39 -95 113 -154t172 -59q150 0 225 152t75 375t-72 400q-38 93 -112 148t-179 55z" />
    <glyph glyph-name="uni01ED" unicode="&#x1ed;" horiz-adv-x="1040" 
d="M776 1158q12 0 12 -20q-2 -77 -28 -118h-498l-10 4q-2 6 -2 18q5 116 30 116h496zM490 788q-58 0 -96 -47q-62 -77 -62 -237q0 -408 206 -408q84 0 123 83t39 193q0 416 -210 416zM518 898q196 0 333 -133t137 -323q0 -156 -94 -276q-14 -18 -49 -62t-50 -63t-42 -55
q-28 -38 -61 -98q-32 -60 -32 -99q0 -73 82 -73q38 0 87 23t73 43q10 0 10 -32t-12 -48q-34 -44 -103 -91t-135 -47t-118 42t-52 109t51 152t117 139q-62 -20 -142 -20q-196 0 -333 133t-137 323t137 323t333 133z" />
    <glyph glyph-name="uni01F0" unicode="&#x1f0;" horiz-adv-x="590" 
d="M603 1356q17 0 17 -46q-99 -99 -162 -194q-63 -96 -75 -96q-13 0 -25 20q-36 60 -99 141t-111 129q0 46 17 46t95 -54t124 -94q46 40 124 94t95 54zM252 200v354q0 112 -36 150q-24 27 -66 36q-42 8 -42 10q0 58 8 58q38 0 186 29t192 47l10 2q12 0 22 -13t9 -27t-12 -78
t-11 -116v-412q0 -294 -96 -444q-48 -76 -169 -154t-169 -78q-32 18 -32 42t2 26l26 13q10 5 48 47t62 97t46 164t22 247z" />
    <glyph glyph-name="uni01F4" unicode="&#x1f4;" horiz-adv-x="1410" 
d="M680 1497q0 11 87 97t153 136q16 8 44 8t66 -19t38 -57q0 -48 -162 -127t-198 -79q-10 0 -19 15t-9 26zM1056 596q56 0 296 12q6 -18 6 -47t-8 -29q-46 0 -106 -30q-32 -16 -32 -158v-116q0 -36 6 -54t6 -22q0 -34 -42 -56q-74 -38 -115 -55t-146 -38t-235 -21
q-264 0 -450 197t-186 472t192 479t466 204q218 0 458 -58q10 -2 28 -151t18 -177q0 -16 -39 -16t-59 10q-21 81 -98 168q-44 50 -122 81t-176 31q-360 0 -360 -532q0 -334 177 -502q99 -94 247 -94q88 0 128 32q22 18 22 60v140q0 102 -15 155t-131 53q-8 0 -9 33t7 41
q216 -12 272 -12z" />
    <glyph glyph-name="uni01F5" unicode="&#x1f5;" horiz-adv-x="970" 
d="M676 1350q48 0 71 -20t23 -38q0 -50 -143 -161t-169 -111q-10 0 -22 13t-12 21t56 99t130 179q18 18 66 18zM446 898q72 0 169 -26t155 -26h110q6 -2 22 -36t16 -55t-12 -21h-118q-8 -2 -8 -5t15 -56t15 -99q0 -126 -102 -230t-256 -104q-80 0 -136 10q-24 -8 -36 -27
t-12 -33t20 -23q26 -12 116 -20q90 -9 180 -9q320 -16 322 -210q2 -146 -158 -255t-327 -109t-271 60t-104 160q0 44 47 94t117 72q-52 22 -94 71t-42 91t14 66q25 43 138 106q-58 32 -106 113t-48 167q0 164 109 249t265 85zM330 615v-51q0 -157 52 -200q24 -20 62 -20
q76 0 92 58t16 160t-24 166t-97 64t-89 -72q-12 -54 -12 -105zM674 -162q0 90 -336 90q-6 -2 -40 -13t-48 -31t-14 -56q0 -60 63 -101t154 -41t156 38t65 114z" />
    <glyph glyph-name="uni01F8" unicode="&#x1f8;" horiz-adv-x="1554" 
d="M804 1497q0 -11 -9 -26t-19 -15q-36 0 -198 79t-162 127q0 38 38 57t66 19t44 -8q66 -50 153 -136t87 -97zM359 1308q43 0 171 16q56 -111 388 -516q156 -190 248 -312q4 14 4 82v470q0 114 -22 140t-79 44t-81 18q-8 0 -10 33t4 41q184 -16 252 -16t260 16q8 -16 8 -45
t-10 -29q-110 0 -166 -66q-28 -34 -28 -146v-760q0 -72 8 -280q-8 -8 -41 -8t-71 46l-814 1012v-766q0 -110 17 -143t83 -52t96 -19q6 0 7 -34t-3 -42l-270 16q-52 0 -132 -7t-116 -9q-6 6 -6 40t6 34q55 0 104 23q48 23 67 54t19 145v786q0 104 -30 142q-10 14 -70 24
t-88 10q-8 0 -10 33t6 41q256 -16 299 -16z" />
    <glyph glyph-name="uni01F9" unicode="&#x1f9;" horiz-adv-x="1244" 
d="M306 1292q0 18 23 38t71 20t66 -18q74 -87 130 -179q56 -91 56 -99t-12 -21t-22 -13q-26 0 -169 111t-143 161zM776 448q0 274 -158 274q-152 0 -152 -88v-336q0 -128 14 -182q4 -14 53 -32t65 -18q6 0 7 -33t-3 -41q-192 16 -278 16t-262 -16q-8 8 -8 41t8 33
q22 0 74 18t56 32q14 60 14 152v274q0 112 -36 150q-23 27 -67 35q-43 9 -43 11q0 70 10 70q37 0 226 42l158 34l4 2q10 0 20 -13t10 -21q-8 -56 -8 -64t2 -10q4 0 14 10q112 104 278 104q116 0 189 -98t73 -298v-198q0 -128 14 -182q4 -14 56 -32t70 -18q6 0 7 -33t-3 -41
q-176 16 -262 16t-278 -16q-8 8 -8 41t8 33q22 0 70 18t52 32q14 60 14 152v180z" />
    <glyph glyph-name="Aringacute" unicode="&#x1fa;" horiz-adv-x="1440" 
d="M724 1877q0 11 87 97t153 136q16 8 44 8t66 -19t38 -57q0 -48 -162 -127t-198 -79q-10 0 -19 15t-9 26zM246 8l-216 -16q-8 8 -8 40t4 32q24 0 80 21t75 50t55 109l452 1040q11 26 29 39q-61 9 -113 61t-52 133t58 139t140 58t139 -57t57 -139t-50 -132t-100 -61
q8 -6 14 -15l410 -1014q38 -92 66 -164q12 -32 66 -49t82 -17q8 0 8 -34t-4 -40l-290 16q-14 0 -302 -16q-8 8 -8 41t8 33q44 0 90 19t46 51q0 4 -50 134l-60 146q-8 8 -30 9t-165 1t-213 -2q-8 0 -14 -10l-66 -152q-40 -90 -40 -122t42 -53t104 -21q6 -2 6 -32t-4 -42
q-208 16 -246 16zM644 1518q0 -46 31 -77t75 -31t75 31t31 77t-31 77t-75 31t-75 -31t-31 -77zM662 546q84 0 146 4l6 10l-144 358l-156 -358q0 -8 4 -8q60 -6 144 -6z" />
    <glyph glyph-name="aringacute" unicode="&#x1fb;" horiz-adv-x="972" 
d="M670 1866q48 0 71 -20t23 -38q0 -50 -143 -161t-169 -111q-10 0 -22 13t-12 21t56 99t130 179q18 18 66 18zM256 1218q0 80 58 138t140 58t139 -58t57 -139t-58 -139t-139 -58t-139 59t-58 139zM348 1218q0 -46 31 -77t75 -31t75 31t31 77t-31 77t-75 31t-75 -31t-31 -77
zM493 898q149 0 224 -77t75 -279v-324q0 -68 48 -68q34 0 68 26q14 -8 14 -44t-14 -60q-28 -26 -91 -55t-115 -29t-96 29t-58 67q-2 0 -16 -11q-111 -87 -252 -87q-94 0 -159 61t-65 153q0 150 172 227q81 36 171 61q91 24 112 31t21 31v72q0 164 -100 164q-116 0 -116 -134
q0 -44 -36 -65t-80 -21q-92 0 -126 60q0 102 135 187t284 85zM426 130q48 0 77 25t29 61v202q-4 -2 -39 -13t-45 -15t-38 -15q-94 -37 -94 -124q0 -57 31 -89t79 -32z" />
    <glyph glyph-name="AEacute" unicode="&#x1fc;" horiz-adv-x="1862" 
d="M1200 1497q0 11 87 97t153 136q16 8 44 8t66 -19t38 -57q0 -48 -162 -127t-198 -79q-10 0 -19 15t-9 26zM896 564v386q0 10 -7 10t-13 -10l-244 -394q0 -8 4 -8q60 -6 130 -6l112 4q18 0 18 18zM756 33q0 33 8 33q22 0 68 16t52 30q12 46 12 158v130q0 20 -18 20
q-52 2 -152 2t-170 -2q-12 0 -16 -10l-94 -152q-60 -90 -66 -123t20 -47q48 -22 120 -22q6 0 0 -31t-12 -43q-28 2 -104 9t-127 7t-135 -7t-118 -9q-4 4 -4 19t5 35t7 20q24 0 93 24t87 48l82 126l564 904q8 12 8 28q0 22 -38 40t-60 18q-8 0 -8 34t6 40q142 -16 276 -16
l646 16q2 -20 58 -296q-10 -10 -39 -10t-35 14q-38 76 -120 130t-160 54h-76q-126 0 -130 -26q-10 -48 -10 -156v-308q0 -12 86 -12h106q124 0 136 8q10 8 15 48t13 68q2 14 33 14t41 -10v-378q-8 -8 -38 -8t-36 16q-26 92 -34 100t-14 11t-8 5q-26 16 -163 16t-137 -18
v-308q0 -96 16 -142q10 -32 136 -32h52q124 0 224 52q34 18 77 68t67 112q4 12 40 12t48 -12q-98 -276 -108 -344l-684 8l-280 -12q-8 8 -8 41z" />
    <glyph glyph-name="aeacute" unicode="&#x1fd;" horiz-adv-x="1358" 
d="M926 1350q48 0 71 -20t23 -38q0 -50 -143 -161t-169 -111q-10 0 -22 13t-12 21t56 99t130 179q18 18 66 18zM468 898q142 0 224 -90q126 90 234 90q201 0 298 -138q83 -119 92 -236q2 -22 -15 -36t-88 -25t-429 -57q-10 -2 -10 -19t11 -53t35 -81t74 -76t117 -31t126 20
t81 34t64 44q18 -14 18 -36t-10 -46q-20 -48 -122 -113t-226 -65q-188 0 -320 138q-74 -70 -148 -103t-190 -33t-181 61t-65 153q0 149 165 223q69 31 160 52t123 29q18 4 18 28v90q0 74 -25 119t-65 45q-116 0 -116 -134q0 -44 -36 -65t-80 -21q-92 0 -126 60
q0 102 135 187t277 85zM914 784q-70 0 -105 -77t-35 -167q0 -12 14 -12q248 32 264 36q12 4 12 20q0 78 -40 139t-110 61zM504 216v170q-154 -19 -189 -64q-17 -22 -17 -75t31 -85t77 -32t72 25t26 61z" />
    <glyph glyph-name="Oslashacute" unicode="&#x1fe;" horiz-adv-x="1400" 
d="M696 1501q0 11 87 97t153 136q16 8 44 8t66 -19t38 -57q0 -48 -162 -127t-198 -79q-10 0 -19 15t-9 26zM50 656q0 280 189 479t453 199q149 0 274 -63l46 81q80 -30 76 -42l-47 -84q55 -39 105 -91q190 -199 190 -479t-190 -478t-454 -198q-167 0 -304 80l-54 -96
q-80 30 -76 44l57 101q-265 211 -265 547zM362 700q0 -196 71 -380l452 806q-88 96 -208 96q-121 0 -191 -77q-124 -136 -124 -445zM949 244q75 152 75 386t-84 416l-459 -819q94 -135 244 -135q149 0 224 152z" />
    <glyph glyph-name="oslashacute" unicode="&#x1ff;" horiz-adv-x="924" 
d="M736 1382q48 0 71 -20t23 -38q0 -50 -143 -161t-169 -111q-10 0 -22 13t-12 21t56 99t130 179q18 18 66 18zM494 784q-58 0 -96 -46q-62 -75 -62 -238t34 -260l264 470q-51 74 -140 74zM992 440q0 -190 -136 -322t-334 -132q-99 0 -183 34l-31 -56q-32 10 -51 24t-17 20
l27 48q-41 26 -78 62q-137 132 -137 322t137 322t333 132q105 0 194 -38l30 54q74 -28 68 -42l-28 -50q36 -24 69 -56q137 -132 137 -322zM545 96q81 0 120 82t39 214t-29 228l-260 -465q49 -59 130 -59z" />
    <glyph glyph-name="Scommaaccent" unicode="&#x218;" horiz-adv-x="966" 
d="M338 -180q0 44 63 69t143 25q44 -40 44 -118t-58 -141t-126 -91h-6q-10 0 -31 12t-21 20q0 2 21 15t41 35t20 50t-45 54t-45 70zM488 1340q92 0 198 -25t138 -31q22 -194 22 -332q-8 -20 -30 -20q-58 0 -62 14q-14 100 -86 191t-178 91q-68 0 -115 -42t-47 -141t164 -209
q102 -68 172 -110t91 -57q83 -59 120 -131t37 -188q0 -160 -132 -265t-297 -105t-387 52q-16 64 -31 175t-15 157q6 20 52 20t48 -12q16 -92 100 -185t186 -93q198 0 198 218q0 87 -136 184q-28 20 -116 75q-156 98 -238 182t-82 229q0 146 133 252t293 106z" />
    <glyph glyph-name="scommaaccent" unicode="&#x219;" horiz-adv-x="768" 
d="M226 -180q0 44 63 69t143 25q44 -40 44 -118t-58 -141t-126 -91h-6q-10 0 -31 12t-21 20q0 2 21 15t41 35t20 50t-45 54t-45 70zM418 898q158 0 242 -40q20 -92 20 -248q0 -18 -26 -18q-62 0 -66 16q-18 84 -61 132t-137 48q-44 0 -72 -21t-28 -64t40 -76t106 -65
q107 -52 179 -107q101 -77 101 -208t-101 -199t-257 -68q-70 0 -156 22t-124 54q-24 138 -24 244q8 6 51 6t45 -18q34 -198 216 -198q48 0 80 22t32 67t-43 79t-157 90t-170 123t-56 165q0 136 104 199t262 63z" />
    <glyph glyph-name="uni021A" unicode="&#x21a;" horiz-adv-x="1330" 
d="M538 -180q0 44 63 69t143 25q44 -40 44 -118t-58 -141t-126 -91h-6q-10 0 -31 12t-21 20q0 2 21 15t41 35t20 50t-45 54t-45 70zM1233 1006q-31 0 -33 10q-50 198 -213 198t-171 -36q-16 -56 -16 -178v-722q0 -100 16 -162q4 -14 55 -32t69 -18q8 0 8 -31t-4 -43l-278 16
q-66 0 -290 -16q-8 8 -8 41t6 33q22 0 74 17t58 33q14 54 14 154v724q0 174 -23 197t-157 23q-82 0 -134 -45t-80 -151q-2 -10 -33 -10t-45 14l38 326q88 -22 138 -22l438 -12l440 12q50 0 138 22l38 -328q-14 -14 -45 -14z" />
    <glyph glyph-name="uni021B" unicode="&#x21b;" horiz-adv-x="748" 
d="M274 -180q0 44 63 69t143 25q44 -40 44 -118t-58 -141t-126 -91h-6q-10 0 -31 12t-21 20q0 2 21 15t41 35t20 50t-45 54t-45 70zM194 740h-130q-16 0 -16 39t4 45q112 56 161 93t89 72t69 60t31 27q16 0 34 -7t18 -15v-196h216q16 0 16 -20q0 -58 -20 -98h-212v-474
q0 -152 108 -152q56 0 82 15t31 15t14 -20t9 -30q0 -24 -82 -66t-154 -42q-110 0 -189 69t-79 223v462z" />
    <glyph glyph-name="uni021E" unicode="&#x21e;" horiz-adv-x="1454" 
d="M968 1738q18 0 18 -38q-76 -57 -232 -226q-18 -18 -29 -18t-37 31t-100 104t-122 109q0 38 18 38t104 -45t138 -79q52 34 138 79t104 45zM822 66q22 0 74 18t58 34q12 46 12 158v334l-4 8q-482 10 -482 -2l4 -4v-328q0 -106 16 -168q4 -14 55 -32t69 -18q8 0 9 -30
t-5 -44l-288 16q-40 0 -280 -16q-8 8 -8 41t4 33q24 0 76 16t58 32q14 54 14 162v764q0 122 -14 156q-10 22 -56 38t-70 16q-8 0 -8 35t4 39q276 -12 303 -12t267 12q6 -10 6 -42t-8 -32q-18 0 -70 -17t-58 -31q-16 -42 -16 -170v-284l4 -6q196 -4 245 -4t229 4q4 4 4 8v290
q0 104 -14 158q-6 16 -55 34t-71 18q-8 0 -9 33t7 41q276 -12 302 -12t266 12q6 -18 6 -46t-10 -28q-18 0 -70 -17t-56 -31q-16 -60 -16 -170v-748q0 -108 16 -170q4 -14 55 -30t69 -16q8 0 8 -29t-6 -47l-270 16q-90 0 -298 -16q-8 8 -7 41t9 33z" />
    <glyph glyph-name="uni021F" unicode="&#x21f;" horiz-adv-x="1244" 
d="M835 1848q17 0 17 -46q-99 -99 -162 -194q-63 -96 -75 -96q-13 0 -25 20q-36 60 -99 141t-111 129q0 46 17 46t95 -54t124 -94q46 40 124 94t95 54zM322 8q-86 0 -262 -16q-8 8 -8 41t8 33q22 0 74 18t56 32q14 60 14 152v794q0 94 -10 144q-10 32 -104 32h-18
q-12 0 -12 37t12 37q174 17 260 41q86 25 106 31l20 6h4q8 0 16 -12t10 -22q-24 -90 -24 -202v-372q0 -14 5 -14t13 8q44 50 124 83t166 33q116 0 189 -98t73 -298v-198q0 -128 14 -182q4 -14 56 -32t70 -18q6 0 7 -33t-3 -41q-176 16 -262 16t-278 -16q-8 8 -8 41t8 33
q22 0 70 18t52 32q14 60 14 152v180q0 148 -40 211t-130 63q-140 0 -140 -88v-336q0 -128 14 -182q4 -14 53 -32t65 -18q6 0 7 -33t-3 -41q-192 16 -278 16z" />
    <glyph glyph-name="uni0226" unicode="&#x226;" horiz-adv-x="1440" 
d="M600 1604q0 62 43 105t105 43t105 -43t43 -105t-43 -105t-105 -43t-105 43t-43 105zM662 546q84 0 146 4l6 10l-144 358l-156 -358q0 -8 4 -8q60 -6 144 -6zM246 8l-216 -16q-8 8 -8 40t4 32q24 0 80 21t75 50t55 109l452 1040q22 52 74 52q30 0 48 -26l410 -1014
q38 -92 66 -164q12 -32 66 -49t82 -17q8 0 8 -34t-4 -40l-290 16q-14 0 -302 -16q-8 8 -8 41t8 33q44 0 90 19t46 51q0 4 -50 134l-60 146q-8 8 -30 9t-165 1t-213 -2q-8 0 -14 -10l-66 -152q-40 -90 -40 -122t42 -53t104 -21q6 -2 6 -32t-4 -42q-208 16 -246 16z" />
    <glyph glyph-name="uni0227" unicode="&#x227;" horiz-adv-x="972" 
d="M328 1168q0 62 43 105t105 43t105 -43t43 -105t-43 -105t-105 -43t-105 43t-43 105zM493 898q149 0 224 -77t75 -279v-324q0 -68 48 -68q34 0 68 26q14 -8 14 -44t-14 -60q-28 -26 -91 -55t-115 -29t-96 29t-58 67q-2 0 -16 -11q-111 -87 -252 -87q-94 0 -159 61t-65 153
q0 150 172 227q81 36 171 61q91 24 112 31t21 31v72q0 164 -100 164q-116 0 -116 -134q0 -44 -36 -65t-80 -21q-92 0 -126 60q0 102 135 187t284 85zM426 130q48 0 77 25t29 61v202q-4 -2 -39 -13t-45 -15t-38 -15q-94 -37 -94 -124q0 -57 31 -89t79 -32z" />
    <glyph glyph-name="uni0228" unicode="&#x228;" horiz-adv-x="1196" 
d="M612 -56q50 0 89 -37t39 -83q0 -84 -61 -134t-152 -50t-129 38q-4 16 -4 44t16 28q2 0 44 -17t81 -17t62 20t23 48q0 66 -58 66q-36 0 -70 -14q-4 0 -19 16t-13 22q12 20 36 70t29 59q-98 1 -171 1l-292 -12q-8 8 -8 41t8 33q24 0 75 14t57 30q12 46 12 176v756
q0 110 -12 156q-6 16 -59 36t-75 20q-8 0 -8 34t6 40q160 -10 294 -10l646 10q2 -20 58 -296q-10 -10 -39 -10t-35 14q-38 76 -120 130t-160 54h-76q-126 0 -130 -26q-10 -48 -10 -156v-308q0 -12 86 -12h106q124 0 136 8q10 8 15 48t13 68q2 14 33 14t41 -10v-378
q-8 -8 -38 -8t-36 16q-26 92 -34 100t-14 11t-8 5q-26 16 -163 16t-137 -18v-308q0 -96 16 -142q10 -32 136 -32h52q124 0 224 52q34 18 77 68t67 112q2 12 39 12t49 -12q-98 -276 -108 -344q-115 0 -439 6l-31 -60q28 2 44 2z" />
    <glyph glyph-name="uni0229" unicode="&#x229;" horiz-adv-x="924" 
d="M549 -56q29 0 61 -31t32 -71q0 -72 -52 -114t-129 -42t-109 32q-4 12 -4 37t14 25l38 -14q36 -16 68 -16t52 17t20 41q0 56 -48 56q-30 0 -60 -12q-4 0 -17 13t-11 19q10 16 27 53t25 51q-156 14 -280 140t-124 316t120 320t307 130t296 -125t109 -255q0 -46 -19 -60
t-75 -14h-452q-12 0 -12 -14q0 -108 61 -194t175 -86q66 0 126 19t84 34t64 45q18 -8 18 -35t-8 -43q-20 -48 -116 -112t-210 -68l-24 -44q24 2 53 2zM469 784q-71 0 -107 -75t-36 -147q0 -12 14 -12h254q28 0 28 38q0 76 -41 136t-112 60z" />
    <glyph glyph-name="uni022A" unicode="&#x22a;" horiz-adv-x="1390" 
d="M988 2012q12 0 12 -20q-4 -86 -28 -118h-576l-10 4q-2 6 -2 18q5 116 30 116h574zM314 1604q0 62 43 105t105 43t105 -43t43 -105t-43 -105t-105 -43t-105 43t-43 105zM774 1604q0 62 43 105t105 43t105 -43t43 -105t-43 -105t-105 -43t-105 43t-43 105zM50 656
q0 280 189 479t453 199t454 -199t190 -479t-190 -478t-454 -198t-453 198t-189 478zM661 1222q-105 0 -175 -77q-124 -136 -124 -445q0 -207 77 -395q39 -95 113 -154t172 -59q150 0 225 152t75 375t-72 400q-38 93 -112 148t-179 55z" />
    <glyph glyph-name="uni022B" unicode="&#x22b;" horiz-adv-x="1046" 
d="M766 1566q12 0 12 -20q-2 -77 -28 -118h-498l-10 4q-2 6 -2 18q5 116 30 116h496zM144 1164q0 60 41 101t101 41t102 -41t42 -101t-42 -102t-102 -42t-101 42t-41 102zM588 1164q0 60 42 101t102 41t102 -41t42 -101t-42 -102t-102 -42t-102 42t-42 102zM522 894
q196 0 333 -132t137 -322t-136 -322t-333 -132t-334 132t-137 322t137 322t333 132zM494 784q-58 0 -96 -46q-62 -75 -62 -236q0 -406 206 -406q84 0 123 82t39 192q0 414 -210 414z" />
    <glyph glyph-name="uni022C" unicode="&#x22c;" horiz-adv-x="1390" 
d="M822 1984q12 0 12 -20q-4 -86 -28 -118h-576l-10 4q-2 6 -2 18q5 116 30 116h574zM330 1478q-16 0 -16 46t36 98q76 102 164 102t204 -68t192 -68q38 0 86 57t58 57q16 0 16 -47t-36 -99q-70 -100 -172 -100q-76 0 -192 68t-192 68q-36 0 -88 -57t-60 -57zM50 656
q0 280 189 479t453 199t454 -199t190 -479t-190 -478t-454 -198t-453 198t-189 478zM661 1222q-105 0 -175 -77q-124 -136 -124 -445q0 -207 77 -395q39 -95 113 -154t172 -59q150 0 225 152t75 375t-72 400q-38 93 -112 148t-179 55z" />
    <glyph glyph-name="uni022D" unicode="&#x22d;" horiz-adv-x="1046" 
d="M642 1518q12 0 12 -20q-2 -77 -28 -118h-498l-10 4q-2 6 -2 18q5 116 30 116h496zM224 1038q-14 0 -14 37t32 91q64 92 134 92t166 -61t158 -61q32 0 72 51t50 51t10 -39t-30 -91q-58 -88 -130 -88t-168 60t-160 60q-28 0 -70 -51t-50 -51zM522 894q196 0 333 -132
t137 -322t-136 -322t-333 -132t-334 132t-137 322t137 322t333 132zM494 784q-58 0 -96 -46q-62 -75 -62 -236q0 -406 206 -406q84 0 123 82t39 192q0 414 -210 414z" />
    <glyph glyph-name="uni022E" unicode="&#x22e;" horiz-adv-x="1390" 
d="M544 1604q0 62 43 105t105 43t105 -43t43 -105t-43 -105t-105 -43t-105 43t-43 105zM50 656q0 280 189 479t453 199t454 -199t190 -479t-190 -478t-454 -198t-453 198t-189 478zM661 1222q-105 0 -175 -77q-124 -136 -124 -445q0 -207 77 -395q39 -95 113 -154t172 -59
q150 0 225 152t75 375t-72 400q-38 93 -112 148t-179 55z" />
    <glyph glyph-name="uni022F" unicode="&#x22f;" horiz-adv-x="1046" 
d="M372 1168q0 62 43 105t105 43t105 -43t43 -105t-43 -105t-105 -43t-105 43t-43 105zM522 894q196 0 333 -132t137 -322t-136 -322t-333 -132t-334 132t-137 322t137 322t333 132zM494 784q-58 0 -96 -46q-62 -75 -62 -236q0 -406 206 -406q84 0 123 82t39 192
q0 414 -210 414z" />
    <glyph glyph-name="uni0230" unicode="&#x230;" horiz-adv-x="1390" 
d="M988 2012q12 0 12 -20q-4 -86 -28 -118h-576l-10 4q-2 6 -2 18q5 116 30 116h574zM544 1604q0 62 43 105t105 43t105 -43t43 -105t-43 -105t-105 -43t-105 43t-43 105zM50 656q0 280 189 479t453 199t454 -199t190 -479t-190 -478t-454 -198t-453 198t-189 478zM661 1222
q-105 0 -175 -77q-124 -136 -124 -445q0 -207 77 -395q39 -95 113 -154t172 -59q150 0 225 152t75 375t-72 400q-38 93 -112 148t-179 55z" />
    <glyph glyph-name="uni0231" unicode="&#x231;" horiz-adv-x="1046" 
d="M780 1576q12 0 12 -20q-2 -77 -28 -118h-498l-10 4q-2 6 -2 18q5 116 30 116h496zM372 1168q0 62 43 105t105 43t105 -43t43 -105t-43 -105t-105 -43t-105 43t-43 105zM522 894q196 0 333 -132t137 -322t-136 -322t-333 -132t-334 132t-137 322t137 322t333 132zM494 784
q-58 0 -96 -46q-62 -75 -62 -236q0 -406 206 -406q84 0 123 82t39 192q0 414 -210 414z" />
    <glyph glyph-name="uni0232" unicode="&#x232;" horiz-adv-x="1338" 
d="M1012 1594q12 0 12 -20q-4 -86 -28 -118h-576l-10 4q-2 6 -2 18q5 116 30 116h574zM337 1312q63 0 303 12q4 -8 3 -41t-7 -33q-30 0 -67 -11t-39 -31q0 -16 16 -44l200 -354q10 -10 20 4q58 84 138 222t80 170q0 44 -128 44q-8 0 -9 33t7 41q180 -12 237 -12t231 12
q6 -18 6 -45t-8 -27q-36 0 -82 -18t-74 -54q-52 -70 -201 -308t-149 -264v-318q0 -112 16 -174q4 -14 55 -32t69 -18q8 0 8 -31t-4 -43l-278 16q-66 0 -290 -16q-8 8 -8 41t6 33q22 0 74 17t58 33q14 54 14 162v340q0 23 -188 350l-62 106q-66 122 -112 149t-102 27
q-8 0 -8 33t8 41q204 -12 267 -12z" />
    <glyph glyph-name="uni0233" unicode="&#x233;" horiz-adv-x="1088" 
d="M808 1158q12 0 12 -20q-2 -77 -28 -118h-498l-10 4q-2 6 -2 18q5 116 30 116h496zM564 840q0 -28 -8 -28q-26 0 -75 -16t-49 -36l2 -18q4 -32 156 -390q136 294 148 323t12 51t-11 38t-45 32t-86 16q-8 0 -8 31t4 43q192 -16 262 -16l214 16q8 -16 8 -45t-8 -29
q-30 0 -89 -20t-79 -60l-372 -806q-166 -362 -388 -362q-60 0 -97 32t-37 84t46 84q254 0 330 156q46 98 62 132l-298 660l-10 24q-20 42 -61 59t-71 17q-8 0 -8 35t4 39l284 -16q86 0 262 16q6 -18 6 -46z" />
    <glyph glyph-name="uni0237" unicode="&#x237;" horiz-adv-x="590" 
d="M252 200v354q0 112 -36 150q-24 27 -66 36q-42 8 -42 10q0 58 8 58q38 0 186 29t192 47l10 2q12 0 22 -13t9 -27t-12 -78t-11 -116v-412q0 -294 -96 -444q-48 -76 -169 -154t-169 -78q-32 18 -32 42t2 26l26 13q10 5 48 47t62 97t46 164t22 247z" />
    <glyph glyph-name="gravecomb" unicode="&#x300;" horiz-adv-x="494" 
d="M84 1316q0 18 23 38t71 20t66 -18q74 -87 130 -179q56 -91 56 -99t-12 -21t-22 -13q-26 0 -169 111t-143 161z" />
    <glyph glyph-name="acutecomb" unicode="&#x301;" horiz-adv-x="468" 
d="M306 1374q48 0 71 -20t23 -38q0 -50 -143 -161t-169 -111q-10 0 -22 13t-12 21t56 99t130 179q18 18 66 18z" />
    <glyph glyph-name="uni0302" unicode="&#x302;" horiz-adv-x="568" 
d="M515 986q-17 0 -95 54t-124 94q-46 -40 -124 -94t-95 -54t-17 46q48 48 111 129t87 121t35 40t22 -14t34 -49q84 -128 183 -227q0 -46 -17 -46z" />
    <glyph glyph-name="tildecomb" unicode="&#x303;" horiz-adv-x="854" 
d="M136 1052q-14 0 -14 37t32 91q64 92 134 92t166 -61t158 -61q32 0 72 51t50 51t10 -39t-30 -91q-58 -88 -130 -88t-168 60t-160 60q-28 0 -70 -51t-50 -51z" />
    <glyph glyph-name="uni0304" unicode="&#x304;" horiz-adv-x="768" 
d="M640 1198q12 0 12 -20q-2 -77 -28 -118h-498l-10 4q-2 6 -2 18q5 116 30 116h496z" />
    <glyph glyph-name="uni0305" unicode="&#x305;" horiz-adv-x="1130" 
d="M-18 1468q-12 0 -12 21t7 72t21 51h1164q12 0 12 -33t-9 -68t-13 -38t-8 -5h-1162z" />
    <glyph glyph-name="uni0306" unicode="&#x306;" horiz-adv-x="504" 
d="M257 1162q49 0 92 31t59 85q4 6 11 6t32 -17t25 -27t-2 -14q-24 -82 -81 -133t-136 -51t-144 52t-87 132q-2 4 -2 14t25 27t32 17t11 -6q16 -54 66 -85t99 -31z" />
    <glyph glyph-name="uni0307" unicode="&#x307;" horiz-adv-x="620" 
d="M156 1232q0 62 43 105t105 43t105 -43t43 -105t-43 -105t-105 -43t-105 43t-43 105z" />
    <glyph glyph-name="uni0308" unicode="&#x308;" horiz-adv-x="740" 
d="M167 1208q57 0 98 -40t41 -98t-41 -99t-97 -41t-98 41t-42 98t41 98t98 41zM545 1208q57 0 98 -41t41 -98t-42 -98t-98 -41t-97 41t-41 99t41 98t98 40z" />
    <glyph glyph-name="hookabovecomb" unicode="&#x309;" horiz-adv-x="360" 
d="M229 1348q71 0 110 -33t39 -83q0 -106 -102 -148q-62 -26 -67 -37t-5 -19t2 -14q0 -4 -29 -11t-49 -7q-20 12 -20 34q0 56 81 93t81 93t-50 56q-66 0 -66 -72q0 -44 -78 -44q-14 0 -29 9t-15 25q0 72 63 115t134 43z" />
    <glyph glyph-name="uni030A" unicode="&#x30a;" horiz-adv-x="928" 
d="M232 1218q0 80 59 138t140 58t138 -57t57 -139t-57 -140t-138 -58t-140 59t-59 139zM324 1218q0 -46 32 -77t76 -31t74 31t30 77t-30 77t-74 31t-76 -31t-32 -77z" />
    <glyph glyph-name="uni030B" unicode="&#x30b;" horiz-adv-x="756" 
d="M306 1374q48 0 71 -20t23 -38q0 -50 -143 -161t-169 -111q-10 0 -22 13t-12 21t56 99t130 179q18 18 66 18zM584 1374q48 0 71 -20t23 -38q0 -50 -143 -161t-169 -111q-10 0 -22 13t-12 21t56 99t130 179q18 18 66 18z" />
    <glyph glyph-name="uni030C" unicode="&#x30c;" horiz-adv-x="568" 
d="M515 1322q17 0 17 -46q-99 -99 -162 -194q-63 -96 -75 -96q-13 0 -25 20q-36 60 -99 141t-111 129q0 46 17 46t95 -54t124 -94q46 40 124 94t95 54z" />
    <glyph glyph-name="uni0312" unicode="&#x312;" horiz-adv-x="340" 
d="M268 1038q0 -44 -63 -69t-143 -25q-44 40 -44 118t58 141t126 91h6q10 0 31 -12t21 -20q0 -2 -20 -15q-62 -40 -62 -77q0 -36 45 -62t45 -70z" />
    <glyph glyph-name="uni0315" unicode="&#x315;" horiz-adv-x="284" 
d="M50 1254q0 77 63 95q45 13 115 13q28 -50 28 -141t-56 -182t-120 -131h-4q-10 0 -29 19t-19 24t24 28q70 67 70 125q0 26 -36 67t-36 83z" />
    <glyph glyph-name="dotbelowcomb" unicode="&#x323;" horiz-adv-x="620" 
d="M156 -236q0 62 43 105t105 43t105 -43t43 -105t-43 -105t-105 -43t-105 43t-43 105z" />
    <glyph glyph-name="uni0326" unicode="&#x326;" horiz-adv-x="340" 
d="M18 -180q0 44 63 69t143 25q44 -40 44 -118t-58 -141t-126 -91h-6q-10 0 -31 12t-21 20q0 2 21 15t41 35t20 50t-45 54t-45 70z" />
    <glyph glyph-name="uni0327" unicode="&#x327;" horiz-adv-x="886" 
d="M505 -54q29 0 61 -31t32 -71q0 -72 -52 -114t-129 -42t-109 32q-4 12 -4 37t14 25l38 -14q36 -16 68 -16t52 17t20 41q0 56 -48 56q-30 0 -60 -12q-4 0 -17 13t-11 19q10 16 29 57t27 53h64l-28 -52q24 2 53 2z" />
    <glyph glyph-name="mu" unicode="&#x3bc;" horiz-adv-x="1070" 
d="M221 892q19 0 74 -28t55 -46q0 -126 -34 -286l-12 -86q0 -118 36 -192t87 -74q99 0 137 88q30 70 42 186v398q8 12 45 26t56 14t85 -28t66 -46q0 -110 -46 -326l-10 -46q-2 -94 4 -151q15 -139 96 -139q34 0 72 22t52 40q10 0 21 -19t11 -47q-20 -66 -73 -113t-117 -46
t-116 80t-66 183q-56 -132 -115 -203t-153 -71q-54 0 -83 49q-9 15 -14 22t-12 26t-17 44t-10 29q0 -126 12 -294t32 -272q-8 -12 -41 -26t-61 -14t-83 28t-55 46q0 64 13 360t29 428l-8 188v256q8 12 45 26t56 14z" />
    <glyph glyph-name="uni1E00" unicode="&#x1e00;" horiz-adv-x="1440" 
d="M536 -326q0 80 58 138t140 58t139 -58t57 -139t-58 -139t-139 -58t-139 59t-58 139zM628 -326q0 -46 31 -77t75 -31t75 31t31 77t-31 77t-75 31t-75 -31t-31 -77zM662 546q84 0 146 4l6 10l-144 358l-156 -358q0 -8 4 -8q60 -6 144 -6zM246 8l-216 -16q-8 8 -8 40t4 32
q24 0 80 21t75 50t55 109l452 1040q22 52 74 52q30 0 48 -26l410 -1014q38 -92 66 -164q12 -32 66 -49t82 -17q8 0 8 -34t-4 -40l-290 16q-14 0 -302 -16q-8 8 -8 41t8 33q44 0 90 19t46 51q0 4 -50 134l-60 146q-8 8 -30 9t-165 1t-213 -2q-8 0 -14 -10l-66 -152
q-40 -90 -40 -122t42 -53t104 -21q6 -2 6 -32t-4 -42q-208 16 -246 16z" />
    </font>
</defs>
</svg>
