<?xml version="1.0" standalone="no"?>
<!DOCTYPE svg PUBLIC "-//W3C//DTD SVG 1.1//EN" "http://www.w3.org/Graphics/SVG/1.1/DTD/svg11.dtd" >
<svg xmlns="http://www.w3.org/2000/svg">
<metadata>
Created by FontPrep 20130207 at Tue Nov 22 10:26:24 2016
 By Alexander McMillan
Copyright (c) 2010, Sebastian Kosch (sebastian@aldusleaf.org),
with Reserved Font Name "Crimson Text".
This Font Software is licensed under the SIL Open Font License, Version 1.1.
This license is available with a FAQ at: http://scripts.sil.org/OFL
</metadata>
<defs>
<font id="1a6af48eff0e5255a3bc47a902c47298" horiz-adv-x='1024' >
  <font-face 
    font-family="CrimsonText-Semibold"
    font-weight="600"
    font-stretch="normal"
    units-per-em="2048"
    panose-1="2 0 7 3 0 0 0 0 0 0"
    ascent="1434"
    descent="-614"
    x-height="864"
    cap-height="1324"
    bbox="-38 -496 2316 2100"
    underline-thickness="100"
    underline-position="-200"
    unicode-range="U+0020-F89F"
  />
<missing-glyph horiz-adv-x="748" 
d="M136 68h408v1228h-408v-1228zM68 0v1364h544v-1364h-544z" />
    <glyph glyph-name=".notdef" horiz-adv-x="748" 
d="M136 68h408v1228h-408v-1228zM68 0v1364h544v-1364h-544z" />
    <glyph glyph-name=".null" 
 />
    <glyph glyph-name="nonmarkingreturn" horiz-adv-x="682" 
 />
    <glyph glyph-name="space" unicode=" " horiz-adv-x="418" 
 />
    <glyph glyph-name="exclam" unicode="!" horiz-adv-x="356" 
d="M46 111q0 55 39 92t94 37t93 -37t38 -91t-37 -95t-90 -41t-95 40t-42 95zM182 1284q48 0 78 -38t30 -77t-25 -271t-47 -496q-4 -53 -46 -62q-18 -4 -25 9t-11 33q-14 181 -42 455q-28 273 -28 323t34 87t82 37z" />
    <glyph glyph-name="quotedbl" unicode="&#x22;" horiz-adv-x="642" 
d="M492 1396h34q28 0 43 -25t15 -95t-30 -193t-36 -185q-2 -30 -32 -30t-34 26q-10 94 -39 216t-29 157t36 82t72 47zM166 1396h32q30 0 45 -25t15 -95t-28 -194t-34 -184q-4 -30 -36 -30t-36 26q-10 94 -39 216t-29 156t37 82t73 48z" />
    <glyph glyph-name="numbersign" unicode="#" horiz-adv-x="944" 
d="M552 468l24 160h-176l-26 -160h178zM250 30h-36q-12 0 -19 5t-7 9l-2 4l46 298h-168q-12 0 -12 29t9 59t12 32t7 2h170l24 160h-210q-12 2 -12 31t9 59t12 32t7 2h212l48 308q0 18 104 18q12 0 17 -5t3 -9v-4l-46 -308h176l48 308q0 18 104 18q22 0 22 -14l-2 -4
l-48 -308h160q2 0 4 1t6 -3t4 -27t-18 -81l-12 -14h-162l-26 -160h204q2 0 4 1t6 -3t4 -27t-11 -58t-17 -35h-206l-48 -298l-6 -8q-12 -10 -54 -10h-36q-12 0 -19 5t-7 9v4l44 298h-176l-44 -298q0 -18 -62 -18z" />
    <glyph glyph-name="dollar" unicode="$" horiz-adv-x="914" 
d="M864 340q0 -154 -130 -255t-298 -101q-25 0 -51 2l-13 -78q-76 0 -76 18l11 67q-11 3 -39 7q-161 26 -168 32q-40 132 -50 308q-2 20 34 20t52 -12q20 -79 82 -165q39 -54 107 -83l75 452q-204 113 -269 198t-65 190q0 148 121 248t273 100q30 0 61 -3l11 67q72 0 72 -16
l-10 -61l164 -35q34 -176 34 -298q-6 -18 -43 -17t-39 19q-5 47 -48 113q-43 65 -88 96l-67 -413h1q14 -8 52 -31t53 -32t48 -30t48 -33t41 -35t38 -39q47 -62 61 -104q15 -42 15 -96zM456 1192q-90 0 -139 -47t-49 -129t51 -133t119 -98l67 401q-24 6 -49 6zM444 76
q84 0 144 57t60 149t-65 146q-65 55 -113 84l-70 -433q21 -3 44 -3z" />
    <glyph glyph-name="percent" unicode="%" horiz-adv-x="1290" 
d="M155 -16q-51 0 -57 24l964 1248q22 26 38 26q48 0 86 -30l-964 -1244q-16 -24 -67 -24zM938 618q130 0 217 -92t87 -220t-86 -220t-216 -92t-220 90t-90 220t89 222t219 92zM946 56q132 0 132 229q0 101 -37 186t-110 85t-107 -66t-34 -163t42 -184t114 -87zM352 1286
q130 0 218 -92t88 -220t-87 -220t-217 -92t-219 90t-89 220t88 222t218 92zM362 726q132 0 132 227q0 101 -39 187t-112 86t-105 -66t-32 -164t42 -184t114 -86z" />
    <glyph glyph-name="ampersand" unicode="&#x26;" horiz-adv-x="1362" 
d="M575 1312q141 0 226 -64t85 -179t-75 -200t-215 -169q102 -168 260 -356q110 152 110 180t-22 36t-68 8q-6 12 -6 32t6 24h184q38 0 220 8q10 -6 10 -35t-14 -33q-24 0 -70 -11t-60 -20t-88 -112t-130 -167q13 -20 56 -60q42 -40 64 -53t51 -13t64 34t49 62q16 0 34 -14
t18 -26q-16 -37 -57 -86q-84 -102 -187 -102q-60 0 -118 32t-86 64l-28 32q-150 -132 -332 -132t-293 84t-111 234t98 240t214 154q-2 2 -16 26t-17 29t-15 27t-16 30t-14 30t-13 34t-10 32q-15 43 -15 108q0 132 93 212t234 80zM575 1224q-63 0 -99 -46t-36 -126t100 -260
q90 56 131 111t41 135t-37 133t-100 53zM276 325q0 -109 68 -169t168 -60q56 0 113 29t93 71q-84 88 -240 328l-52 78q-72 -50 -111 -109t-39 -168z" />
    <glyph glyph-name="quotesingle" unicode="'" horiz-adv-x="402" 
d="M210 1396h34q30 0 45 -25t15 -95t-31 -193t-37 -185q-4 -30 -33 -30t-33 26q-10 94 -39 216t-29 157t36 82t72 47z" />
    <glyph glyph-name="parenleft" unicode="(" horiz-adv-x="562" 
d="M242 606q0 -290 98 -529t174 -277q4 -2 4 -13t-7 -28t-17 -17q-38 0 -109 66t-146 175t-130 279t-55 349t53 351t126 285t145 181t116 68q10 0 17 -19t7 -28t-2 -9q-98 -56 -186 -300t-88 -534z" />
    <glyph glyph-name="parenright" unicode=")" horiz-adv-x="564" 
d="M320 608q0 288 -88 532t-184 300q-4 0 -4 8t8 28t18 20q46 0 118 -70t145 -183t125 -284t52 -347t-54 -344t-128 -279t-145 -179t-113 -68q-10 0 -18 17t-8 28t4 13q76 38 174 279t98 529z" />
    <glyph glyph-name="asterisk" unicode="*" horiz-adv-x="830" 
d="M443 1034q7 0 25 19t53 85t64 95t62 33t55 -19t19 -55t-32 -60t-96 -65t-95 -63q-12 -6 -9 -20t26 -24t97 -23t111 -31t50 -48t-2 -58t-46 -36t-66 11t-110 90t-95 57q-12 -6 -14 -30t8 -98t4 -114t-31 -64t-56 -18t-47 34t-9 67t40 109t39 108q0 20 -5 25t-31 -1
t-92 -38t-106 -39t-71 10t-35 48t17 56t61 30t144 -9t109 11q4 24 -60 93q-65 68 -84 104t-12 69t35 47q30 14 60 1t46 -50t31 -111t23 -94t13 -27t12 -7z" />
    <glyph glyph-name="plus" unicode="+" horiz-adv-x="1062" 
d="M466 28v390q0 10 -12 10h-390q-12 0 -12 32t9 62t12 32t7 2h376q10 0 10 12v372q-2 10 10 14q54 16 98 16l20 -12v-392q0 -10 8 -10h392q16 0 16 -12q0 -30 -12 -73t-18 -43h-378q-8 0 -8 -6v-376q-12 -17 -116 -34q-12 0 -12 16z" />
    <glyph glyph-name="comma" unicode="," horiz-adv-x="426" 
d="M184 -50q0 50 -30 101t-30 90t42 81t98 42t76 -12q28 -56 28 -118t-24 -146t-78 -157t-170 -163h-2q-10 0 -28 21t-18 35q0 2 34 32t68 87t34 107z" />
    <glyph glyph-name="hyphen" unicode="-" horiz-adv-x="648" 
d="M62 414q0 114 24 114h2l482 24h2q12 0 12 -55t-20 -75l-6 -8l-482 -22h-4t-6 6t-4 16z" />
    <glyph glyph-name="period" unicode="." horiz-adv-x="382" 
d="M326 112q0 -54 -39 -95t-94 -41t-95 41t-40 95t40 94t95 40t94 -40t39 -94z" />
    <glyph glyph-name="slash" unicode="/" horiz-adv-x="832" 
d="M159 -54q-35 -16 -73 -16t-44 14l592 1534q20 44 98 44q34 0 58 -12l-592 -1534q-4 -14 -39 -30z" />
    <glyph glyph-name="zero" unicode="0" horiz-adv-x="1006" 
d="M54 630q0 260 135 448t316 188t314 -188t133 -448t-133 -448t-314 -188t-316 188t-135 448zM286 634q0 -236 64 -394t158 -158q100 0 157 158t57 398t-59 391t-156 151t-159 -155t-62 -391z" />
    <glyph glyph-name="one" unicode="1" horiz-adv-x="800" 
d="M120 1016q0 12 4 16q200 134 299 193t101 59h4q16 0 24 -36q-18 -64 -18 -188v-796q0 -100 16 -160q4 -16 54 -30t70 -14q6 0 6 -30t-2 -38q-4 2 -104 8t-148 6t-144 -6t-104 -8q-8 8 -8 38t8 30q22 0 74 15t56 29q12 48 12 116v696q0 90 -11 103t-20 13t-22 -5t-29 -14
t-42 -23t-44 -26q-12 6 -22 23t-10 29z" />
    <glyph glyph-name="two" unicode="2" horiz-adv-x="930" 
d="M790 948q0 -101 -70 -253q-81 -176 -408 -476q-49 -45 -24 -45h364q46 0 77 25t43 54t28 87q6 18 32 18t40 -10q-56 -266 -63 -307t-35 -41h-694q-22 12 -24 64q206 216 357 454t151 392q0 98 -51 160t-133 62q-114 0 -196 -94q-14 -16 -20 -25t-15 -22t-9 -15
q-14 0 -31 14t-17 28q28 71 91 136q124 130 278 130q153 0 241 -97t88 -239z" />
    <glyph glyph-name="three" unicode="3" horiz-adv-x="910" 
d="M488 1284q86 0 163 -65t77 -179q0 -164 -168 -284q82 -13 176 -97q46 -41 77 -104t31 -135q0 -130 -75 -230t-189 -149t-255 -49t-237 64q-16 20 -16 61t19 72t47 31t46 -9t27 -17t29 -29t24 -25q58 -56 147 -56t151 71t62 200t-67 207t-165 78q-52 0 -120 -12
q-16 18 -16 45t6 35q126 22 200 94t74 186q0 76 -46 122t-88 46t-68 -7t-44 -15q-40 -18 -63 -41l-31 -31q-10 0 -23 19t-13 35q122 168 328 168z" />
    <glyph glyph-name="four" unicode="4" horiz-adv-x="946" 
d="M566 476v468q0 16 -8 16l-350 -460q-2 -2 -2 -6q0 -18 14 -18h346zM740 1288q30 0 30 -20v-792h102q32 0 32 -108q0 -10 -16 -20h-118v-344q-28 -16 -116 -16t-88 22v338h-502q-22 26 -22 80q68 80 337 433t309 403q22 24 52 24z" />
    <glyph glyph-name="five" unicode="5" horiz-adv-x="902" 
d="M738 1203q0 -59 -18 -107q-187 -18 -404 -18q-16 -2 -20 -18q-14 -80 -48 -270q74 22 176 22q158 0 284 -110t126 -262q0 -194 -145 -321t-359 -127q-154 0 -250 64q-16 22 -16 62t19 71t47 31q48 0 73 -25l29 -29q20 -20 24 -26q58 -56 150 -56t149 78t57 201t-67 206
t-179 83t-198 -26q-22 10 -36 28q12 72 55 319t49 287q430 8 488 20q14 -18 14 -77z" />
    <glyph glyph-name="six" unicode="6" horiz-adv-x="914" 
d="M455 -12q-163 0 -281 122t-118 290t64 312t171 254q209 215 489 326q16 -2 27 -22t13 -38q-182 -80 -315 -207t-183 -297q-8 -24 -2 -27t20 5t66 25t96 17q148 0 253 -112t105 -263t-121 -268t-284 -117zM466 80q84 0 130 70t46 203t-52 212t-162 79q-42 0 -80 -21
t-48 -51q-20 -60 -21 -186t51 -216t136 -90z" />
    <glyph glyph-name="seven" unicode="7" horiz-adv-x="924" 
d="M892 1256q0 -20 -56 -132l-538 -1136q-6 -4 -24 -4t-41 20t-23 40l520 1044h-466q-67 0 -102 -77q-19 -42 -34 -87q-2 -10 -34 -12t-44 6q68 288 74 330q6 24 36 24h584l134 4q14 0 14 -20z" />
    <glyph glyph-name="eight" unicode="8" horiz-adv-x="918" 
d="M466 1276q142 0 248 -80t106 -216q0 -158 -220 -296q-20 0 9 -18q71 -44 159 -132t88 -198q0 -150 -122 -251t-286 -101t-274 86t-110 235t131 250q60 47 115 77q4 4 4 8t-21 19q-60 43 -121 115q-62 73 -62 196q0 124 107 215t249 91zM463 1188q-71 0 -110 -54t-39 -129
t33 -125t62 -72q82 -62 93 -62q12 0 18 4q100 76 100 218q0 94 -43 157t-114 63zM462 72q80 0 129 56t49 144q0 140 -220 288q-18 12 -26 12h-10q-108 -66 -108 -256q0 -102 53 -173t133 -71z" />
    <glyph glyph-name="nine" unicode="9" horiz-adv-x="908" 
d="M457 1292q163 0 280 -122t117 -290t-64 -315t-169 -257q-211 -221 -467 -320q-16 2 -28 26t-12 38q160 66 292 198t182 302q8 24 2 27t-17 -6t-62 -24t-93 -15q-152 0 -258 108t-106 261t120 271t283 118zM445 1200q-85 0 -130 -71t-45 -203t53 -211t161 -79q42 0 80 21
t53 65t16 171t-51 217t-137 90z" />
    <glyph glyph-name="colon" unicode=":" horiz-adv-x="380" 
d="M326 112q0 -54 -39 -95t-94 -41t-95 41t-40 95t40 94t95 40t94 -40t39 -94zM326 730q0 -54 -39 -96t-94 -42t-95 42t-40 96t40 93t95 39t94 -39t39 -93z" />
    <glyph glyph-name="semicolon" unicode=";" horiz-adv-x="430" 
d="M376 730q0 -54 -39 -96t-94 -42t-95 42t-40 96t40 93t95 39t94 -39t39 -93zM180 -50q0 50 -30 101t-30 90t42 81t98 42t76 -12q28 -56 28 -118t-24 -146t-78 -157t-170 -163h-2q-10 0 -28 21t-18 35q0 2 34 32t68 87t34 107z" />
    <glyph glyph-name="less" unicode="&#x3c;" horiz-adv-x="928" 
d="M878 78q0 -12 -12 -60t-17 -48t-13 4l-750 380q-36 20 -36 80q0 30 36 48l742 374q8 4 10 4q14 0 34 -104l-6 -18l-644 -320l650 -326q6 -2 6 -14z" />
    <glyph glyph-name="equal" unicode="=" horiz-adv-x="1056" 
d="M92 638h898q8 0 8 -21t-12 -64t-18 -43h-892q-14 0 -14 20q10 108 30 108zM998 344q0 -32 -12 -75t-18 -43h-892q-14 0 -14 28t10 62t13 36t7 2h890q16 0 16 -10z" />
    <glyph glyph-name="greater" unicode="&#x3e;" horiz-adv-x="932" 
d="M92 860q2 0 10 -4l742 -374q36 -18 36 -48q0 -60 -36 -80l-750 -380q-8 -4 -13 -4t-17 48t-12 62l6 12l650 326l-644 320l-6 18q20 104 34 104z" />
    <glyph glyph-name="question" unicode="?" horiz-adv-x="652" 
d="M316 112q0 -54 -39 -95t-94 -41t-95 41t-40 95t40 94t95 40t94 -40t39 -94zM50 1183q0 41 12 81q52 24 90 24q180 0 317 -102t137 -266q0 -128 -56 -200t-186 -135q-130 -62 -138 -101q-6 -16 -6 -58t-4 -52q-14 -22 -52 -22q-28 0 -28 136t23 177q33 60 151 121
q46 24 77 44t58 56t27 86t-42 90t-100 40l-160 -20q-48 0 -84 30t-36 71z" />
    <glyph glyph-name="at" unicode="@" horiz-adv-x="1562" 
d="M944 670q0 14 -4 23q-11 25 -80 25q-108 0 -194 -117t-86 -306t96 -189q72 0 152 99t84 147l28 292q4 12 4 26zM888 -252q59 0 140 36q4 -18 4 -20q0 -40 -67 -73t-205 -33t-276 66t-231 169t-146 229t-53 248q0 360 232 572t578 212q144 0 268 -63t205 -163t126 -221
t45 -250t-34 -230t-90 -153q-108 -100 -240 -100q-98 0 -165 60t-67 126q0 6 -10 -4q-28 -54 -114 -112t-180 -58t-155 92t-61 204q0 214 153 376t407 162l190 -18q-10 -64 -14 -106l-46 -428q-4 -40 -4 -56q-2 -152 86 -152q70 0 120 41t72 105q40 116 40 222
q0 260 -152 440t-415 180t-452 -171t-189 -431q0 -316 171 -507t529 -191z" />
    <glyph glyph-name="A" unicode="A" horiz-adv-x="1472" 
d="M684 570q72 0 166 6l4 8l-152 400l-164 -400q0 -8 4 -8q70 -6 142 -6zM54 31q0 29 4 29q24 0 77 17t67 39q38 60 76 156l372 900q46 120 68 139t38 19t26 -10l420 -1048q30 -80 60 -146q12 -30 64 -48t76 -18q8 0 8 -30t-4 -36q-240 12 -253 12t-259 -12q-8 8 -8 37t8 29
q24 0 66 12t49 26t7 41t-38 125l-70 186q-12 12 -153 12t-261 -6q-12 0 -12 -8l-76 -186q-38 -104 -38 -130t20 -39t65 -23t61 -10q6 -2 6 -28t-4 -38l-230 12q-44 0 -224 -12q-8 8 -8 37z" />
    <glyph glyph-name="B" unicode="B" horiz-adv-x="1172" 
d="M812 952q0 270 -230 270q-94 0 -128 -10q-16 -4 -16 -22l-4 -192v-234q0 -20 97 -20t135 12q146 32 146 196zM1054 986q0 -82 -52 -159t-132 -107q-16 -6 -8 -12q74 -12 165 -105t91 -229q0 -172 -139 -274t-369 -100l-284 2l-266 -8q-6 6 -6 36t6 30q26 0 76 13t58 31
q14 42 14 182v756q0 120 -14 164q-6 22 -56 36t-80 14q-8 0 -8 29t8 37q132 -6 266 -6l292 2q150 0 284 -73q68 -37 111 -107t43 -152zM874 352q0 128 -71 211t-229 83q-58 0 -124 -10q-16 -10 -16 -40v-372q0 -84 25 -104t98 -20t115 9t91 32t80 78t31 133z" />
    <glyph glyph-name="C" unicode="C" horiz-adv-x="1278" 
d="M699 -12q-277 0 -463 194t-186 470t190 479t468 203q226 0 472 -54q6 -2 12 -131t6 -160t-48 -31q-12 0 -28 8q-16 74 -92 160q-42 48 -124 79t-190 31q-196 0 -305 -162t-109 -401t123 -414t347 -175q178 0 282 112q41 45 66 115q24 71 28 71q70 0 78 -18
q0 -26 -30 -155t-46 -137q-174 -84 -451 -84z" />
    <glyph glyph-name="D" unicode="D" horiz-adv-x="1416" 
d="M434 1060v-784q0 -112 22 -148q32 -32 244 -32q406 0 406 584q0 224 -109 380t-311 156h-10q-192 0 -217 -34t-25 -122zM54 30q0 30 6 30q26 0 76 13t58 31q14 42 14 182v756q0 120 -14 164q-6 22 -56 36t-80 14q-8 0 -8 29t8 37q132 -6 266 -6h346q326 0 509 -192
t183 -466t-185 -469t-509 -195l-342 8l-266 -8q-6 6 -6 36z" />
    <glyph glyph-name="E" unicode="E" horiz-adv-x="1168" 
d="M991 1034q-27 0 -33 14q-66 178 -256 178h-104q-148 0 -152 -26q-12 -56 -12 -162v-314q0 -12 72 -12h158q86 0 108 10t31 55t15 65q2 14 31 14t39 -10v-378q-8 -8 -36 -8t-34 16q-26 99 -39 108q-3 2 -23 15t-171 13t-151 -16v-310q0 -110 18 -162q10 -26 136 -26h74
q156 0 238 42q32 16 72 70t62 122q2 12 37 12t47 -12q-12 -36 -56 -157t-52 -181q-80 0 -331 6t-353 2l-266 -8q-6 6 -6 36t6 30q26 0 76 13t58 31q14 42 14 182v756q0 120 -14 164q-6 22 -56 36t-80 14q-8 0 -8 29t8 37q132 -8 266 -8l646 14q8 -60 32 -167t26 -117
q-10 -10 -37 -10z" />
    <glyph glyph-name="F" unicode="F" horiz-adv-x="1076" 
d="M618 -6q-240 12 -332 12q-91 0 -186 -10l-40 -2q-6 6 -6 36t6 30q26 0 76 13t58 31q14 42 14 182v756q0 120 -14 164q-6 22 -56 36t-80 14q-8 0 -8 29t8 37q234 -14 519 -4t391 10q8 -60 32 -167t26 -117q-10 -10 -37 -10t-33 14q-66 178 -256 178h-104q-148 0 -152 -26
q-10 -48 -10 -162v-314q0 -12 72 -12h156q86 0 108 10t31 55t15 65q2 14 31 14t39 -10v-378q-8 -8 -36 -8t-34 16q-26 99 -39 108q-3 2 -23 15t-170 13t-150 -16v-314q0 -108 22 -166q8 -20 72 -38t86 -18q10 0 10 -29t-6 -37z" />
    <glyph glyph-name="G" unicode="G" horiz-adv-x="1404" 
d="M1228 136q0 -28 -44 -48q-80 -36 -118 -50t-145 -34t-237 -20q-264 0 -449 196t-185 471t192 479t466 204q176 0 464 -74q6 -2 17 -133t11 -155t-34 -24t-50 12q-13 62 -50 116q-36 54 -77 84q-104 76 -286 76q-183 0 -293 -156t-110 -400q0 -144 51 -277t162 -226
t248 -93t203 38q20 14 20 46l-2 144v14q0 120 -14 162q-8 26 -59 38t-85 12q-8 0 -8 29t8 37l280 -12q2 0 242 12q6 -18 6 -43t-10 -25t-51 -12t-63 -24t-22 -142l2 -130q0 -36 10 -62t10 -30z" />
    <glyph glyph-name="H" unicode="H" horiz-adv-x="1416" 
d="M1358 1282q0 -24 -8 -24q-18 0 -72 -16t-58 -30q-16 -62 -16 -176v-752q0 -110 18 -180q4 -14 55 -29t69 -15q8 0 8 -27t-4 -39q-240 12 -284 12t-236 -12q-8 8 -8 37t8 29q24 0 75 14t57 30q16 62 16 168v344l-4 8q-188 4 -364 2t-176 -8v-334q0 -110 18 -180
q4 -14 55 -29t69 -15q8 0 8 -27t-4 -39q-240 12 -284 12t-236 -12q-8 8 -8 37t8 29q24 0 75 14t57 30q16 62 16 168v772q0 120 -16 168q-8 16 -56 31t-72 15q-8 0 -8 31t4 35l266 -12q16 0 256 12q6 -18 6 -42t-8 -24q-18 0 -72 -16t-58 -30q-16 -62 -16 -176v-292l4 -6
q196 -4 276 -4t260 4q4 4 4 8v298q0 120 -16 168q-8 16 -56 31t-72 15q-8 0 -8 31t4 35l266 -12q16 0 256 12q6 -18 6 -42z" />
    <glyph glyph-name="I" unicode="I" horiz-adv-x="646" 
d="M296 6q-44 0 -236 -12q-8 8 -8 37t8 29q24 0 75 14t57 30q16 62 16 168v772q0 120 -16 168q-8 16 -56 31t-72 15q-8 0 -8 31t4 35l266 -12q16 0 256 12q6 -18 6 -42t-8 -24q-18 0 -72 -16t-58 -30q-16 -62 -16 -176v-752q0 -110 18 -180q4 -14 55 -29t69 -15q8 0 8 -27
t-4 -39q-240 12 -284 12z" />
    <glyph glyph-name="J" unicode="J" horiz-adv-x="932" 
d="M580 1312q54 0 294 12q6 -18 6 -42t-8 -24q-18 0 -71 -16t-57 -30q-16 -62 -16 -176v-808q0 -296 -150 -484t-396 -188q-30 0 -66 12t-44 20q-26 34 -26 85t38 83t84 32t95 -52t77 -52q74 0 117 137t43 391v836q0 112 -14 164q-6 24 -55 35t-81 11q-8 0 -8 31t4 35
q180 -12 234 -12z" />
    <glyph glyph-name="K" unicode="K" horiz-adv-x="1444" 
d="M588 1282q0 -24 -8 -24q-18 0 -72 -16t-58 -30q-16 -62 -16 -176v-322q0 -9 10 -14h18q42 0 104 68q160 172 352 400q32 38 32 59t-44 29t-74 8q-8 0 -10 23t2 37q222 -12 261 -12t207 12q4 -8 3 -34t-7 -26q-140 -16 -202 -84l-372 -424q-22 -26 4 -56l468 -556
q36 -44 97 -64t89 -20q10 0 10 -27t-6 -39q-240 12 -288 12t-264 -12q-8 8 -8 37t8 29q22 0 56 14t34 35t-154 202t-250 281q-8 8 -42 8t-34 -24v-296q0 -106 18 -176q4 -14 55 -29t69 -15q8 0 8 -27t-4 -39q-240 12 -284 12t-236 -12q-8 8 -8 37t8 29q24 0 75 14t57 30
q16 62 16 168v772q0 120 -16 168q-8 16 -56 31t-72 15q-8 0 -8 31t4 35l266 -12q16 0 256 12q6 -18 6 -42z" />
    <glyph glyph-name="L" unicode="L" horiz-adv-x="1168" 
d="M588 1282q0 -24 -8 -24q-18 0 -72 -16t-58 -30q-16 -62 -16 -176v-752q0 -98 18 -160q10 -26 136 -26h74q156 0 238 42q32 16 72 70t62 122q2 12 37 12t47 -12q-12 -36 -56 -157t-52 -181q-80 0 -331 6t-353 2l-266 -8q-6 6 -6 36t6 30q26 0 76 13t58 31q14 42 14 182
v756q0 122 -16 170q-8 16 -56 31t-72 15q-8 0 -8 31t4 35l266 -12q16 0 256 12q6 -18 6 -42z" />
    <glyph glyph-name="M" unicode="M" horiz-adv-x="1826" 
d="M337 1312q29 0 215 12q22 -69 177 -431q155 -361 211 -501q0 -4 6 -4t6 6q176 422 280 694l72 232q60 -6 151 -6t251 10q6 -8 6 -37t-8 -29h-4q-54 0 -98 -32q-30 -22 -26 -108q8 -178 28 -826q2 -108 32 -184q8 -18 56 -33t68 -15q8 0 8 -27t-4 -39q-240 12 -280 12
t-232 -12q-8 8 -8 37t8 29q22 0 64 13t59 34t17 65v112l-20 608q-8 124 -24 124q-6 0 -10 -12l-382 -932q-34 -76 -76 -76q-8 0 -20 4l-448 1076q-14 -498 -32 -892q0 -44 6 -62q10 -22 80 -42t94 -20q8 0 8 -27t-4 -39q-240 12 -252 12l-252 -12q-8 8 -8 37t8 29
q32 0 100 20t78 52q18 36 22 161t11 332t12 353t5 183t-6 54t-67 31t-87 14q-8 0 -8 28t8 36q180 -12 209 -12z" />
    <glyph glyph-name="N" unicode="N" horiz-adv-x="1506" 
d="M264 6q-46 0 -202 -12q-8 8 -8 37t8 29q34 0 91 15t73 45q20 42 20 168v784q0 108 -22 146q-8 14 -69 26t-89 12q-8 0 -9 30t7 38q210 -10 257 -10t161 10q67 -127 329 -471q263 -345 327 -433q4 24 4 82v544q0 106 -20 160q-10 24 -67 38t-89 14q-8 0 -9 29t5 37
q214 -14 252 -14l236 14q4 -8 4 -37t-8 -29q-28 0 -86 -15t-76 -41q-22 -54 -22 -166v-758q0 -72 8 -280q-8 -8 -42 -8t-66 46l-796 1056v-810q0 -120 16 -164q10 -24 74 -41t90 -17q6 0 7 -28t-3 -38q-240 12 -286 12z" />
    <glyph glyph-name="O" unicode="O" horiz-adv-x="1386" 
d="M50 656q0 280 188 479t452 199t453 -199t189 -479t-189 -478t-453 -198t-452 198t-188 478zM660 1236q-172 0 -263 -157t-91 -379q0 -339 180 -521q98 -99 236 -99q170 0 263 159t93 379q0 345 -178 521q-98 97 -240 97z" />
    <glyph glyph-name="P" unicode="P" horiz-adv-x="1092" 
d="M1040 956q0 -94 -49 -184t-148 -153t-223 -63q-42 0 -84 15t-58 37q-13 13 -10 39q4 25 8 25q46 -20 112 -20q96 0 152 79t56 206t-54 205t-152 78t-130 -14q-24 -12 -24 -208v-714q0 -120 16 -170q6 -24 67 -39t89 -15q8 0 8 -28t-4 -40q-220 12 -286 12t-226 -8l-40 -4
q-6 8 -6 38t6 30q26 0 77 13t59 31q12 36 12 182v756q0 114 -12 164q-6 16 -59 33t-77 17q-8 0 -8 30t8 36q210 -6 266 -6l270 6q210 0 341 -119q103 -94 103 -247z" />
    <glyph glyph-name="Q" unicode="Q" horiz-adv-x="1488" 
d="M1315 -158q55 0 87 5t52 9t24 4q24 0 24 -40v-10q-168 -90 -366 -90q-74 0 -159 35t-151 80q-181 123 -281 155q-101 32 -178 84t-150 132t-121 199t-48 277t86 314t233 247t320 91t321 -91t234 -247t86 -315q0 -290 -151 -466q-151 -175 -297 -205q52 -26 120 -64
t104 -56t96 -33t115 -15zM656 1228q-172 0 -265 -155t-93 -373q0 -337 183 -518q99 -98 239 -98q170 0 264 157t94 384t-97 405q-49 90 -133 144t-192 54z" />
    <glyph glyph-name="R" unicode="R" horiz-adv-x="1370" 
d="M1052 968q0 -108 -70 -204t-170 -136q-16 -6 -8 -20q195 -351 375 -487q81 -61 149 -61q8 -12 8 -32t-8 -36q-24 -4 -94 -4t-153 24t-144 71t-101 91t-76 98l-72 108t-55 83q-76 116 -117 131q-12 6 -46 6t-34 -34v-282q0 -120 16 -170q6 -24 67 -39t89 -15q8 0 8 -28
t-4 -40q-220 12 -286 12t-226 -8l-40 -4q-6 8 -6 38t6 30q26 0 77 13t59 31q12 36 12 182v756q0 114 -12 164q-6 16 -59 33t-77 17q-8 0 -8 30t8 36q212 -6 266 -6l282 4q114 0 201 -37t135 -75q108 -86 108 -240zM576 1220q-84 0 -116 -14q-22 -10 -24 -208v-230
q0 -44 34 -58t94 -14h52q74 0 133 70t59 182q0 272 -232 272z" />
    <glyph glyph-name="S" unicode="S" horiz-adv-x="948" 
d="M76 980q0 150 126 253t284 103q93 0 191 -25q99 -25 127 -31q24 -136 24 -308q-4 -18 -24 -18q-54 0 -58 18q-12 92 -86 180t-173 88t-148 -52t-49 -129t28 -112t41 -52t50 -43t50 -36t60 -39t57 -33q12 -10 67 -43t77 -48q91 -62 125 -119q51 -86 51 -186
q0 -160 -129 -264t-299 -104q-120 0 -368 56q-18 72 -33 181t-15 143q2 16 43 16t47 -16q18 -80 83 -171q79 -111 237 -111q84 0 146 56t62 169t-148 207q-49 31 -126 74q-6 6 -43 29t-67 43q-104 69 -157 144q-53 76 -53 180z" />
    <glyph glyph-name="T" unicode="T" horiz-adv-x="1328" 
d="M1236 1024q-28 0 -32 10q-28 110 -74 149t-144 39q-186 0 -194 -34q-18 -58 -18 -188v-722q0 -108 18 -174q2 -14 54 -29t70 -15q8 0 8 -28t-4 -40q-182 14 -274 14t-246 -14q-8 8 -8 38t8 30q24 0 75 14t57 30q16 54 16 166v724q0 166 -18 194q-16 34 -190 34
q-98 0 -144 -39t-76 -147q-2 -12 -30 -12t-42 16l38 304q88 -20 138 -20l438 -12l440 12q50 0 138 20l38 -306q-14 -14 -42 -14z" />
    <glyph glyph-name="U" unicode="U" horiz-adv-x="1466" 
d="M1416 1285q0 -25 -8 -25q-28 0 -86 -15t-76 -41q-22 -50 -22 -166v-470q0 -439 -305 -542q-89 -30 -203 -30q-240 0 -378 145t-138 467v436q0 128 -16 168q-8 16 -56 31t-72 15q-8 0 -8 30t6 36q254 -12 278 -12t244 12q4 -16 4 -41t-8 -25q-18 0 -72 -15t-56 -31
q-16 -60 -16 -176v-460q0 -206 89 -329t245 -123t249 101t93 335v488q0 122 -20 160q-12 18 -71 35t-85 17q-8 0 -9 28t5 36q216 -14 252 -14l236 14q4 -14 4 -39z" />
    <glyph glyph-name="V" unicode="V" horiz-adv-x="1430" 
d="M576 1287q0 -29 -8 -29q-52 0 -88 -22t-36 -54t152 -404q75 -200 162 -374l26 -48l292 690q40 94 40 134t-47 59t-95 19q-8 0 -7 29t5 37l222 -12q38 0 218 12q4 -10 4 -37t-4 -27q-26 0 -69 -15t-67 -43q-30 -48 -86 -176l-416 -974q-30 -72 -78 -72q-20 0 -32 20
l-412 1024q-46 120 -76 178q-14 26 -62 41t-76 15q-8 0 -8 29t6 37l260 -12q28 0 274 12q6 -8 6 -37z" />
    <glyph glyph-name="W" unicode="W" horiz-adv-x="2156" 
d="M1921 1312q51 0 219 12q4 -14 4 -39t-8 -25q-24 0 -69 -17t-67 -39q-54 -62 -116 -190l-458 -970q-16 -32 -37 -48t-35 -16t-22 8l-244 492l-228 -436q-16 -32 -44 -54t-48 -2l-530 1052q-56 112 -104 174q-16 20 -55 32t-63 12q-8 0 -8 30t6 36q254 -12 272 -12t238 12
q10 -62 -4 -66q-41 0 -68 -18q-28 -18 -28 -50t36 -100l392 -774q6 -10 15 -5t13 13l146 284l-214 432q-60 122 -90 156q-55 62 -128 62q-8 0 -8 30t6 36q252 -12 266 -12t234 12q4 -12 5 -38t-5 -28q-45 0 -71 -19q-25 -19 -25 -47t36 -100l122 -250l118 242q36 72 36 109
t-49 52t-85 15q-8 0 -8 28t6 36q176 -12 235 -12t215 12q4 -12 4 -37t-6 -27q-24 0 -73 -18t-81 -55t-102 -175l-146 -296l194 -396q12 -20 26 10q40 94 188 406t173 366t25 90t-48 52t-80 16q-8 0 -9 28t7 36q176 -12 227 -12z" />
    <glyph glyph-name="X" unicode="X" horiz-adv-x="1504" 
d="M404 1312q52 0 272 12q2 -8 2 -37t-6 -29q-34 0 -74 -13t-40 -41q0 -20 20 -52l226 -342q18 24 66 84q91 114 151 194q59 80 59 108q0 22 -45 42t-99 20q-8 0 -9 29t7 37q204 -12 240 -12t256 12q4 -8 4 -37t-6 -29q-30 0 -95 -17t-91 -51l-376 -476q374 -560 382 -572
q32 -42 87 -62t97 -20q8 0 8 -28t-4 -40q-220 12 -274 12t-282 -12q-8 8 -7 38t9 30q26 0 70 15t44 41q0 10 -8 22l-280 426q-304 -406 -304 -444q0 -22 41 -41t101 -19q10 0 10 -30t-4 -38q-194 12 -235 12t-261 -12q-8 18 -8 43t8 25q28 0 89 15t87 45l408 546l-274 418
q-72 114 -120 144t-110 30q-6 0 -6 29t6 37q216 -12 268 -12z" />
    <glyph glyph-name="Y" unicode="Y" horiz-adv-x="1314" 
d="M642 6q-88 0 -242 -14q-8 8 -8 36t6 28q24 0 74 16t56 32q16 58 16 176v296q0 25 -90 185t-165 297q-75 136 -121 166q-20 14 -59 25t-57 11q-6 0 -7 20t3 28q48 4 174 4t366 12q4 -8 3 -36t-7 -28q-32 0 -72 -14t-40 -42q0 -18 18 -52l212 -388q10 -10 20 4
q86 128 166 264t80 165t-37 46t-97 17q-8 0 -8 28t6 36q202 -12 265 -12t195 12q4 -16 4 -40t-8 -24q-30 0 -83 -18t-77 -48q-58 -86 -208 -329t-150 -269v-312q0 -118 16 -180q4 -14 55 -31t67 -17q8 0 8 -26t-4 -38q-182 14 -270 14z" />
    <glyph glyph-name="Z" unicode="Z" horiz-adv-x="1244" 
d="M448 1312h218q162 0 442 20q6 -2 13 -26t7 -40q-5 -19 -556 -834l-184 -274q-12 -22 -12 -30q0 -20 28 -20h384q236 0 322 238q4 10 35 10t47 -16q-86 -270 -98 -340h-1014q-16 18 -16 47t8 39l752 1122h-384q-72 -2 -120 -16t-78 -51t-46 -72t-36 -101q-4 -10 -40 -10
t-48 14q50 250 62 356q20 -6 147 -11t167 -5z" />
    <glyph glyph-name="bracketleft" unicode="[" horiz-adv-x="550" 
d="M106 1512q194 0 390 30q12 0 12 -35t-27 -49t-93 -28t-122 -14q-14 0 -14 -18v-1498q0 -16 14 -16q100 0 216 -50q20 -8 20 -45t-12 -37q-228 36 -384 36q-36 0 -36 46v1630q0 48 36 48z" />
    <glyph glyph-name="backslash" unicode="\" horiz-adv-x="818" 
d="M774 -16q0 -30 -20 -46t-36 -16l-48 4l-628 1584q16 12 44 12q88 0 108 -44l572 -1452q8 -12 8 -42z" />
    <glyph glyph-name="bracketright" unicode="]" horiz-adv-x="552" 
d="M444 1512q38 0 38 -48v-1630q0 -46 -38 -46q-156 0 -384 -36q-12 0 -12 37t22 45q116 50 214 50q16 0 16 16v1498q0 18 -16 18q-56 0 -121 14t-92 28t-27 49t12 35q196 -30 388 -30z" />
    <glyph glyph-name="asciicircum" unicode="^" horiz-adv-x="776" 
d="M694 944q-26 0 -118 77t-162 159q-62 -80 -156 -158t-120 -78q-18 0 -26 54q2 6 50 51t114 127t110 178q2 4 4 11t4 11t16 4q27 0 47 -48t70 -115q49 -67 89 -109t71 -73t33 -35q0 -10 -8 -33t-18 -23z" />
    <glyph glyph-name="underscore" unicode="_" horiz-adv-x="1170" 
d="M152 26h898q8 0 8 -13t-12 -56t-18 -43h-892q-14 0 -14 20q10 92 30 92z" />
    <glyph glyph-name="grave" unicode="`" horiz-adv-x="494" 
d="M88 1320q0 22 28 38t69 16t59 -18q74 -87 130 -179q56 -91 56 -99t-10 -19t-20 -11q-26 0 -169 111t-143 161z" />
    <glyph glyph-name="a" unicode="a" horiz-adv-x="904" 
d="M464 884q134 0 196 -65t62 -223v-394q0 -40 18 -61t48 -21t68 26q12 -4 12 -33t-12 -49q-95 -76 -176 -76q-46 0 -90 34t-58 74q-71 -71 -171 -99q-39 -11 -79 -11q-100 0 -163 55t-63 151q0 165 257 251q39 13 100 31t85 26q18 8 18 32v110q0 70 -32 110t-89 40t-91 -37
t-34 -91q0 -92 -98 -92q-74 0 -104 48q0 96 131 180t265 84zM386 116q52 0 91 28t39 64v204q-14 -6 -59 -20q-73 -23 -130 -55t-57 -96q0 -65 32 -95t84 -30z" />
    <glyph glyph-name="b" unicode="b" horiz-adv-x="1050" 
d="M520 776q-66 0 -108 -38t-42 -90v-424q0 -70 53 -106t125 -36q104 0 157 94t53 247t-62 253t-176 100zM370 1168v-337q0 -9 4 -9t20 11t69 31t101 20q124 0 223 -63t150 -160t51 -201q0 -196 -139 -335t-321 -139q-84 0 -146 15t-87 15t-59 -14t-40 -14t-29 12t-23 19
t10 82t10 163v816q0 76 -12 136q-10 32 -104 32h-18q-12 0 -12 32t12 32q168 16 275 56q27 10 57 20h4q8 0 16 -11t10 -21q-22 -78 -22 -188z" />
    <glyph glyph-name="c" unicode="c" horiz-adv-x="870" 
d="M788 220q16 -8 16 -31t-12 -39q-30 -54 -118 -108t-196 -54q-178 0 -303 130t-125 315t120 318t314 133q106 0 189 -35t119 -77q0 -68 -23 -113t-65 -45t-65 20t-47 66q-46 92 -133 92t-138 -87t-51 -243t74 -243t191 -87t186 44q19 12 27 17t40 27z" />
    <glyph glyph-name="d" unicode="d" horiz-adv-x="1040" 
d="M504 888q86 0 146 -28q10 0 10 32v188q0 76 -12 136q-10 32 -104 32h-16q-12 0 -12 32t12 32q170 17 249 46q80 30 83 30h4q8 0 16 -11t8 -21q-20 -78 -20 -188v-880q0 -92 12 -148q5 -36 116 -36q4 -4 4 -34t-12 -30q-114 -8 -293 -47l-23 -5q-12 0 -12 34v34q0 6 -3 8
t-5 0q-96 -74 -208 -74q-162 0 -282 119t-120 308t137 330t325 141zM272 451q0 -161 62 -256t174 -95q68 0 110 35t42 89v420q0 43 -24 79q-47 69 -152 69q-104 0 -158 -90t-54 -251z" />
    <glyph glyph-name="e" unicode="e" horiz-adv-x="872" 
d="M788 220q16 -8 16 -31t-12 -39q-30 -54 -118 -108t-198 -54q-174 0 -300 129t-126 322t117 319t297 126q94 0 168 -37t116 -94q86 -117 86 -235q0 -44 -15 -55t-61 -11h-478q-14 0 -14 -12q0 -167 115 -258q63 -50 167 -50t173 44q19 12 27 17t40 27zM450 792
q-48 0 -86 -28t-67 -86t-29 -116q0 -14 12 -14h324q18 0 18 30q0 70 -47 142t-125 72z" />
    <glyph glyph-name="f" unicode="f" horiz-adv-x="698" 
d="M264 6q-88 0 -200 -14q-13 13 -10 41q4 27 10 27q22 0 70 15t52 29q18 70 18 164v460q0 14 -12 14h-120q-4 0 -4 17t28 53t64 36h32q12 0 12 12v20q0 210 125 360t295 150q84 0 139 -21t73 -51q8 -62 -11 -111t-63 -49t-71 33t-57 66t-77 33t-83 -52q-66 -95 -66 -288
v-92q0 -2 4 -6t8 -4h220q8 0 10 -2t2 -29t-24 -75h-208q-12 0 -12 -12v-446q0 -118 16 -180q4 -14 53 -29t67 -15q6 0 7 -29t-3 -39q-12 2 -104 8t-180 6z" />
    <glyph glyph-name="g" unicode="g" horiz-adv-x="954" 
d="M436 880q72 0 166 -26t160 -26h114q4 0 14 -26t10 -47t-12 -21h-130q-8 0 -8 -4t18 -54t18 -96q0 -118 -99 -213t-247 -95q-72 0 -124 8q-24 -10 -44 -37t-20 -48q0 -43 79 -55t228 -15t242 -52t93 -147q2 -150 -144 -260t-338 -110q-146 -2 -255 56t-109 164
q0 58 57 112t123 76q-52 16 -96 61t-44 105q0 86 148 178q-58 26 -108 103t-50 163q0 142 104 224t254 82zM284 581q0 -89 40 -156t113 -67t108 57t35 152t-40 161t-114 66t-108 -62t-34 -151zM712 -166q0 70 -101 93t-271 23q-8 0 -20 -8q-79 -31 -99 -74q-9 -20 -9 -48
q0 -72 76 -120t179 -48t174 52t71 130z" />
    <glyph glyph-name="h" unicode="h" horiz-adv-x="1156" 
d="M1108 -8q-98 14 -221 14t-263 -14q-6 8 -6 38t6 30q24 0 69 15t51 29q12 60 12 146v196q0 166 -45 229t-143 63q-60 0 -110 -34t-50 -76v-344q0 -122 16 -180q4 -14 53 -29t67 -15q6 0 7 -29t-3 -39q-112 14 -243 14t-243 -14q-8 8 -8 38t8 30q24 0 73 15t53 29
q14 60 14 144v832q0 80 -10 136q-10 32 -104 32h-18q-12 0 -12 32t12 32q168 16 275 56q27 10 57 20h4q8 0 16 -11t10 -21q-24 -78 -24 -188v-404q0 -12 5 -12t11 6q42 48 123 87t161 39q256 0 256 -394v-206q0 -122 16 -180q2 -14 53 -29t69 -15q6 0 7 -29t-1 -39z" />
    <glyph glyph-name="i" unicode="i" horiz-adv-x="600" 
d="M410 668v-384q0 -122 16 -180q4 -14 54 -29t68 -15q8 0 9 -29t-3 -39q-14 2 -107 8t-140 6t-138 -6t-105 -8q-8 8 -8 38t8 30q22 0 72 15t54 29q14 60 14 146v326q0 94 -32 129t-94 41q-20 2 -20 6q0 58 12 60q56 4 162 24t133 28t39 10t18 -12t4 -22q-16 -128 -16 -172z
M166 1209q0 51 36 87t88 36t88 -36t36 -87t-36 -88t-88 -37t-88 37t-36 88z" />
    <glyph glyph-name="j" unicode="j" horiz-adv-x="560" 
d="M174 1209q0 51 36 87t88 36t88 -36t36 -87t-36 -88t-88 -37t-88 37t-36 88zM424 668v-480q0 -274 -88 -410q-48 -76 -147 -145t-155 -81q-26 14 -30 38v9q0 7 2 9q210 97 210 536v432q0 94 -32 128q-29 36 -92 42q-20 2 -20 6q0 58 12 60q56 4 162 24t133 28t39 10
t18 -12t4 -22q-16 -136 -16 -172z" />
    <glyph glyph-name="k" unicode="k" horiz-adv-x="1192" 
d="M54 30q0 30 8 30q24 0 73 15t53 29q14 60 14 146v830q0 80 -10 136q-10 32 -104 32h-18q-12 0 -12 32t12 32q168 16 275 56q27 10 57 20h4q8 0 16 -11t10 -21q-24 -78 -24 -188v-668q48 12 60 22q64 56 124 106t89 78t29 50t-45 27t-45 7q-6 14 -6 35t8 23h194
q54 0 212 8q17 -13 12 -40q-6 -26 -12 -26q-72 0 -125 -32t-140 -98t-159 -140q58 -62 198 -221t172 -185t79 -42t67 -16q8 0 8 -28t-2 -34q-220 10 -262 10t-210 -12q-8 8 -8 36t8 28q20 0 46 9t26 19q0 4 -2 4l-292 326l-24 -6v-124q2 -130 16 -180q4 -14 54 -29t70 -15
q6 0 7 -29t-3 -39q-98 14 -238 14t-252 -14q-8 8 -8 38z" />
    <glyph glyph-name="l" unicode="l" horiz-adv-x="590" 
d="M398 1388q8 0 17 -12t11 -20q-24 -76 -24 -188v-880q0 -124 14 -180q4 -14 49 -31t61 -17q6 0 7 -28t-3 -38q-168 12 -228 12t-240 -12q-8 8 -8 37t8 29q22 0 67 17t49 31q16 70 16 148v832q0 76 -12 136q-10 32 -100 32h-20q-12 0 -12 28t12 28q200 19 332 76h4z" />
    <glyph glyph-name="m" unicode="m" horiz-adv-x="1688" 
d="M1100 -8q-98 14 -229 14t-257 -14q-6 8 -6 38t6 30q24 0 72 15t52 29q14 60 14 146v192q0 296 -182 296q-60 0 -110 -34t-50 -76v-344q0 -122 16 -180q4 -14 52 -29t66 -15q8 0 9 -29t-3 -39q-112 14 -243 14t-243 -14q-8 8 -8 38t8 30q22 0 72 15t54 29q14 60 14 146
v326q0 94 -32 128q-28 35 -94 42q-20 2 -20 6q0 58 12 60q113 10 222 37q108 27 111 27h3q26 0 19 -46t-7 -58t3 -13t11 5q48 48 123 84t152 36t131 -39t80 -101q58 60 146 100t174 40q155 0 214 -115q58 -115 58 -275v-210q0 -122 14 -180q4 -14 54 -29t68 -15q6 0 7 -29
t-3 -39q-98 14 -229 14t-257 -14q-6 8 -6 38t6 30q24 0 72 15t52 29q14 60 14 140v204q0 290 -186 290q-66 0 -110 -32t-50 -58t-1 -53t5 -107v-212q0 -114 14 -172q4 -14 54 -29t68 -15q6 0 7 -29t-3 -39z" />
    <glyph glyph-name="n" unicode="n" horiz-adv-x="1168" 
d="M307 6q-131 0 -243 -14q-8 8 -8 38t8 30q24 0 73 15t53 29q14 60 14 146v326q0 94 -32 128q-28 35 -93 42q-19 2 -19 6q0 58 10 60q92 8 208 35t119 28t6 1h5q8 0 14 -14t6 -22q-8 -56 -8 -68t2 -14q2 0 10 6q48 48 123 84t153 36q258 0 258 -410v-190q0 -122 14 -180
q4 -14 55 -29t69 -15q6 0 7 -29t-3 -39q-12 2 -105 8t-171 6t-204 -14q-8 8 -8 38t8 30q22 0 67 15t49 29q16 60 16 146v190q0 166 -45 232t-143 66q-64 0 -112 -35t-48 -75v-344q0 -122 14 -180q4 -14 53 -29t65 -15q8 0 9 -29t-3 -39q-112 14 -243 14z" />
    <glyph glyph-name="o" unicode="o" horiz-adv-x="1014" 
d="M505 884q189 0 322 -131t133 -317t-131 -318t-321 -132t-322 132t-132 319t131 317t320 130zM473 790q-87 0 -139 -91t-52 -235t65 -264t181 -120q94 0 147 92t53 206t-26 203t-84 149t-145 60z" />
    <glyph glyph-name="p" unicode="p" horiz-adv-x="1080" 
d="M552 776q-66 0 -107 -38t-41 -102v-412q0 -66 54 -105t116 -39q92 0 155 84t63 241t-64 264t-176 107zM50 -407q0 29 6 29q24 0 73 15t55 31q12 58 12 144v764q0 96 -32 130q-27 33 -92 40q-20 2 -20 6q0 58 12 60q148 14 316 61q18 5 23 5t5 -25t-4 -41q32 24 89 47
t107 23q128 0 228 -66t148 -160t48 -196q0 -206 -139 -341t-331 -135q-58 0 -142 28q-8 0 -8 -28v-136q0 -124 16 -180q2 -16 53 -31t69 -15q6 0 7 -29t-1 -37l-244 12l-248 -12q-6 8 -6 37z" />
    <glyph glyph-name="q" unicode="q" horiz-adv-x="974" 
d="M520 792q-137 0 -186 -112q-42 -95 -42 -235q0 -139 63 -242t181 -103q52 0 98 31t46 89v420q0 60 -42 106t-118 46zM680 -124v163q0 9 -4 9h-8q-100 -60 -188 -60q-170 0 -294 126t-124 309t138 324t328 141q80 0 146 -15t89 -15t56 13t39 13t30 -12t24 -17t-12 -67
t-12 -188v-766q0 -110 14 -168q4 -14 54 -30t68 -16q8 0 9 -28t-3 -36l-244 12l-246 -12q-8 6 -8 35t8 29q24 0 73 16t53 30q14 60 14 210z" />
    <glyph glyph-name="r" unicode="r" horiz-adv-x="860" 
d="M308 6q-132 0 -244 -14q-8 8 -8 38t8 30q24 0 73 15t53 29q14 60 14 146v326q0 94 -32 128q-28 35 -93 42q-19 2 -19 6q0 58 10 60q92 8 214 36t127 28t11 -14t5 -23t-3 -28t-5 -40t-3 -27q36 54 98 97t126 43q110 0 164 -66q0 -170 -96 -170q-36 0 -78 40t-95 40
t-88 -63t-35 -131v-250q0 -122 14 -180q4 -14 53 -29t67 -15q6 0 7 -29t-1 -39q-112 14 -244 14z" />
    <glyph glyph-name="s" unicode="s" horiz-adv-x="732" 
d="M372 886q120 0 240 -34q20 -90 22 -224q0 -16 -35 -16t-39 16q-14 70 -59 119t-112 49q-133 0 -133 -100q0 -56 43 -91t81 -55t43 -22t31 -16t33 -18t32 -19t35 -23t31 -24t30 -28t24 -31q37 -47 37 -117q0 -126 -97 -199t-228 -73t-265 56q-10 34 -20 111t-10 115
q12 10 43 10t33 -16q16 -84 79 -135t128 -51q137 0 137 110q0 42 -19 65t-28 34t-36 27q-35 21 -90 49q-141 72 -192 133q-51 60 -51 144q0 122 96 188t216 66z" />
    <glyph glyph-name="t" unicode="t" horiz-adv-x="700" 
d="M636 832q0 -48 -20 -88h-240v-482q0 -80 34 -122t88 -42t88 17t36 17q8 2 18 -18t8 -26q-12 -28 -85 -65t-160 -37t-160 67t-73 207v484h-122q-14 0 -14 33t2 37q129 58 263 224l21 26q20 0 38 -5t18 -11v-196l244 -2q16 0 16 -18z" />
    <glyph glyph-name="u" unicode="u" horiz-adv-x="1110" 
d="M928 668v-396q0 -96 16 -140q16 -26 91 -26q15 0 20 -2t5 -33t-16 -31q-68 0 -167 -22t-121 -26l-22 -4q-14 0 -14 32v88q-2 10 -6 10q-46 -50 -122 -90t-151 -40q-140 0 -206 122q-55 102 -55 242v224q0 94 -32 129t-94 41q-20 2 -20 6q0 58 10 60q113 8 338 64
q10 0 15 -14t5 -22q-18 -136 -18 -176v-240q0 -156 44 -224t142 -68q64 0 108 39t44 75v330q0 94 -32 128q-28 35 -94 42q-20 2 -20 6q0 58 12 60q56 4 162 24t133 28t39 10t18 -12t4 -22q-16 -136 -16 -172z" />
    <glyph glyph-name="v" unicode="v" horiz-adv-x="1120" 
d="M516 812q-26 0 -71 -12t-45 -32q0 -14 4 -20l198 -460l180 396q24 52 10 74q-26 54 -140 54q-6 0 -6 28t6 36l211 -12l215 12q6 -8 6 -36t-12 -28q-28 0 -78 -19t-68 -57l-334 -706q-8 -16 -26 -34t-36 -18t-22 12q-40 90 -124 283t-218 483q-24 56 -130 56q-8 0 -8 28
t8 36l242 -12l242 12q6 -8 5 -36t-9 -28z" />
    <glyph glyph-name="w" unicode="w" horiz-adv-x="1630" 
d="M1052 810q-102 0 -102 -70q0 -38 188 -444q32 84 101 250t69 188t-16 39q-35 37 -128 37h-8q-8 0 -9 30t5 36l234 -12l202 12q4 -14 4 -39t-8 -25q-24 0 -79 -25t-69 -61l-296 -706q-8 -16 -27 -29t-39 -13t-26 14l-244 552l-214 -522q-6 -12 -23 -28t-40 -16t-31 14
q-46 104 -138 322t-206 442q-14 26 -52 40t-64 14q-8 0 -8 30t8 36l228 -12l240 12q4 -10 4 -36t-6 -28q-26 0 -69 -14t-43 -42q0 -4 200 -460q22 56 51 127q53 129 77 190t24 88t-20 57t-46 42t-76 12q-8 0 -8 29t8 35l224 -12l232 12q4 -8 3 -37t-7 -29z" />
    <glyph glyph-name="x" unicode="x" horiz-adv-x="1132" 
d="M1058 -8q-210 14 -240 14t-68 -2t-85 -6t-81 -6q-4 20 -4 44t6 24q28 0 58 14t30 34q0 4 -4 12l-144 200l-126 -176q-14 -18 -14 -33t7 -23q11 -13 53 -20q41 -8 58 -8q6 0 6 -30t-8 -38q-30 2 -71 6t-75 6t-72 2t-72 -2t-76 -6t-72 -6q-4 16 -4 42t8 26q130 20 174 76
l214 260q4 8 4 15t-6 15l-230 312q-22 30 -70 51t-82 21q-8 0 -8 27t8 39q220 -12 236 -12t240 12q4 -8 4 -36t-8 -28q-28 0 -56 -11t-28 -31q0 -10 10 -24l126 -178q14 20 73 100t59 99t-17 28t-36 11t-40 3t-26 2t-5 29t8 36q218 -12 232 -12t208 12q4 -14 4 -39t-4 -25
q-136 -16 -176 -64l-212 -248q-4 -8 -4 -18t8 -18l226 -310q60 -84 166 -98q6 0 6 -26t-8 -38z" />
    <glyph glyph-name="y" unicode="y" horiz-adv-x="1048" 
d="M500 837q0 -25 -8 -25q-20 0 -63 -15t-45 -33v-12q4 -32 186 -456q29 65 151 387q11 29 11 56t-32 50t-96 23q-8 0 -8 28t8 36l220 -12l192 12q8 -12 8 -38t-8 -26q-28 0 -81 -20t-69 -60l-366 -884q-124 -292 -298 -292q-52 0 -80 28t-28 72t38 70q208 0 274 164
q48 120 54 136l-292 680q-16 36 -24 46q-20 30 -59 45t-65 15q-8 0 -8 30t6 34l250 -12l228 12q4 -14 4 -39z" />
    <glyph glyph-name="z" unicode="z" horiz-adv-x="862" 
d="M316 109q0 -7 10 -11t14 -4h194q148 0 200 156q6 20 35 20t39 -16l-36 -254h-680q-40 24 -40 46q0 6 2 8l462 698l-212 4q-101 0 -151 -117l-14 -32q-3 -7 -36 -7t-33 4q0 10 14 103t18 153q118 -12 190 -12h244q120 0 252 16q4 -10 4 -48l-460 -680q-16 -20 -16 -27z
" />
    <glyph glyph-name="braceleft" unicode="{" horiz-adv-x="580" 
d="M44 621q0 21 8 35q56 14 88 27t60 46t28 83t-34 161t-34 175q0 160 114 256t254 96q8 0 8 -30t-16 -32q-58 -4 -121 -64t-63 -139t34 -186t34 -197t-54 -163t-110 -73q58 0 111 -70t53 -159t-34 -185t-34 -175t64 -145t120 -70q16 -2 16 -32t-8 -30q-134 0 -249 106
t-115 256q0 60 32 168t32 144t-4 54t-17 31t-21 22t-30 18t-31 13t-38 12t-35 10q-8 16 -8 37z" />
    <glyph glyph-name="bar" unicode="|" horiz-adv-x="290" 
d="M204 1544q16 0 16 -8v-4l2 -1744q0 -8 -64 -20t-76 -12t-12 14v1744q-2 12 10 16q48 14 124 14z" />
    <glyph glyph-name="braceright" unicode="}" horiz-adv-x="578" 
d="M352 424q0 -36 32 -144t32 -168q0 -150 -116 -256t-250 -106q-8 0 -8 29t18 33q56 4 119 70t63 145t-34 175t-34 185t54 159t112 70q-56 0 -110 73t-54 163t33 197t33 186t-63 139t-119 64q-18 2 -18 32t8 30q140 0 255 -96t115 -256q0 -64 -34 -175t-34 -172t45 -93
t129 -52q8 -14 8 -37t-6 -35q-6 -2 -35 -10t-38 -12t-31 -13t-30 -18t-21 -22t-17 -31t-4 -54z" />
    <glyph glyph-name="asciitilde" unicode="~" horiz-adv-x="1040" 
d="M56 562q0 42 48 74q106 76 206 76t242 -52t210 -52t92 12t31 15q9 4 43 29q34 26 40 32q18 -8 18 -49t-46 -75q-100 -76 -202 -76t-244 52t-220 52t-141 -42q-15 -10 -59 -46q-18 8 -18 50z" />
    <glyph glyph-name="uni00A0" unicode="&#xa0;" horiz-adv-x="418" 
 />
    <glyph glyph-name="exclamdown" unicode="&#xa1;" horiz-adv-x="358" 
d="M50 740q0 56 40 96t93 40t90 -41t37 -95t-38 -93t-92 -39t-92 38t-38 94zM181 -462q-49 0 -80 37t-31 82t12 168t31 310t29 321q6 46 36 56q16 2 29 -13t17 -39q14 -162 42 -458t28 -343t-32 -84t-81 -37z" />
    <glyph glyph-name="cent" unicode="&#xa2;" horiz-adv-x="926" 
d="M736 614q-30 0 -51 20t-43 58t-44 58l-100 -617q34 -9 73 -9t77 8t67 22t48 25t38 26t23 15t10 -11t6 -28t-12 -31q-36 -54 -123 -110t-195 -56q-18 0 -36 1l-12 -75q-74 0 -74 18l11 69q-110 27 -192 113q-121 126 -121 316t124 323t310 133h23l11 66q74 0 74 -16
l-9 -58q51 -10 116 -36t93 -70q0 -154 -92 -154zM492 792q-86 0 -137 -85t-51 -244q0 -208 123 -295l101 621q-17 3 -36 3z" />
    <glyph glyph-name="sterling" unicode="&#xa3;" horiz-adv-x="964" 
d="M652 654q12 0 12 -33t-32 -53h-235q3 -32 3 -50q0 -198 -88 -330q44 16 113 16t172 -30t130 -30t46 7q50 18 107 133q12 0 24 -13t12 -27t-9 -43t-32 -76t-77 -94t-121 -47t-196 36t-161 36t-50 -5t-31 -9t-30 -14t-24 -15t-24 -17l-17 -12q-24 2 -38 18t-14 28
q33 54 100 134q28 64 28 304q0 23 -9 100h-105q-10 0 -10 34t12 52h92q-20 152 -20 208q0 184 112 299t280 115q66 0 122 -21t78 -57q0 -76 -24 -110t-55 -34q-56 0 -94 65t-91 65q-82 0 -115 -68t-33 -188q0 -35 29 -274h263z" />
    <glyph glyph-name="currency" unicode="&#xa4;" horiz-adv-x="936" 
d="M846 609q0 -119 -76 -221l100 -104q8 -8 -5 -26t-39 -36t-48 -24l-100 106q-96 -64 -218 -64t-224 76l-106 -98q-8 -8 -26 5q-44 32 -58 87l104 98q-60 90 -60 213t78 227l-102 108q-8 8 5 26q32 44 87 58l102 -108q92 62 211 62t223 -78l110 104q8 8 26 -5t36 -39
t24 -48l-110 -102q66 -98 66 -217zM478 316q88 0 132 77t44 197t-54 223t-142 103t-132 -79t-44 -200t54 -221t142 -100z" />
    <glyph glyph-name="yen" unicode="&#xa5;" horiz-adv-x="1346" 
d="M615 6q-85 0 -225 -14q-8 8 -8 36t6 28q24 0 73 16t55 32q16 56 16 168h-162q-10 0 -10 29t12 53h160v76h-162q-10 0 -10 29t12 53h160v48q-6 23 -50 101q-44 79 -111 200t-107 187q-50 94 -96 136q-44 36 -116 36q-6 0 -7 20t3 28q48 4 170 4t358 12q4 -8 4 -36t-8 -28
q-30 0 -70 -13t-40 -39q0 -20 18 -52l208 -384q12 -10 20 4q86 128 164 261t78 171q0 20 -36 36t-94 16q-8 0 -9 28t7 36q198 -12 229 -12t235 12q6 -16 6 -40t-8 -24q-32 0 -91 -17t-81 -47q-58 -86 -205 -325t-147 -265v-54h160q12 0 12 -31t-12 -51h-160v-76h160
q12 0 12 -32t-12 -50h-160q0 -112 16 -168q2 -14 52 -31t68 -17q8 0 8 -26t-4 -38q-6 2 -101 8t-180 6z" />
    <glyph glyph-name="brokenbar" unicode="&#xa6;" horiz-adv-x="286" 
d="M202 504q16 0 16 -8v-4l2 -704q0 -8 -64 -20t-76 -12t-12 14v704q-2 12 10 16q48 14 124 14zM202 1544q16 0 16 -8v-4l2 -704q0 -8 -64 -20t-76 -12t-12 14v704q-2 12 10 16q48 14 124 14z" />
    <glyph glyph-name="section" unicode="&#xa7;" horiz-adv-x="788" 
d="M622 463q0 61 -51 117t-116 87q-191 91 -249 193q-40 -32 -40 -102t49 -124t113 -83t139 -80t111 -113q44 44 44 105zM566 1100q-26 0 -80 52t-103 52t-87 -25t-38 -86t49 -108t119 -81t141 -72t120 -109t49 -167t-41 -166t-85 -102q26 -58 26 -108q0 -98 -53 -161
t-115 -82t-130 -19t-118 22t-68 48l-2 32q0 96 64 96q32 0 86 -50t105 -50t86 28t35 86t-49 106t-119 82t-140 74t-119 112t-49 172q0 168 122 256q-24 42 -24 104q0 128 86 197t212 69q68 0 117 -23t67 -51l4 -32q0 -96 -68 -96z" />
    <glyph glyph-name="dieresis" unicode="&#xa8;" horiz-adv-x="732" 
d="M54 1028q0 48 34 83t82 35t83 -35t35 -83t-35 -82t-83 -34t-82 34t-34 82zM458 1028q0 48 34 83t82 35t83 -35t35 -83t-35 -82t-83 -34t-82 34t-34 82z" />
    <glyph glyph-name="copyright" unicode="&#xa9;" horiz-adv-x="1200" 
d="M602 394q-120 0 -200 82t-80 199t80 203t194 86t214 -32q2 0 13 -60t11 -70t-18 -10t-26 4q-6 20 -20 40t-55 42t-108 22t-112 -62t-45 -156t54 -160t149 -66t128 60q9 16 14 26t7 10q32 0 36 -8q0 -12 -14 -59t-26 -53q-76 -38 -196 -38zM54 684q0 226 160 386t386 160
t387 -160t161 -386t-161 -386t-387 -160t-386 160t-160 386zM130 684q0 -194 138 -332t333 -138t333 137t138 333t-138 333t-333 137t-333 -138t-138 -332z" />
    <glyph glyph-name="ordfeminine" unicode="&#xaa;" horiz-adv-x="660" 
d="M510 644q0 -64 46 -64q24 0 34 10t15 10t5 -13t-10 -43q-60 -44 -105 -44t-74 23t-39 49l-18 -12q-73 -64 -152 -64q-78 0 -118 42t-40 95t19 82t59 51t70 33t85 27t68 21t13 23v82q0 44 -22 70t-59 26t-63 -28t-26 -76q0 -40 -67 -40t-67 44q0 56 85 110t177 54t138 -44
t46 -148v-276zM368 650v136q-10 -4 -50 -17t-59 -21t-38 -29t-19 -55t22 -56t56 -22t61 20t27 44z" />
    <glyph glyph-name="guillemotleft" unicode="&#xab;" horiz-adv-x="940" 
d="M478 846q58 -16 58 -48q0 -16 -134 -142l-162 -160q8 -8 75 -78t137 -137t76 -77t6 -16q0 -22 -58 -42q-10 20 -145 122t-267 186q-14 6 -14 35t16 47q205 122 394 292zM836 846q58 -16 58 -47q0 -15 -136 -143l-160 -160q8 -8 76 -78t138 -137t75 -77t5 -16
q0 -22 -58 -42q-10 20 -145 122t-267 186q-14 6 -14 35t16 47q177 105 339 244q35 30 53 48z" />
    <glyph glyph-name="logicalnot" unicode="&#xac;" horiz-adv-x="1070" 
d="M86 848h892q24 0 24 -24v-486q-18 -18 -108 -30h-8l-12 14v378q0 6 -7 13t-17 7h-782q-12 0 -12 20q10 108 30 108z" />
    <glyph glyph-name="registered" unicode="&#xae;" horiz-adv-x="1198" 
d="M54 808q0 226 160 386t386 160t387 -160t161 -386t-161 -386t-387 -160t-386 160t-160 386zM130 808q0 -194 138 -332t333 -138t333 137t138 333t-138 333t-333 137t-333 -138t-138 -332zM668 932q0 54 -23 83t-60 29t-47 -2t-10 -90v-102q0 -26 29 -29q11 -1 37 -1
t50 30q24 28 24 82zM786 942q0 -50 -24 -91t-64 -57q-8 -4 -4 -14q34 -90 120 -182q50 -56 92 -56q4 -8 4 -15t-2 -11q-6 -2 -24 -2q-142 0 -238 134q-20 28 -48 73t-37 51t-21 6t-12 -14v-122q2 -56 8 -80q2 -6 22 -13t28 -7q4 0 4 -11t-2 -15q-102 6 -122 6l-120 -6
q-2 2 -2 14t2 12q10 0 31 7t23 13q6 20 6 74v336q0 52 -6 72q-2 6 -23 13t-31 7q-2 0 -2 13t2 15l120 -8l122 6q72 0 135 -34t63 -114z" />
    <glyph glyph-name="macron" unicode="&#xaf;" horiz-adv-x="768" 
d="M136 1086q0 16 7 63t21 47h458q10 0 10 -30t-9 -64t-19 -38h-456q-12 6 -12 22z" />
    <glyph glyph-name="degree" unicode="&#xb0;" horiz-adv-x="468" 
d="M36 1072q0 80 58 138t140 58t139 -58t57 -139t-58 -139t-139 -58t-139 59t-58 139zM118 1072q0 -48 34 -82t82 -34t81 34t33 82t-33 81t-81 33t-82 -33t-34 -81z" />
    <glyph glyph-name="plusminus" unicode="&#xb1;" horiz-adv-x="1064" 
d="M468 218v390q0 10 -12 10h-390q-12 0 -12 32t10 64t16 32h378q10 0 10 12v372q-2 10 10 14q54 16 98 16l20 -12v-392q0 -10 8 -10h392q16 0 16 -12q0 -30 -11 -70t-14 -43t-7 -3h-376q-8 0 -8 -6v-376q-12 -17 -116 -34q-12 0 -12 16zM980 8h-914q-12 0 -12 32t10 64
t16 32h916q16 0 16 -12q0 -30 -11 -70t-14 -43t-7 -3z" />
    <glyph glyph-name="uni00B2" unicode="&#xb2;" horiz-adv-x="656" 
d="M78 1141q0 11 2 15q32 48 102 92t155 44t148 -62t63 -139t-28 -138q-53 -115 -308 -313q-4 -4 -2 -8t6 -4h250q52 0 70 27q6 9 14 29t11 26t21 6t26 -10q-8 -26 -48 -198h-484q-24 20 -24 36t4 32q92 96 152 165t118 163t58 147t-31 91t-89 38t-146 -88q-8 -2 -24 18
t-16 31z" />
    <glyph glyph-name="uni00B3" unicode="&#xb3;" horiz-adv-x="588" 
d="M324 1292q64 0 120 -39t56 -109q0 -104 -140 -188q50 0 113 -58t63 -150q0 -128 -94 -192t-218 -64t-168 48q-4 8 -4 30t20 42t46 20t64 -34t86 -34t92 45t44 127q0 148 -142 148q-8 0 -74 -6q-16 16 -16 35t12 25q168 36 168 170q0 38 -27 61t-66 23t-85 -38t-54 -38
t-20 24t-8 32q34 50 101 85t131 35z" />
    <glyph glyph-name="acute" unicode="&#xb4;" horiz-adv-x="494" 
d="M430 1320q0 -50 -143 -161t-169 -111q-10 0 -20 11t-10 19t56 99t130 179q18 18 59 18t69 -16t28 -38z" />
    <glyph glyph-name="uni00B5" unicode="&#xb5;" horiz-adv-x="1026" 
d="M180 884q18 0 67 -29t49 -47q0 -108 -40 -296l-12 -66q0 -124 31 -208t85 -84q162 0 228 300v390q8 12 33 26t43 14t73 -29t55 -47q0 -100 -46 -316l-10 -46q0 -221 52 -278q22 -24 56 -24t69 22t51 40q8 0 18 -17t10 -37q-20 -66 -73 -113t-116 -46t-104 77t-55 186
q-54 -124 -122 -199t-162 -75q-30 0 -45 11t-23 17t-17 21t-13 22q-7 12 -22 51q-16 39 -16 48q0 -337 44 -566q-10 -14 -32 -27t-44 -13t-72 28t-50 46q0 64 13 360t29 428l-8 188v248q8 12 33 26t43 14z" />
    <glyph glyph-name="paragraph" unicode="&#xb6;" horiz-adv-x="936" 
d="M552 670q0 -10 23 -10t44 7t21 17q0 460 -4 512q0 6 -13 14t-27 8q-40 0 -40 -24q-4 -320 -4 -524zM562 4q-88 0 -244 -12q-4 8 -3 34t7 26q18 0 63 15t49 29q10 42 10 270v174q0 14 -40 14q-162 0 -257 114t-95 275t111 261t249 100l222 -8q86 0 206 8l28 4q8 -8 6 -35
t-10 -27q-26 0 -68 -11t-48 -29t-6 -206l2 -302q0 -6 3 -9t7 -1l86 18q8 -16 8 -32q0 -54 -92 -70q-10 -4 -10 -10q0 -446 14 -498q6 -16 50 -30t68 -14q8 0 8 -26t-8 -34q-228 12 -316 12zM598 80q14 0 24 9t14 59t4 418q0 8 -6 8t-14 -2t-23 -4l-30 -4t-15 -16l4 -442
q0 -26 42 -26z" />
    <glyph glyph-name="periodcentered" unicode="&#xb7;" horiz-adv-x="440" 
d="M364 534q0 -54 -39 -95t-94 -41t-95 41t-40 95t40 94t95 40t94 -40t39 -94z" />
    <glyph glyph-name="cedilla" unicode="&#xb8;" horiz-adv-x="886" 
d="M490 -54q42 0 70 -30t28 -70q0 -70 -54 -112t-124 -42t-94 24q-6 24 -6 33t8 18t14 9t35 -14t60 -14t52 18t21 45t-16 44t-41 17t-55 -12q-4 0 -15 11t-9 17q53 96 60 106h54l-32 -50q36 2 44 2z" />
    <glyph glyph-name="uni00B9" unicode="&#xb9;" horiz-adv-x="546" 
d="M70 534q0 26 6 26q20 0 60 9t46 19q18 36 18 64v396q0 80 -32 80q-8 0 -94 -32q-28 10 -28 31t2 23q209 96 258 123q50 27 52 27h2q6 0 17 -18t13 -26q-24 -72 -24 -164v-420q0 -50 20 -84q8 -10 47 -19t53 -9q8 0 8 -24t-4 -32l-200 8l-214 -8q-6 4 -6 30z" />
    <glyph glyph-name="ordmasculine" unicode="&#xba;" horiz-adv-x="736" 
d="M370 1108q132 0 223 -91t91 -217t-91 -216t-223 -90t-224 90t-92 217t92 217t224 90zM363 1046q-77 0 -111 -65t-34 -163t41 -181t117 -83t109 65t33 163t-39 181t-116 83z" />
    <glyph glyph-name="guillemotright" unicode="&#xbb;" horiz-adv-x="946" 
d="M408 798q0 32 58 48l18 -18q189 -170 394 -292q16 -18 16 -47t-14 -35q-241 -154 -373 -271q-37 -33 -39 -37q-58 20 -58 42q0 16 82 96q56 50 130 127t82 85l-162 160q-134 126 -134 142zM50 799q0 31 58 47l20 -18q80 -80 199 -164t193 -128q16 -18 16 -47t-14 -35
q-241 -154 -373 -271q-37 -33 -39 -37q-58 20 -58 40t60 77t75 71t83 84t76 78l-160 160q-136 128 -136 143z" />
    <glyph glyph-name="onequarter" unicode="&#xbc;" horiz-adv-x="1360" 
d="M1061 1292q17 0 42 -20t25 -32v-2q-2 -2 -2 -4l-696 -1262q-4 -4 -18 -4t-39 20t-25 28v6l694 1264q2 6 19 6zM888 314h184q6 0 6 4v250l-22 -26q-22 -26 -44 -54l-132 -160q-2 -2 1 -8t7 -6zM1316 224q0 -4 -8 -12h-64q-8 0 -8 -10v-200q-10 -10 -84 -10t-74 16v200
q-2 8 -10 8h-306q-22 14 -22 48l420 514q14 18 45 18t31 -16v-460q0 -8 12 -8h44q24 0 24 -88zM68 534q0 26 6 26q20 0 60 9t46 19q18 36 18 64v396q0 80 -32 80q-8 0 -94 -32q-28 10 -28 31t2 23q209 96 258 123q50 27 52 27h2q6 0 17 -18t13 -26q-24 -72 -24 -164v-420
q0 -50 20 -84q8 -10 47 -19t53 -9q8 0 8 -24t-4 -32l-200 8l-214 -8q-6 4 -6 30z" />
    <glyph glyph-name="onehalf" unicode="&#xbd;" horiz-adv-x="1410" 
d="M1032 1292q16 0 41 -20t25 -32l-2 -2v-4l-696 -1262q-4 -4 -18 -4t-39 20t-25 28v6l694 1264q4 6 20 6zM68 534q0 26 6 26q20 0 60 9t46 19q18 36 18 64v396q0 80 -32 80q-8 0 -94 -32q-28 10 -28 31t2 23q209 96 258 123q50 27 52 27h2q6 0 17 -18t13 -26
q-24 -72 -24 -164v-420q0 -50 20 -84q8 -10 47 -19t53 -9q8 0 8 -24t-4 -32l-200 8l-214 -8q-6 4 -6 30zM836 633q0 11 2 15q32 48 101 92t154 44t148 -62t63 -139t-28 -138q-53 -115 -308 -313q-4 -4 -2 -10t6 -6h252q48 0 71 29q7 9 14 30t10 27t21 6t26 -10
q-18 -56 -50 -198h-482q-24 20 -24 36t4 32q326 340 326 484q0 44 -30 82t-88 38t-146 -88q-8 -2 -24 18t-16 31z" />
    <glyph glyph-name="threequarters" unicode="&#xbe;" horiz-adv-x="1382" 
d="M910 314h184q6 0 6 4v250l-22 -26q-22 -26 -46 -54l-130 -160q-2 -2 1 -8t7 -6zM1338 224q0 -7 -10 -12h-62q-8 0 -8 -10v-200q-10 -10 -84 -10t-74 16v200q-2 8 -10 8h-306q-22 14 -22 48l420 514q14 18 45 18t31 -16v-460q0 -8 12 -8h44q24 0 24 -88zM318 1292
q64 0 119 -39t55 -109q0 -106 -138 -188q58 0 129 -49t71 -139q0 -128 -107 -202t-231 -74t-168 48q-2 4 -2 28t19 44t45 20t64 -34t86 -34t93 45t45 127q0 148 -144 148q-8 0 -74 -6q-14 14 -14 34t10 26q166 36 166 170q0 38 -26 61t-60 23t-64 -19t-49 -38t-27 -19
t-21 24t-9 32q34 50 101 85t131 35zM1084 1292q16 0 41 -20t25 -32l-2 -2v-4l-696 -1262q-4 -4 -18 -4t-39 20t-25 28v6l694 1264q4 6 20 6z" />
    <glyph glyph-name="questiondown" unicode="&#xbf;" horiz-adv-x="650" 
d="M336 740q0 54 39 95t94 41t95 -41t40 -95t-40 -94t-95 -40t-94 40t-39 94zM602 -331q0 -41 -12 -81q-52 -24 -90 -24q-180 0 -317 102t-137 266q0 128 56 200t186 135q130 62 138 101q6 16 6 58t4 52q14 22 52 22q28 0 28 -136t-23 -177q-33 -60 -151 -121
q-46 -24 -77 -44t-58 -56t-27 -86t42 -90t100 -40l160 20q48 0 84 -30t36 -71z" />
    <glyph glyph-name="Agrave" unicode="&#xc0;" horiz-adv-x="1472" 
d="M816 1490q0 -12 -8 -23t-16 -11q-38 0 -199 80t-161 128q0 30 32 48t66 18t46 -6q58 -44 149 -133t91 -101zM684 570q72 0 166 6l4 8l-152 400l-164 -400q0 -8 4 -8q70 -6 142 -6zM54 31q0 29 4 29q24 0 77 17t67 39q38 60 76 156l372 900q46 120 68 139t38 19t26 -10
l420 -1048q30 -80 60 -146q12 -30 64 -48t76 -18q8 0 8 -30t-4 -36q-240 12 -253 12t-259 -12q-8 8 -8 37t8 29q24 0 66 12t49 26t7 41t-38 125l-70 186q-12 12 -153 12t-261 -6q-12 0 -12 -8l-76 -186q-38 -104 -38 -130t20 -39t65 -23t61 -10q6 -2 6 -28t-4 -38l-230 12
q-44 0 -224 -12q-8 8 -8 37z" />
    <glyph glyph-name="Aacute" unicode="&#xc1;" horiz-adv-x="1472" 
d="M638 1490q0 12 91 101t149 133q12 6 46 6t66 -18t32 -48q0 -48 -161 -128t-199 -80q-8 0 -16 11t-8 23zM684 570q72 0 166 6l4 8l-152 400l-164 -400q0 -8 4 -8q70 -6 142 -6zM54 31q0 29 4 29q24 0 77 17t67 39q38 60 76 156l372 900q46 120 68 139t38 19t26 -10
l420 -1048q30 -80 60 -146q12 -30 64 -48t76 -18q8 0 8 -30t-4 -36q-240 12 -253 12t-259 -12q-8 8 -8 37t8 29q24 0 66 12t49 26t7 41t-38 125l-70 186q-12 12 -153 12t-261 -6q-12 0 -12 -8l-76 -186q-38 -104 -38 -130t20 -39t65 -23t61 -10q6 -2 6 -28t-4 -38l-230 12
q-44 0 -224 -12q-8 8 -8 37z" />
    <glyph glyph-name="Acircumflex" unicode="&#xc2;" horiz-adv-x="1472" 
d="M958 1456q-38 0 -224 120q-48 -34 -127 -77t-98 -43t-19 38q2 2 86 75t134 141q16 18 25 18t46 -44t65 -71t60 -56t51 -45t21 -18q0 -38 -20 -38zM684 570q72 0 166 6l4 8l-152 400l-164 -400q0 -8 4 -8q70 -6 142 -6zM54 31q0 29 4 29q24 0 77 17t67 39q38 60 76 156
l372 900q46 120 68 139t38 19t26 -10l420 -1048q30 -80 60 -146q12 -30 64 -48t76 -18q8 0 8 -30t-4 -36q-240 12 -253 12t-259 -12q-8 8 -8 37t8 29q24 0 66 12t49 26t7 41t-38 125l-70 186q-12 12 -153 12t-261 -6q-12 0 -12 -8l-76 -186q-38 -104 -38 -130t20 -39t65 -23
t61 -10q6 -2 6 -28t-4 -38l-230 12q-44 0 -224 -12q-8 8 -8 37z" />
    <glyph glyph-name="Atilde" unicode="&#xc3;" horiz-adv-x="1472" 
d="M366 1476q-16 0 -16 36t36 90q74 92 156 92t192 -61t182 -61q36 0 85 51t53 51q14 0 14 -38t-34 -90q-68 -90 -152 -90t-194 61t-182 61q-42 0 -110 -77q-22 -25 -30 -25zM684 570q72 0 166 6l4 8l-152 400l-164 -400q0 -8 4 -8q70 -6 142 -6zM54 31q0 29 4 29
q24 0 77 17t67 39q38 60 76 156l372 900q46 120 68 139t38 19t26 -10l420 -1048q30 -80 60 -146q12 -30 64 -48t76 -18q8 0 8 -30t-4 -36q-240 12 -253 12t-259 -12q-8 8 -8 37t8 29q24 0 66 12t49 26t7 41t-38 125l-70 186q-12 12 -153 12t-261 -6q-12 0 -12 -8l-76 -186
q-38 -104 -38 -130t20 -39t65 -23t61 -10q6 -2 6 -28t-4 -38l-230 12q-44 0 -224 -12q-8 8 -8 37z" />
    <glyph glyph-name="Adieresis" unicode="&#xc4;" horiz-adv-x="1472" 
d="M428 1580q0 52 36 88t88 36t88 -36t36 -88t-36 -88t-88 -36t-88 36t-36 88zM840 1580q0 52 36 88t88 36t88 -36t36 -88t-36 -88t-88 -36t-88 36t-36 88zM684 570q72 0 166 6l4 8l-152 400l-164 -400q0 -8 4 -8q70 -6 142 -6zM54 31q0 29 4 29q24 0 77 17t67 39
q38 60 76 156l372 900q46 120 68 139t38 19t26 -10l420 -1048q30 -80 60 -146q12 -30 64 -48t76 -18q8 0 8 -30t-4 -36q-240 12 -253 12t-259 -12q-8 8 -8 37t8 29q24 0 66 12t49 26t7 41t-38 125l-70 186q-12 12 -153 12t-261 -6q-12 0 -12 -8l-76 -186q-38 -104 -38 -130
t20 -39t65 -23t61 -10q6 -2 6 -28t-4 -38l-230 12q-44 0 -224 -12q-8 8 -8 37z" />
    <glyph glyph-name="Aring" unicode="&#xc5;" horiz-adv-x="1472" 
d="M54 31q0 29 4 29q24 0 77 17t67 39q38 60 76 156l372 900q46 120 74 144q10 9 21 12q-73 2 -128 57t-55 133t55 132t132 54t131 -54t54 -132t-51 -130t-116 -59q8 -2 15 -9l420 -1048q30 -80 60 -146q12 -30 64 -48t76 -18q8 0 8 -30t-4 -36q-240 12 -253 12t-259 -12
q-8 8 -8 37t8 29q24 0 66 12t49 26t7 41t-38 125l-70 186q-12 12 -153 12t-261 -6q-12 0 -12 -8l-76 -186q-38 -104 -38 -130t20 -39t65 -23t61 -10q6 -2 6 -28t-4 -38l-230 12q-44 0 -224 -12q-8 8 -8 37zM642 1517q0 -45 32 -77t76 -32t75 32t31 78t-31 77t-76 31t-76 -32
t-31 -77zM684 570q72 0 166 6l4 8l-152 400l-164 -400q0 -8 4 -8q70 -6 142 -6z" />
    <glyph glyph-name="AE" unicode="&#xc6;" horiz-adv-x="1828" 
d="M253 0q-87 0 -243 -12q-6 6 -2 33t14 27q22 0 78 21t74 43q52 60 110 156l566 900q10 16 10 25t-6 21t-41 23t-59 11q-8 0 -8 30t8 38q120 -8 254 -8l646 16q8 -60 32 -167t26 -117q-10 -10 -37 -10t-33 14q-66 178 -256 178h-104q-148 0 -152 -26q-12 -56 -12 -162v-314
q0 -12 72 -12h158q86 0 108 10t31 55t15 65q2 14 31 14t39 -10v-378q-8 -8 -36 -8t-34 16q-26 99 -39 108q-3 2 -23 15t-171 13t-151 -16v-310q0 -110 18 -162q10 -26 136 -26h74q156 0 238 42q32 16 72 70t62 122q2 12 37 12t47 -12q-12 -36 -56 -157t-52 -181l-684 10
l-256 -12q-8 8 -8 40t8 32q26 0 72 12t52 28q14 54 14 166v180q-4 8 -10 8q-64 4 -143 4t-199 -6q-14 0 -14 -8l-116 -186q-60 -100 -66 -128t11 -44t57 -26t58 -10q6 -2 1 -26t-11 -36q-120 12 -207 12zM892 992q0 8 -9 8t-15 -12l-254 -408q-2 -8 2 -8q68 -6 110 -6
q122 0 144 7t22 19v400z" />
    <glyph glyph-name="Ccedilla" unicode="&#xc7;" horiz-adv-x="1278" 
d="M730 -58q48 0 82 -35t34 -81q0 -82 -63 -132t-141 -50t-118 30q-6 30 -6 39t8 19t17 10t43 -16t69 -16t61 21t26 52t-19 52t-48 21t-63 -14q-4 0 -17 13t-11 19q22 37 64 115q-240 13 -419 200t-179 463t190 479t468 203q226 0 472 -54q6 -2 12 -131t6 -160t-48 -31
q-12 0 -28 8q-16 74 -92 160q-42 48 -124 79t-190 31q-196 0 -305 -162t-109 -401t123 -414t347 -175q178 0 282 112q41 45 66 115q24 71 28 71q70 0 78 -18q0 -26 -30 -155t-46 -137q-167 -81 -442 -84l-30 -46h52z" />
    <glyph glyph-name="Egrave" unicode="&#xc8;" horiz-adv-x="1168" 
d="M724 1490q0 -12 -8 -23t-16 -11q-38 0 -199 80t-161 128q0 30 32 48t66 18t46 -6q58 -44 149 -133t91 -101zM991 1034q-27 0 -33 14q-66 178 -256 178h-104q-148 0 -152 -26q-12 -56 -12 -162v-314q0 -12 72 -12h158q86 0 108 10t31 55t15 65q2 14 31 14t39 -10v-378
q-8 -8 -36 -8t-34 16q-26 99 -39 108q-3 2 -23 15t-171 13t-151 -16v-310q0 -110 18 -162q10 -26 136 -26h74q156 0 238 42q32 16 72 70t62 122q2 12 37 12t47 -12q-12 -36 -56 -157t-52 -181q-80 0 -331 6t-353 2l-266 -8q-6 6 -6 36t6 30q26 0 76 13t58 31q14 42 14 182
v756q0 120 -14 164q-6 22 -56 36t-80 14q-8 0 -8 29t8 37q132 -8 266 -8l646 14q8 -60 32 -167t26 -117q-10 -10 -37 -10z" />
    <glyph glyph-name="Eacute" unicode="&#xc9;" horiz-adv-x="1168" 
d="M474 1490q0 12 91 101t149 133q12 6 46 6t66 -18t32 -48q0 -48 -161 -128t-199 -80q-8 0 -16 11t-8 23zM991 1034q-27 0 -33 14q-66 178 -256 178h-104q-148 0 -152 -26q-12 -56 -12 -162v-314q0 -12 72 -12h158q86 0 108 10t31 55t15 65q2 14 31 14t39 -10v-378
q-8 -8 -36 -8t-34 16q-26 99 -39 108q-3 2 -23 15t-171 13t-151 -16v-310q0 -110 18 -162q10 -26 136 -26h74q156 0 238 42q32 16 72 70t62 122q2 12 37 12t47 -12q-12 -36 -56 -157t-52 -181q-80 0 -331 6t-353 2l-266 -8q-6 6 -6 36t6 30q26 0 76 13t58 31q14 42 14 182
v756q0 120 -14 164q-6 22 -56 36t-80 14q-8 0 -8 29t8 37q132 -8 266 -8l646 14q8 -60 32 -167t26 -117q-10 -10 -37 -10z" />
    <glyph glyph-name="Ecircumflex" unicode="&#xca;" horiz-adv-x="1168" 
d="M810 1456q-38 0 -224 120q-48 -34 -127 -77t-98 -43t-19 38q2 2 86 75t134 141q16 18 25 18t46 -44t65 -71t60 -56t51 -45t21 -18q0 -38 -20 -38zM991 1034q-27 0 -33 14q-66 178 -256 178h-104q-148 0 -152 -26q-12 -56 -12 -162v-314q0 -12 72 -12h158q86 0 108 10
t31 55t15 65q2 14 31 14t39 -10v-378q-8 -8 -36 -8t-34 16q-26 99 -39 108q-3 2 -23 15t-171 13t-151 -16v-310q0 -110 18 -162q10 -26 136 -26h74q156 0 238 42q32 16 72 70t62 122q2 12 37 12t47 -12q-12 -36 -56 -157t-52 -181q-80 0 -331 6t-353 2l-266 -8q-6 6 -6 36
t6 30q26 0 76 13t58 31q14 42 14 182v756q0 120 -14 164q-6 22 -56 36t-80 14q-8 0 -8 29t8 37q132 -8 266 -8l646 14q8 -60 32 -167t26 -117q-10 -10 -37 -10z" />
    <glyph glyph-name="Edieresis" unicode="&#xcb;" horiz-adv-x="1168" 
d="M262 1580q0 52 36 88t88 36t88 -36t36 -88t-36 -88t-88 -36t-88 36t-36 88zM674 1580q0 52 36 88t88 36t88 -36t36 -88t-36 -88t-88 -36t-88 36t-36 88zM991 1034q-27 0 -33 14q-66 178 -256 178h-104q-148 0 -152 -26q-12 -56 -12 -162v-314q0 -12 72 -12h158
q86 0 108 10t31 55t15 65q2 14 31 14t39 -10v-378q-8 -8 -36 -8t-34 16q-26 99 -39 108q-3 2 -23 15t-171 13t-151 -16v-310q0 -110 18 -162q10 -26 136 -26h74q156 0 238 42q32 16 72 70t62 122q2 12 37 12t47 -12q-12 -36 -56 -157t-52 -181q-80 0 -331 6t-353 2l-266 -8
q-6 6 -6 36t6 30q26 0 76 13t58 31q14 42 14 182v756q0 120 -14 164q-6 22 -56 36t-80 14q-8 0 -8 29t8 37q132 -8 266 -8l646 14q8 -60 32 -167t26 -117q-10 -10 -37 -10z" />
    <glyph glyph-name="Igrave" unicode="&#xcc;" horiz-adv-x="646" 
d="M346 1490q0 -12 -8 -23t-16 -11q-38 0 -199 80t-161 128q0 30 32 48t66 18t46 -6q58 -44 149 -133t91 -101zM296 6q-44 0 -236 -12q-8 8 -8 37t8 29q24 0 75 14t57 30q16 62 16 168v772q0 120 -16 168q-8 16 -56 31t-72 15q-8 0 -8 31t4 35l266 -12q16 0 256 12
q6 -18 6 -42t-8 -24q-18 0 -72 -16t-58 -30q-16 -62 -16 -176v-752q0 -110 18 -180q4 -14 55 -29t69 -15q8 0 8 -27t-4 -39q-240 12 -284 12z" />
    <glyph glyph-name="Iacute" unicode="&#xcd;" horiz-adv-x="646" 
d="M296 1490q0 12 91 101t149 133q12 6 46 6t66 -18t32 -48q0 -48 -161 -128t-199 -80q-8 0 -16 11t-8 23zM296 6q-44 0 -236 -12q-8 8 -8 37t8 29q24 0 75 14t57 30q16 62 16 168v772q0 120 -16 168q-8 16 -56 31t-72 15q-8 0 -8 31t4 35l266 -12q16 0 256 12q6 -18 6 -42
t-8 -24q-18 0 -72 -16t-58 -30q-16 -62 -16 -176v-752q0 -110 18 -180q4 -14 55 -29t69 -15q8 0 8 -27t-4 -39q-240 12 -284 12z" />
    <glyph glyph-name="Icircumflex" unicode="&#xce;" horiz-adv-x="646" 
d="M544 1456q-38 0 -224 120q-48 -34 -127 -77t-98 -43t-19 38q2 2 86 75t134 141q16 18 25 18t46 -44t65 -71t60 -56t51 -45t21 -18q0 -38 -20 -38zM296 6q-44 0 -236 -12q-8 8 -8 37t8 29q24 0 75 14t57 30q16 62 16 168v772q0 120 -16 168q-8 16 -56 31t-72 15
q-8 0 -8 31t4 35l266 -12q16 0 256 12q6 -18 6 -42t-8 -24q-18 0 -72 -16t-58 -30q-16 -62 -16 -176v-752q0 -110 18 -180q4 -14 55 -29t69 -15q8 0 8 -27t-4 -39q-240 12 -284 12z" />
    <glyph glyph-name="Idieresis" unicode="&#xcf;" horiz-adv-x="646" 
d="M-8 1580q0 52 36 88t88 36t88 -36t36 -88t-36 -88t-88 -36t-88 36t-36 88zM404 1580q0 52 36 88t88 36t88 -36t36 -88t-36 -88t-88 -36t-88 36t-36 88zM296 6q-44 0 -236 -12q-8 8 -8 37t8 29q24 0 75 14t57 30q16 62 16 168v772q0 120 -16 168q-8 16 -56 31t-72 15
q-8 0 -8 31t4 35l266 -12q16 0 256 12q6 -18 6 -42t-8 -24q-18 0 -72 -16t-58 -30q-16 -62 -16 -176v-752q0 -110 18 -180q4 -14 55 -29t69 -15q8 0 8 -27t-4 -39q-240 12 -284 12z" />
    <glyph glyph-name="Eth" unicode="&#xd0;" horiz-adv-x="1436" 
d="M68 1322q134 -6 280 -6h324q178 0 313 -55t218 -147q169 -187 169 -458t-176 -461q-86 -93 -219 -147t-297 -54q-32 0 -150 5q-195 8 -420 -3l-38 -4q-8 8 -8 38t8 30q24 0 75 13t59 31q14 36 14 182v330h-112q-12 0 -12 34t12 50h112v342q0 114 -14 164q-6 16 -59 33
t-77 17q-8 0 -8 30t6 36zM446 616v-340q0 -112 24 -148q18 -16 104 -24t138 -8q200 0 306 147t106 448t-189 448q-99 77 -235 77h-12q-192 0 -217 -33t-25 -123v-360h354q12 0 12 -29t-12 -55h-354z" />
    <glyph glyph-name="Ntilde" unicode="&#xd1;" horiz-adv-x="1506" 
d="M414 1476q-16 0 -16 36t36 90q74 92 156 92t192 -61t182 -61q36 0 85 51t53 51q14 0 14 -38t-34 -90q-68 -90 -152 -90t-194 61t-182 61q-42 0 -110 -77q-22 -25 -30 -25zM264 6q-46 0 -202 -12q-8 8 -8 37t8 29q34 0 91 15t73 45q20 42 20 168v784q0 108 -22 146
q-8 14 -69 26t-89 12q-8 0 -9 30t7 38q210 -10 257 -10t161 10q67 -127 329 -471q263 -345 327 -433q4 24 4 82v544q0 106 -20 160q-10 24 -67 38t-89 14q-8 0 -9 29t5 37q214 -14 252 -14l236 14q4 -8 4 -37t-8 -29q-28 0 -86 -15t-76 -41q-22 -54 -22 -166v-758
q0 -72 8 -280q-8 -8 -42 -8t-66 46l-796 1056v-810q0 -120 16 -164q10 -24 74 -41t90 -17q6 0 7 -28t-3 -38q-240 12 -286 12z" />
    <glyph glyph-name="Ograve" unicode="&#xd2;" horiz-adv-x="1386" 
d="M716 1490q0 -12 -8 -23t-16 -11q-38 0 -199 80t-161 128q0 30 32 48t66 18t46 -6q58 -44 149 -133t91 -101zM50 656q0 280 188 479t452 199t453 -199t189 -479t-189 -478t-453 -198t-452 198t-188 478zM660 1236q-172 0 -263 -157t-91 -379q0 -339 180 -521
q98 -99 236 -99q170 0 263 159t93 379q0 345 -178 521q-98 97 -240 97z" />
    <glyph glyph-name="Oacute" unicode="&#xd3;" horiz-adv-x="1386" 
d="M666 1490q0 12 91 101t149 133q12 6 46 6t66 -18t32 -48q0 -48 -161 -128t-199 -80q-8 0 -16 11t-8 23zM50 656q0 280 188 479t452 199t453 -199t189 -479t-189 -478t-453 -198t-452 198t-188 478zM660 1236q-172 0 -263 -157t-91 -379q0 -339 180 -521q98 -99 236 -99
q170 0 263 159t93 379q0 345 -178 521q-98 97 -240 97z" />
    <glyph glyph-name="Ocircumflex" unicode="&#xd4;" horiz-adv-x="1386" 
d="M914 1456q-38 0 -224 120q-48 -34 -127 -77t-98 -43t-19 38q2 2 86 75t134 141q16 18 25 18t46 -44t65 -71t60 -56t51 -45t21 -18q0 -38 -20 -38zM50 656q0 280 188 479t452 199t453 -199t189 -479t-189 -478t-453 -198t-452 198t-188 478zM660 1236q-172 0 -263 -157
t-91 -379q0 -339 180 -521q98 -99 236 -99q170 0 263 159t93 379q0 345 -178 521q-98 97 -240 97z" />
    <glyph glyph-name="Otilde" unicode="&#xd5;" horiz-adv-x="1386" 
d="M346 1476q-16 0 -16 36t36 90q74 92 156 92t192 -61t182 -61q36 0 85 51t53 51q14 0 14 -38t-34 -90q-68 -90 -152 -90t-194 61t-182 61q-42 0 -110 -77q-22 -25 -30 -25zM50 656q0 280 188 479t452 199t453 -199t189 -479t-189 -478t-453 -198t-452 198t-188 478z
M660 1236q-172 0 -263 -157t-91 -379q0 -339 180 -521q98 -99 236 -99q170 0 263 159t93 379q0 345 -178 521q-98 97 -240 97z" />
    <glyph glyph-name="Odieresis" unicode="&#xd6;" horiz-adv-x="1386" 
d="M360 1580q0 52 36 88t88 36t88 -36t36 -88t-36 -88t-88 -36t-88 36t-36 88zM772 1580q0 52 36 88t88 36t88 -36t36 -88t-36 -88t-88 -36t-88 36t-36 88zM50 656q0 280 188 479t452 199t453 -199t189 -479t-189 -478t-453 -198t-452 198t-188 478zM660 1236
q-172 0 -263 -157t-91 -379q0 -339 180 -521q98 -99 236 -99q170 0 263 159t93 379q0 345 -178 521q-98 97 -240 97z" />
    <glyph glyph-name="multiply" unicode="&#xd7;" horiz-adv-x="838" 
d="M117 114q-9 0 -41 43t-26 57l272 274q6 4 -2 12l-264 264q-14 14 20 55t46 45t20 -4l270 -270q4 -6 12 2l272 268q8 8 16 2q10 -4 36 -34t34 -52l-2 -12l-264 -264q-8 -8 -4 -12l268 -264l2 -14q-8 -20 -33 -54t-32 -40t-17 4l-276 276q-8 8 -14 0l-278 -280
q-6 -2 -15 -2z" />
    <glyph glyph-name="Oslash" unicode="&#xd8;" horiz-adv-x="1396" 
d="M1336 656q0 -184 -87 -340t-235 -246t-320 -90t-317 87l-59 -99q-20 8 -45 23t-21 23l59 98q-105 82 -182 221t-77 323t86 340t234 247t315 91t306 -79l53 89q75 -30 66 -44l-52 -88q116 -84 196 -228t80 -328zM664 1236q-174 0 -265 -158t-91 -381t98 -411q2 -4 4 -7
l508 850q-107 107 -254 107zM1080 618q0 233 -95 417q-7 14 -15 27l-510 -856q110 -126 264 -126q116 0 199 79q157 149 157 459z" />
    <glyph glyph-name="Ugrave" unicode="&#xd9;" horiz-adv-x="1466" 
d="M758 1490q0 -12 -8 -23t-16 -11q-38 0 -199 80t-161 128q0 30 32 48t66 18t46 -6q58 -44 149 -133t91 -101zM1416 1285q0 -25 -8 -25q-28 0 -86 -15t-76 -41q-22 -50 -22 -166v-470q0 -439 -305 -542q-89 -30 -203 -30q-240 0 -378 145t-138 467v436q0 128 -16 168
q-8 16 -56 31t-72 15q-8 0 -8 30t6 36q254 -12 278 -12t244 12q4 -16 4 -41t-8 -25q-18 0 -72 -15t-56 -31q-16 -60 -16 -176v-460q0 -206 89 -329t245 -123t249 101t93 335v488q0 122 -20 160q-12 18 -71 35t-85 17q-8 0 -9 28t5 36q216 -14 252 -14l236 14q4 -14 4 -39z
" />
    <glyph glyph-name="Uacute" unicode="&#xda;" horiz-adv-x="1466" 
d="M708 1490q0 12 91 101t149 133q12 6 46 6t66 -18t32 -48q0 -48 -161 -128t-199 -80q-8 0 -16 11t-8 23zM1416 1285q0 -25 -8 -25q-28 0 -86 -15t-76 -41q-22 -50 -22 -166v-470q0 -439 -305 -542q-89 -30 -203 -30q-240 0 -378 145t-138 467v436q0 128 -16 168
q-8 16 -56 31t-72 15q-8 0 -8 30t6 36q254 -12 278 -12t244 12q4 -16 4 -41t-8 -25q-18 0 -72 -15t-56 -31q-16 -60 -16 -176v-460q0 -206 89 -329t245 -123t249 101t93 335v488q0 122 -20 160q-12 18 -71 35t-85 17q-8 0 -9 28t5 36q216 -14 252 -14l236 14q4 -14 4 -39z
" />
    <glyph glyph-name="Ucircumflex" unicode="&#xdb;" horiz-adv-x="1466" 
d="M956 1456q-38 0 -224 120q-48 -34 -127 -77t-98 -43t-19 38q2 2 86 75t134 141q16 18 25 18t46 -44t65 -71t60 -56t51 -45t21 -18q0 -38 -20 -38zM1416 1285q0 -25 -8 -25q-28 0 -86 -15t-76 -41q-22 -50 -22 -166v-470q0 -439 -305 -542q-89 -30 -203 -30
q-240 0 -378 145t-138 467v436q0 128 -16 168q-8 16 -56 31t-72 15q-8 0 -8 30t6 36q254 -12 278 -12t244 12q4 -16 4 -41t-8 -25q-18 0 -72 -15t-56 -31q-16 -60 -16 -176v-460q0 -206 89 -329t245 -123t249 101t93 335v488q0 122 -20 160q-12 18 -71 35t-85 17q-8 0 -9 28
t5 36q216 -14 252 -14l236 14q4 -14 4 -39z" />
    <glyph glyph-name="Udieresis" unicode="&#xdc;" horiz-adv-x="1466" 
d="M404 1580q0 52 36 88t88 36t88 -36t36 -88t-36 -88t-88 -36t-88 36t-36 88zM816 1580q0 52 36 88t88 36t88 -36t36 -88t-36 -88t-88 -36t-88 36t-36 88zM1416 1285q0 -25 -8 -25q-28 0 -86 -15t-76 -41q-22 -50 -22 -166v-470q0 -439 -305 -542q-89 -30 -203 -30
q-240 0 -378 145t-138 467v436q0 128 -16 168q-8 16 -56 31t-72 15q-8 0 -8 30t6 36q254 -12 278 -12t244 12q4 -16 4 -41t-8 -25q-18 0 -72 -15t-56 -31q-16 -60 -16 -176v-460q0 -206 89 -329t245 -123t249 101t93 335v488q0 122 -20 160q-12 18 -71 35t-85 17q-8 0 -9 28
t5 36q216 -14 252 -14l236 14q4 -14 4 -39z" />
    <glyph glyph-name="Yacute" unicode="&#xdd;" horiz-adv-x="1314" 
d="M678 1490q0 12 91 101t149 133q12 6 46 6t66 -18t32 -48q0 -48 -161 -128t-199 -80q-8 0 -16 11t-8 23zM642 6q-88 0 -242 -14q-8 8 -8 36t6 28q24 0 74 16t56 32q16 58 16 176v296q0 25 -90 185t-165 297q-75 136 -121 166q-20 14 -59 25t-57 11q-6 0 -7 20t3 28
q48 4 174 4t366 12q4 -8 3 -36t-7 -28q-32 0 -72 -14t-40 -42q0 -18 18 -52l212 -388q10 -10 20 4q86 128 166 264t80 165t-37 46t-97 17q-8 0 -8 28t6 36q202 -12 265 -12t195 12q4 -16 4 -40t-8 -24q-30 0 -83 -18t-77 -48q-58 -86 -208 -329t-150 -269v-312
q0 -118 16 -180q4 -14 55 -31t67 -17q8 0 8 -26t-4 -38q-182 14 -270 14z" />
    <glyph glyph-name="Thorn" unicode="&#xde;" horiz-adv-x="1128" 
d="M438 1036q0 -28 4 -28t48 12t108 12t119 -12q130 -28 226 -112q97 -84 97 -236t-117 -278t-301 -126q-44 0 -86 15t-51 28t-14 42t7 29q44 -18 125 -18t137 79t56 197q0 292 -220 292q-88 0 -116 -12q-12 -6 -18 -30t-6 -108v-502q0 -110 18 -176q4 -14 56 -29t70 -15
q8 0 8 -28t-4 -40q-182 14 -274 14t-246 -14q-8 8 -8 38t8 30q24 0 75 14t57 30q14 54 14 168v772q0 128 -14 168q-10 16 -58 31t-72 15q-8 0 -8 30t6 36q252 -12 276 -12t244 12q6 -16 6 -41t-8 -25q-18 0 -72 -15t-58 -31q-14 -60 -14 -116v-60z" />
    <glyph glyph-name="germandbls" unicode="&#xdf;" horiz-adv-x="1166" 
d="M321 6q-73 0 -241 -14q-6 6 -6 31t8 25q22 0 64 15t46 29q18 70 19 262t1 368q0 16 -10 16h-106q-6 0 -6 16t11 52t19 36h82q10 0 10 12v36q0 246 116 372t280 126t268 -68t104 -195t-96 -203q-40 -32 -80 -58q-96 -62 -96 -124t50 -110t136 -94q218 -114 218 -268
q0 -118 -78 -201t-177 -83t-175 34t-94 64q0 130 72 130q60 0 92 -70t81 -70t72 44t23 94t-39 92t-94 73t-111 64t-95 89t-39 121t24 106t58 71t68 62q82 77 82 210q0 96 -50 150t-153 54t-135 -117q-26 -93 -26 -235l2 -676q0 -102 16 -174q2 -14 47 -30t61 -16q6 0 7 -27
t-3 -35q-154 14 -227 14z" />
    <glyph glyph-name="agrave" unicode="&#xe0;" horiz-adv-x="904" 
d="M140 1284q0 23 28 37q28 15 70 15t58 -16q67 -79 125 -174q59 -96 59 -104t-9 -19t-19 -11q-26 0 -169 111t-143 161zM464 884q134 0 196 -65t62 -223v-394q0 -40 18 -61t48 -21t68 26q12 -4 12 -33t-12 -49q-95 -76 -176 -76q-46 0 -90 34t-58 74q-71 -71 -171 -99
q-39 -11 -79 -11q-100 0 -163 55t-63 151q0 165 257 251q39 13 100 31t85 26q18 8 18 32v110q0 70 -32 110t-89 40t-91 -37t-34 -91q0 -92 -98 -92q-74 0 -104 48q0 96 131 180t265 84zM386 116q52 0 91 28t39 64v204q-14 -6 -59 -20q-73 -23 -130 -55t-57 -96q0 -65 32 -95
t84 -30z" />
    <glyph glyph-name="aacute" unicode="&#xe1;" horiz-adv-x="904" 
d="M464 884q134 0 196 -65t62 -223v-394q0 -40 18 -61t48 -21t68 26q12 -4 12 -33t-12 -49q-95 -76 -176 -76q-46 0 -90 34t-58 74q-71 -71 -171 -99q-39 -11 -79 -11q-100 0 -163 55t-63 151q0 165 257 251q39 13 100 31t85 26q18 8 18 32v110q0 70 -32 110t-89 40t-91 -37
t-34 -91q0 -92 -98 -92q-74 0 -104 48q0 96 131 180t265 84zM386 116q52 0 91 28t39 64v204q-14 -6 -59 -20q-73 -23 -130 -55t-57 -96q0 -65 32 -95t84 -30zM578 1336q42 0 68 -14t26 -38q0 -50 -142 -161t-168 -111q-10 0 -20 11t-10 21t69 114t119 162q16 16 58 16z" />
    <glyph glyph-name="acircumflex" unicode="&#xe2;" horiz-adv-x="904" 
d="M619 994q-17 0 -84 49t-117 91q-46 -42 -115 -91t-86 -49t-17 48q98 112 124 145t54 78t38 45t22 -18q114 -166 198 -250q0 -48 -17 -48zM464 884q134 0 196 -65t62 -223v-394q0 -40 18 -61t48 -21t68 26q12 -4 12 -33t-12 -49q-95 -76 -176 -76q-46 0 -90 34t-58 74
q-71 -71 -171 -99q-39 -11 -79 -11q-100 0 -163 55t-63 151q0 165 257 251q39 13 100 31t85 26q18 8 18 32v110q0 70 -32 110t-89 40t-91 -37t-34 -91q0 -92 -98 -92q-74 0 -104 48q0 96 131 180t265 84zM386 116q52 0 91 28t39 64v204q-14 -6 -59 -20q-73 -23 -130 -55
t-57 -96q0 -65 32 -95t84 -30z" />
    <glyph glyph-name="atilde" unicode="&#xe3;" horiz-adv-x="904" 
d="M112 1030q-10 0 -10 33t32 79q60 80 126 80t156 -53t150 -53q30 0 70 45t47 45t7 -38t-28 -78q-56 -78 -124 -78t-158 53t-150 53q-28 0 -68 -44t-50 -44zM464 884q134 0 196 -65t62 -223v-394q0 -40 18 -61t48 -21t68 26q12 -4 12 -33t-12 -49q-95 -76 -176 -76
q-46 0 -90 34t-58 74q-71 -71 -171 -99q-39 -11 -79 -11q-100 0 -163 55t-63 151q0 165 257 251q39 13 100 31t85 26q18 8 18 32v110q0 70 -32 110t-89 40t-91 -37t-34 -91q0 -92 -98 -92q-74 0 -104 48q0 96 131 180t265 84zM386 116q52 0 91 28t39 64v204q-14 -6 -59 -20
q-73 -23 -130 -55t-57 -96q0 -65 32 -95t84 -30z" />
    <glyph glyph-name="adieresis" unicode="&#xe4;" horiz-adv-x="904" 
d="M90 1132q0 48 34 83t82 35t83 -35t35 -83t-35 -82t-83 -34t-82 34t-34 82zM494 1132q0 48 34 83t82 35t83 -35t35 -83t-35 -82t-83 -34t-82 34t-34 82zM464 884q134 0 196 -65t62 -223v-394q0 -40 18 -61t48 -21t68 26q12 -4 12 -33t-12 -49q-95 -76 -176 -76
q-46 0 -90 34t-58 74q-71 -71 -171 -99q-39 -11 -79 -11q-100 0 -163 55t-63 151q0 165 257 251q39 13 100 31t85 26q18 8 18 32v110q0 70 -32 110t-89 40t-91 -37t-34 -91q0 -92 -98 -92q-74 0 -104 48q0 96 131 180t265 84zM386 116q52 0 91 28t39 64v204q-14 -6 -59 -20
q-73 -23 -130 -55t-57 -96q0 -65 32 -95t84 -30z" />
    <glyph glyph-name="aring" unicode="&#xe5;" horiz-adv-x="904" 
d="M228 1210q0 80 58 138t140 58t139 -58t57 -139t-58 -139t-139 -58t-139 59t-58 139zM310 1210q0 -48 34 -82t82 -34t81 34t33 82t-33 81t-81 33t-82 -33t-34 -81zM464 884q134 0 196 -65t62 -223v-394q0 -40 18 -61t48 -21t68 26q12 -4 12 -33t-12 -49q-95 -76 -176 -76
q-46 0 -90 34t-58 74q-71 -71 -171 -99q-39 -11 -79 -11q-100 0 -163 55t-63 151q0 165 257 251q39 13 100 31t85 26q18 8 18 32v110q0 70 -32 110t-89 40t-91 -37t-34 -91q0 -92 -98 -92q-74 0 -104 48q0 96 131 180t265 84zM386 116q52 0 91 28t39 64v204q-14 -6 -59 -20
q-73 -23 -130 -55t-57 -96q0 -65 32 -95t84 -30z" />
    <glyph glyph-name="ae" unicode="&#xe6;" horiz-adv-x="1324" 
d="M1080 580q0 70 -36 141t-112 71t-127 -89t-51 -167q0 -12 14 -12q256 24 300 36q12 4 12 20zM532 208v182q-158 -34 -203 -72t-45 -91t33 -83t84 -30t91 29t40 65zM754 408q0 -124 64 -203t185 -79t219 68q32 22 34 22t11 -9t9 -27t-8 -32q-40 -58 -132 -110t-186 -52
q-196 0 -312 148q-130 -148 -346 -148q-106 0 -167 61t-61 147q0 112 98 172t212 88q24 6 75 18t66 17t15 29v134q0 62 -33 101t-85 39t-92 -48t-40 -118q0 -28 -33 -41t-73 -13t-65 19t-25 49q0 84 120 165t275 81t217 -96q116 94 252 94q92 0 162 -36t107 -94
q71 -111 75 -230q0 -30 -16 -39q-36 -20 -508 -63q-14 0 -14 -14z" />
    <glyph glyph-name="ccedilla" unicode="&#xe7;" horiz-adv-x="870" 
d="M788 220q16 -8 16 -31t-12 -39q-30 -54 -118 -108t-196 -54h-5l-27 -42q36 2 44 2q42 0 70 -30t28 -70q0 -70 -54 -112t-124 -42t-94 24q-6 24 -6 33t8 18t14 9t35 -14t60 -14t52 18t21 45t-16 44t-41 17t-55 -12q-4 0 -15 11t-9 17q45 81 57 101q-142 18 -246 127
q-125 130 -125 315t120 318t314 133q106 0 189 -35t119 -77q0 -68 -23 -113t-65 -45t-65 20t-47 66q-46 92 -133 92t-138 -87t-51 -243t74 -243t191 -87t186 44q19 12 27 17t40 27z" />
    <glyph glyph-name="egrave" unicode="&#xe8;" horiz-adv-x="872" 
d="M188 1284q0 23 28 37q28 15 70 15t58 -16q67 -79 125 -174q59 -96 59 -104t-9 -19t-19 -11q-26 0 -169 111t-143 161zM788 220q16 -8 16 -31t-12 -39q-30 -54 -118 -108t-198 -54q-174 0 -300 129t-126 322t117 319t297 126q94 0 168 -37t116 -94q86 -117 86 -235
q0 -44 -15 -55t-61 -11h-478q-14 0 -14 -12q0 -167 115 -258q63 -50 167 -50t173 44q19 12 27 17t40 27zM450 792q-48 0 -86 -28t-67 -86t-29 -116q0 -14 12 -14h324q18 0 18 30q0 70 -47 142t-125 72z" />
    <glyph glyph-name="eacute" unicode="&#xe9;" horiz-adv-x="872" 
d="M646 1336q42 0 68 -14t26 -38q0 -50 -142 -161t-168 -111q-10 0 -20 11t-10 21t69 114t119 162q16 16 58 16zM788 220q16 -8 16 -31t-12 -39q-30 -54 -118 -108t-198 -54q-174 0 -300 129t-126 322t117 319t297 126q94 0 168 -37t116 -94q86 -117 86 -235q0 -44 -15 -55
t-61 -11h-478q-14 0 -14 -12q0 -167 115 -258q63 -50 167 -50t173 44q19 12 27 17t40 27zM450 792q-48 0 -86 -28t-67 -86t-29 -116q0 -14 12 -14h324q18 0 18 30q0 70 -47 142t-125 72z" />
    <glyph glyph-name="ecircumflex" unicode="&#xea;" horiz-adv-x="872" 
d="M643 994q-17 0 -84 49t-117 91q-46 -42 -115 -91t-86 -49t-17 48q98 112 124 145t54 78t38 45t22 -18q114 -166 198 -250q0 -48 -17 -48zM788 220q16 -8 16 -31t-12 -39q-30 -54 -118 -108t-198 -54q-174 0 -300 129t-126 322t117 319t297 126q94 0 168 -37t116 -94
q86 -117 86 -235q0 -44 -15 -55t-61 -11h-478q-14 0 -14 -12q0 -167 115 -258q63 -50 167 -50t173 44q19 12 27 17t40 27zM450 792q-48 0 -86 -28t-67 -86t-29 -116q0 -14 12 -14h324q18 0 18 30q0 70 -47 142t-125 72z" />
    <glyph glyph-name="edieresis" unicode="&#xeb;" horiz-adv-x="872" 
d="M114 1132q0 48 34 83t82 35t83 -35t35 -83t-35 -82t-83 -34t-82 34t-34 82zM518 1132q0 48 34 83t82 35t83 -35t35 -83t-35 -82t-83 -34t-82 34t-34 82zM788 220q16 -8 16 -31t-12 -39q-30 -54 -118 -108t-198 -54q-174 0 -300 129t-126 322t117 319t297 126
q94 0 168 -37t116 -94q86 -117 86 -235q0 -44 -15 -55t-61 -11h-478q-14 0 -14 -12q0 -167 115 -258q63 -50 167 -50t173 44q19 12 27 17t40 27zM450 792q-48 0 -86 -28t-67 -86t-29 -116q0 -14 12 -14h324q18 0 18 30q0 70 -47 142t-125 72z" />
    <glyph glyph-name="igrave" unicode="&#xec;" horiz-adv-x="600" 
d="M44 1284q0 23 28 37q28 15 70 15t58 -16q67 -79 125 -174q59 -96 59 -104t-9 -19t-19 -11q-26 0 -169 111t-143 161zM406 288q0 -124 14 -180q4 -14 49 -31t61 -17q6 0 7 -28t-3 -38q-168 12 -228 12t-240 -12q-8 8 -8 37t8 29q22 0 67 17t49 31q16 70 16 148v322
q0 133 -77 157q-29 9 -49 11t-20 6q0 60 10 60q128 14 235 41t109 27q14 0 14 -40l-14 -172v-380z" />
    <glyph glyph-name="iacute" unicode="&#xed;" horiz-adv-x="600" 
d="M414 1336q42 0 68 -14t26 -38q0 -50 -142 -161t-168 -111q-10 0 -20 11t-10 21t69 114t119 162q16 16 58 16zM406 288q0 -124 14 -180q4 -14 49 -31t61 -17q6 0 7 -28t-3 -38q-168 12 -228 12t-240 -12q-8 8 -8 37t8 29q22 0 67 17t49 31q16 70 16 148v322q0 133 -77 157
q-29 9 -49 11t-20 6q0 60 10 60q128 14 235 41t109 27q14 0 14 -40l-14 -172v-380z" />
    <glyph glyph-name="icircumflex" unicode="&#xee;" horiz-adv-x="600" 
d="M479 994q-17 0 -84 49t-117 91q-46 -42 -115 -91t-86 -49t-17 48q98 112 124 145t54 78t38 45t22 -18q114 -166 198 -250q0 -48 -17 -48zM406 288q0 -124 14 -180q4 -14 49 -31t61 -17q6 0 7 -28t-3 -38q-168 12 -228 12t-240 -12q-8 8 -8 37t8 29q22 0 67 17t49 31
q16 70 16 148v322q0 133 -77 157q-29 9 -49 11t-20 6q0 60 10 60q128 14 235 41t109 27q14 0 14 -40l-14 -172v-380z" />
    <glyph glyph-name="idieresis" unicode="&#xef;" horiz-adv-x="600" 
d="M106 1248q48 0 83 -35t35 -83t-36 -82t-84 -34t-83 35t-35 83t36 82t84 34zM464 1248q48 0 83 -35t35 -83t-36 -82t-84 -34t-83 35t-35 83t36 82t84 34zM406 288q0 -124 14 -180q4 -14 49 -31t61 -17q6 0 7 -28t-3 -38q-168 12 -228 12t-240 -12q-8 8 -8 37t8 29
q22 0 67 17t49 31q16 70 16 148v322q0 133 -77 157q-29 9 -49 11t-20 6q0 60 10 60q128 14 235 41t109 27q14 0 14 -40l-14 -172v-380z" />
    <glyph glyph-name="eth" unicode="&#xf0;" horiz-adv-x="1034" 
d="M482 790q-96 0 -147 -92t-51 -240t62 -263t165 -115t153 93t49 259t-29 227t-84 96t-118 35zM944 532q0 -260 -125 -402t-309 -142t-319 131t-135 313q0 108 55 212t157 172t224 68q48 0 99 -9t69 -23q-47 167 -179 287l-219 -139q-48 56 -34 68l192 121
q-110 81 -266 137q0 16 6 37t18 21q187 -22 352 -125l226 143q48 -56 36 -66l-194 -123q211 -156 297 -392q49 -135 49 -289z" />
    <glyph glyph-name="ntilde" unicode="&#xf1;" horiz-adv-x="1168" 
d="M286 1030q-10 0 -10 33t32 79q60 80 126 80t156 -53t150 -53q30 0 70 45t47 45t7 -38t-28 -78q-56 -78 -124 -78t-158 53t-150 53q-28 0 -68 -44t-50 -44zM307 6q-131 0 -243 -14q-8 8 -8 38t8 30q24 0 73 15t53 29q14 60 14 146v326q0 94 -32 128q-28 35 -93 42
q-19 2 -19 6q0 58 10 60q92 8 208 35t119 28t6 1h5q8 0 14 -14t6 -22q-8 -56 -8 -68t2 -14q2 0 10 6q48 48 123 84t153 36q258 0 258 -410v-190q0 -122 14 -180q4 -14 55 -29t69 -15q6 0 7 -29t-3 -39q-12 2 -105 8t-171 6t-204 -14q-8 8 -8 38t8 30q22 0 67 15t49 29
q16 60 16 146v190q0 166 -45 232t-143 66q-64 0 -112 -35t-48 -75v-344q0 -122 14 -180q4 -14 53 -29t65 -15q8 0 9 -29t-3 -39q-112 14 -243 14z" />
    <glyph glyph-name="ograve" unicode="&#xf2;" horiz-adv-x="1014" 
d="M192 1284q0 23 28 37q28 15 70 15t58 -16q67 -79 125 -174q59 -96 59 -104t-9 -19t-19 -11q-26 0 -169 111t-143 161zM505 884q189 0 322 -131t133 -317t-131 -318t-321 -132t-322 132t-132 319t131 317t320 130zM473 790q-87 0 -139 -91t-52 -235t65 -264t181 -120
q94 0 147 92t53 206t-26 203t-84 149t-145 60z" />
    <glyph glyph-name="oacute" unicode="&#xf3;" horiz-adv-x="1014" 
d="M722 1336q42 0 68 -14t26 -38q0 -50 -142 -161t-168 -111q-10 0 -20 11t-10 21t69 114t119 162q16 16 58 16zM505 884q189 0 322 -131t133 -317t-131 -318t-321 -132t-322 132t-132 319t131 317t320 130zM473 790q-87 0 -139 -91t-52 -235t65 -264t181 -120q94 0 147 92
t53 206t-26 203t-84 149t-145 60z" />
    <glyph glyph-name="ocircumflex" unicode="&#xf4;" horiz-adv-x="1014" 
d="M715 994q-17 0 -84 49t-117 91q-46 -42 -115 -91t-86 -49t-17 48q98 112 124 145t54 78t38 45t22 -18q114 -166 198 -250q0 -48 -17 -48zM505 884q189 0 322 -131t133 -317t-131 -318t-321 -132t-322 132t-132 319t131 317t320 130zM473 790q-87 0 -139 -91t-52 -235
t65 -264t181 -120q94 0 147 92t53 206t-26 203t-84 149t-145 60z" />
    <glyph glyph-name="otilde" unicode="&#xf5;" horiz-adv-x="1014" 
d="M220 1030q-10 0 -10 33t32 79q60 80 126 80t156 -53t150 -53q30 0 70 45t47 45t7 -38t-28 -78q-56 -78 -124 -78t-158 53t-150 53q-28 0 -68 -44t-50 -44zM505 884q189 0 322 -131t133 -317t-131 -318t-321 -132t-322 132t-132 319t131 317t320 130zM473 790
q-87 0 -139 -91t-52 -235t65 -264t181 -120q94 0 147 92t53 206t-26 203t-84 149t-145 60z" />
    <glyph glyph-name="odieresis" unicode="&#xf6;" horiz-adv-x="1014" 
d="M186 1132q0 48 34 83t82 35t83 -35t35 -83t-35 -82t-83 -34t-82 34t-34 82zM590 1132q0 48 34 83t82 35t83 -35t35 -83t-35 -82t-83 -34t-82 34t-34 82zM505 884q189 0 322 -131t133 -317t-131 -318t-321 -132t-322 132t-132 319t131 317t320 130zM473 790
q-87 0 -139 -91t-52 -235t65 -264t181 -120q94 0 147 92t53 206t-26 203t-84 149t-145 60z" />
    <glyph glyph-name="divide" unicode="&#xf7;" horiz-adv-x="1048" 
d="M52 448q0 16 7 64t21 48h898q14 -2 14 -29t-10 -65t-18 -38l-4 -2h-896q-12 6 -12 22zM519 0q-43 0 -73 29t-36 75v8q0 42 33 77t77 35t74 -31t36 -77v-4q0 -42 -34 -77t-77 -35zM520 768q-44 0 -74 27t-36 73v8q0 42 33 75t77 33t74 -26t36 -72v-10q0 -40 -33 -74
t-77 -34z" />
    <glyph glyph-name="oslash" unicode="&#xf8;" horiz-adv-x="1022" 
d="M512 890q92 0 172 -34l36 62q8 8 26 7t42 -25t24 -36l-32 -60q86 -64 135 -161t49 -207q0 -186 -131 -318t-321 -132q-88 0 -166 30l-40 -70q-4 -8 -34 2t-46 30l-10 22l36 66q-88 62 -140 160t-52 210q0 188 131 321t321 133zM492 798q-102 0 -153 -95t-51 -232t52 -247
l284 522q-56 52 -132 52zM547 80q89 0 138 93t49 227t-46 240l-282 -514q52 -46 141 -46z" />
    <glyph glyph-name="ugrave" unicode="&#xf9;" horiz-adv-x="1110" 
d="M308 1284q0 23 28 37q28 15 70 15t58 -16q67 -79 125 -174q59 -96 59 -104t-9 -19t-19 -11q-26 0 -169 111t-143 161zM928 668v-396q0 -96 16 -140q16 -26 91 -26q15 0 20 -2t5 -33t-16 -31q-68 0 -167 -22t-121 -26l-22 -4q-14 0 -14 32v88q-2 10 -6 10
q-46 -50 -122 -90t-151 -40q-140 0 -206 122q-55 102 -55 242v224q0 94 -32 129t-94 41q-20 2 -20 6q0 58 10 60q113 8 338 64q10 0 15 -14t5 -22q-18 -136 -18 -176v-240q0 -156 44 -224t142 -68q64 0 108 39t44 75v330q0 94 -32 128q-28 35 -94 42q-20 2 -20 6q0 58 12 60
q56 4 162 24t133 28t39 10t18 -12t4 -22q-16 -136 -16 -172z" />
    <glyph glyph-name="uacute" unicode="&#xfa;" horiz-adv-x="1110" 
d="M738 1336q42 0 68 -14t26 -38q0 -50 -142 -161t-168 -111q-10 0 -20 11t-10 21t69 114t119 162q16 16 58 16zM928 668v-396q0 -96 16 -140q16 -26 91 -26q15 0 20 -2t5 -33t-16 -31q-68 0 -167 -22t-121 -26l-22 -4q-14 0 -14 32v88q-2 10 -6 10q-46 -50 -122 -90
t-151 -40q-140 0 -206 122q-55 102 -55 242v224q0 94 -32 129t-94 41q-20 2 -20 6q0 58 10 60q113 8 338 64q10 0 15 -14t5 -22q-18 -136 -18 -176v-240q0 -156 44 -224t142 -68q64 0 108 39t44 75v330q0 94 -32 128q-28 35 -94 42q-20 2 -20 6q0 58 12 60q56 4 162 24
t133 28t39 10t18 -12t4 -22q-16 -136 -16 -172z" />
    <glyph glyph-name="ucircumflex" unicode="&#xfb;" horiz-adv-x="1110" 
d="M747 994q-17 0 -84 49t-117 91q-46 -42 -115 -91t-86 -49t-17 48q98 112 124 145t54 78t38 45t22 -18q114 -166 198 -250q0 -48 -17 -48zM928 668v-396q0 -96 16 -140q16 -26 91 -26q15 0 20 -2t5 -33t-16 -31q-68 0 -167 -22t-121 -26l-22 -4q-14 0 -14 32v88
q-2 10 -6 10q-46 -50 -122 -90t-151 -40q-140 0 -206 122q-55 102 -55 242v224q0 94 -32 129t-94 41q-20 2 -20 6q0 58 10 60q113 8 338 64q10 0 15 -14t5 -22q-18 -136 -18 -176v-240q0 -156 44 -224t142 -68q64 0 108 39t44 75v330q0 94 -32 128q-28 35 -94 42
q-20 2 -20 6q0 58 12 60q56 4 162 24t133 28t39 10t18 -12t4 -22q-16 -136 -16 -172z" />
    <glyph glyph-name="udieresis" unicode="&#xfc;" horiz-adv-x="1110" 
d="M242 1132q0 48 34 83t82 35t83 -35t35 -83t-35 -82t-83 -34t-82 34t-34 82zM646 1132q0 48 34 83t82 35t83 -35t35 -83t-35 -82t-83 -34t-82 34t-34 82zM928 668v-396q0 -96 16 -140q16 -26 91 -26q15 0 20 -2t5 -33t-16 -31q-68 0 -167 -22t-121 -26l-22 -4
q-14 0 -14 32v88q-2 10 -6 10q-46 -50 -122 -90t-151 -40q-140 0 -206 122q-55 102 -55 242v224q0 94 -32 129t-94 41q-20 2 -20 6q0 58 10 60q113 8 338 64q10 0 15 -14t5 -22q-18 -136 -18 -176v-240q0 -156 44 -224t142 -68q64 0 108 39t44 75v330q0 94 -32 128
q-28 35 -94 42q-20 2 -20 6q0 58 12 60q56 4 162 24t133 28t39 10t18 -12t4 -22q-16 -136 -16 -172z" />
    <glyph glyph-name="yacute" unicode="&#xfd;" horiz-adv-x="1048" 
d="M804 1336q42 0 68 -14t26 -38q0 -50 -142 -161t-168 -111q-10 0 -20 11t-10 21t69 114t119 162q16 16 58 16zM500 837q0 -25 -8 -25q-20 0 -63 -15t-45 -33v-12q4 -32 186 -456q29 65 151 387q11 29 11 56t-32 50t-96 23q-8 0 -8 28t8 36l220 -12l192 12q8 -12 8 -38
t-8 -26q-28 0 -81 -20t-69 -60l-366 -884q-124 -292 -298 -292q-52 0 -80 28t-28 72t38 70q208 0 274 164q48 120 54 136l-292 680q-16 36 -24 46q-20 30 -59 45t-65 15q-8 0 -8 30t6 34l250 -12l228 12q4 -14 4 -39z" />
    <glyph glyph-name="thorn" unicode="&#xfe;" horiz-adv-x="1080" 
d="M562 776q-66 0 -107 -38t-41 -102v-412q0 -66 54 -105t116 -39q92 0 156 84t64 241t-65 264t-177 107zM60 -407q0 29 8 29q22 0 71 15t53 31q16 58 16 144v1264q0 84 -12 140q-10 32 -104 32h-16q-12 0 -12 32t12 32q170 17 249 46q80 30 83 30h4q8 0 16 -11t8 -21
q-22 -78 -22 -188v-344q0 -10 6 -10q30 24 85 46t103 22q130 0 230 -66t147 -160t47 -196q0 -206 -138 -341t-330 -135q-58 0 -142 28q-8 0 -8 -28v-136q0 -124 14 -180q4 -16 55 -31t69 -15q6 0 7 -29t-3 -37l-244 12l-244 -12q-8 8 -8 37z" />
    <glyph glyph-name="ydieresis" unicode="&#xff;" horiz-adv-x="1048" 
d="M270 1132q0 48 34 83t82 35t83 -35t35 -83t-35 -82t-83 -34t-82 34t-34 82zM674 1132q0 48 34 83t82 35t83 -35t35 -83t-35 -82t-83 -34t-82 34t-34 82zM500 837q0 -25 -8 -25q-20 0 -63 -15t-45 -33v-12q4 -32 186 -456q29 65 151 387q11 29 11 56t-32 50t-96 23
q-8 0 -8 28t8 36l220 -12l192 12q8 -12 8 -38t-8 -26q-28 0 -81 -20t-69 -60l-366 -884q-124 -292 -298 -292q-52 0 -80 28t-28 72t38 70q208 0 274 164q48 120 54 136l-292 680q-16 36 -24 46q-20 30 -59 45t-65 15q-8 0 -8 30t6 34l250 -12l228 12q4 -14 4 -39z" />
    <glyph glyph-name="Amacron" unicode="&#x100;" horiz-adv-x="1472" 
d="M470 1472q0 38 8 70t20 32h536q27 0 -8 -110h-544q-12 0 -12 8zM684 570q72 0 166 6l4 8l-152 400l-164 -400q0 -8 4 -8q70 -6 142 -6zM54 31q0 29 4 29q24 0 77 17t67 39q38 60 76 156l372 900q46 120 68 139t38 19t26 -10l420 -1048q30 -80 60 -146q12 -30 64 -48
t76 -18q8 0 8 -30t-4 -36q-240 12 -253 12t-259 -12q-8 8 -8 37t8 29q24 0 66 12t49 26t7 41t-38 125l-70 186q-12 12 -153 12t-261 -6q-12 0 -12 -8l-76 -186q-38 -104 -38 -130t20 -39t65 -23t61 -10q6 -2 6 -28t-4 -38l-230 12q-44 0 -224 -12q-8 8 -8 37z" />
    <glyph glyph-name="amacron" unicode="&#x101;" horiz-adv-x="904" 
d="M198 1128h456q10 0 9 -32t-13 -68l-12 -16h-456l-8 4q-4 4 -4 16q4 96 28 96zM464 884q134 0 196 -65t62 -223v-394q0 -40 18 -61t48 -21t68 26q12 -4 12 -33t-12 -49q-95 -76 -176 -76q-46 0 -90 34t-58 74q-71 -71 -171 -99q-39 -11 -79 -11q-100 0 -163 55t-63 151
q0 165 257 251q39 13 100 31t85 26q18 8 18 32v110q0 70 -32 110t-89 40t-91 -37t-34 -91q0 -92 -98 -92q-74 0 -104 48q0 96 131 180t265 84zM386 116q52 0 91 28t39 64v204q-14 -6 -59 -20q-73 -23 -130 -55t-57 -96q0 -65 32 -95t84 -30z" />
    <glyph glyph-name="Abreve" unicode="&#x102;" horiz-adv-x="1472" 
d="M758 1564q54 0 102 30t68 74q6 12 29 -8t22 -27t-5 -15q-30 -72 -88 -117t-128 -45t-129 44t-87 118q-4 8 -5 15t22 27t29 8q20 -44 68 -74t102 -30zM684 570q72 0 166 6l4 8l-152 400l-164 -400q0 -8 4 -8q70 -6 142 -6zM54 31q0 29 4 29q24 0 77 17t67 39q38 60 76 156
l372 900q46 120 68 139t38 19t26 -10l420 -1048q30 -80 60 -146q12 -30 64 -48t76 -18q8 0 8 -30t-4 -36q-240 12 -253 12t-259 -12q-8 8 -8 37t8 29q24 0 66 12t49 26t7 41t-38 125l-70 186q-12 12 -153 12t-261 -6q-12 0 -12 -8l-76 -186q-38 -104 -38 -130t20 -39t65 -23
t61 -10q6 -2 6 -28t-4 -38l-230 12q-44 0 -224 -12q-8 8 -8 37z" />
    <glyph glyph-name="abreve" unicode="&#x103;" horiz-adv-x="904" 
d="M409 1012q-79 0 -145 58t-80 150q0 8 19 22t28 14t9 -8q14 -58 64 -94t106 -36t102 36t60 94q0 8 9 8t28 -14t19 -22q-11 -90 -76 -149q-64 -59 -143 -59zM464 884q134 0 196 -65t62 -223v-394q0 -40 18 -61t48 -21t68 26q12 -4 12 -33t-12 -49q-95 -76 -176 -76
q-46 0 -90 34t-58 74q-71 -71 -171 -99q-39 -11 -79 -11q-100 0 -163 55t-63 151q0 165 257 251q39 13 100 31t85 26q18 8 18 32v110q0 70 -32 110t-89 40t-91 -37t-34 -91q0 -92 -98 -92q-74 0 -104 48q0 96 131 180t265 84zM386 116q52 0 91 28t39 64v204q-14 -6 -59 -20
q-73 -23 -130 -55t-57 -96q0 -65 32 -95t84 -30z" />
    <glyph glyph-name="Aogonek" unicode="&#x104;" horiz-adv-x="1384" 
d="M1028 -232q0 -30 21 -52t55 -22q58 0 107 29t61 41q8 0 8 -28t-10 -42q-36 -48 -99 -92t-128 -44t-109 46t-44 115t79 156t171 131h-24q-14 0 -260 -12q-8 8 -8 37t8 29q24 0 66 12t49 26t7 41t-38 125l-70 186q-12 12 -153 12t-261 -6q-12 0 -12 -8l-76 -186
q-38 -104 -38 -130t20 -39t65 -23t61 -10q6 -2 6 -28t-4 -38l-230 12q-44 0 -224 -12q-8 8 -8 37t4 29q24 0 77 17t67 39q38 60 76 156l372 900q46 120 68 139t38 19t26 -10l420 -1048q30 -80 60 -146q12 -30 64 -48t76 -18q8 0 8 -30t-4 -36l-140 8q-78 -46 -139 -111
t-61 -123zM646 570q74 0 166 6l4 8l-152 400l-164 -400q0 -8 4 -8q68 -6 142 -6z" />
    <glyph glyph-name="aogonek" unicode="&#x105;" horiz-adv-x="888" 
d="M496 208v204q-16 -6 -60 -20q-77 -25 -134 -56q-56 -32 -56 -95t32 -94t84 -31t93 28t41 64zM832 142q16 0 16 -26t-14 -54l-78 -50q-228 -144 -228 -244q0 -30 20 -52t54 -22q58 0 107 29t61 41q10 0 10 -27t-24 -59t-87 -75t-128 -43t-109 46t-44 110t69 148t147 134
q-64 24 -92 98q-2 0 -16 -12q-39 -34 -98 -66q-58 -32 -152 -32t-154 60t-60 158q0 153 258 237q40 13 101 32t83 26t22 33v120q0 62 -33 101t-85 39t-93 -41t-41 -111q0 -28 -33 -44t-73 -16t-65 19t-25 49q0 82 124 159t260 77t202 -63t66 -217v-402q0 -86 66 -86
q23 0 66 26z" />
    <glyph glyph-name="Cacute" unicode="&#x106;" horiz-adv-x="1278" 
d="M648 1490q0 12 91 101t149 133q12 6 46 6t66 -18t32 -48q0 -48 -161 -128t-199 -80q-8 0 -16 11t-8 23zM699 -12q-277 0 -463 194t-186 470t190 479t468 203q226 0 472 -54q6 -2 12 -131t6 -160t-48 -31q-12 0 -28 8q-16 74 -92 160q-42 48 -124 79t-190 31
q-196 0 -305 -162t-109 -401t123 -414t347 -175q178 0 282 112q41 45 66 115q24 71 28 71q70 0 78 -18q0 -26 -30 -155t-46 -137q-174 -84 -451 -84z" />
    <glyph glyph-name="cacute" unicode="&#x107;" horiz-adv-x="870" 
d="M636 1336q42 0 68 -14t26 -38q0 -50 -142 -161t-168 -111q-10 0 -20 11t-10 21t69 114t119 162q16 16 58 16zM788 220q16 -8 16 -31t-12 -39q-30 -54 -118 -108t-196 -54q-178 0 -303 130t-125 315t120 318t314 133q106 0 189 -35t119 -77q0 -68 -23 -113t-65 -45t-65 20
t-47 66q-46 92 -133 92t-138 -87t-51 -243t74 -243t191 -87t186 44q19 12 27 17t40 27z" />
    <glyph glyph-name="Ccircumflex" unicode="&#x108;" horiz-adv-x="1278" 
d="M940 1456q-38 0 -224 120q-48 -34 -127 -77t-98 -43t-19 38q2 2 86 75t134 141q16 18 25 18t46 -44t65 -71t60 -56t51 -45t21 -18q0 -38 -20 -38zM699 -12q-277 0 -463 194t-186 470t190 479t468 203q226 0 472 -54q6 -2 12 -131t6 -160t-48 -31q-12 0 -28 8
q-16 74 -92 160q-42 48 -124 79t-190 31q-196 0 -305 -162t-109 -401t123 -414t347 -175q178 0 282 112q41 45 66 115q24 71 28 71q70 0 78 -18q0 -26 -30 -155t-46 -137q-174 -84 -451 -84z" />
    <glyph glyph-name="ccircumflex" unicode="&#x109;" horiz-adv-x="870" 
d="M657 994q-17 0 -84 49t-117 91q-46 -42 -115 -91t-86 -49t-17 48q98 112 124 145t54 78t38 45t22 -18q114 -166 198 -250q0 -48 -17 -48zM788 220q16 -8 16 -31t-12 -39q-30 -54 -118 -108t-196 -54q-178 0 -303 130t-125 315t120 318t314 133q106 0 189 -35t119 -77
q0 -68 -23 -113t-65 -45t-65 20t-47 66q-46 92 -133 92t-138 -87t-51 -243t74 -243t191 -87t186 44q19 12 27 17t40 27z" />
    <glyph glyph-name="Cdotaccent" unicode="&#x10a;" horiz-adv-x="1278" 
d="M584 1580q0 52 36 88t88 36t88 -36t36 -88t-36 -88t-88 -36t-88 36t-36 88zM699 -12q-277 0 -463 194t-186 470t190 479t468 203q226 0 472 -54q6 -2 12 -131t6 -160t-48 -31q-12 0 -28 8q-16 74 -92 160q-42 48 -124 79t-190 31q-196 0 -305 -162t-109 -401t123 -414
t347 -175q178 0 282 112q41 45 66 115q24 71 28 71q70 0 78 -18q0 -26 -30 -155t-46 -137q-174 -84 -451 -84z" />
    <glyph glyph-name="cdotaccent" unicode="&#x10b;" horiz-adv-x="870" 
d="M352 1180q0 52 36 88t88 36t88 -36t36 -88t-36 -88t-88 -36t-88 36t-36 88zM788 220q16 -8 16 -31t-12 -39q-30 -54 -118 -108t-196 -54q-178 0 -303 130t-125 315t120 318t314 133q106 0 189 -35t119 -77q0 -68 -23 -113t-65 -45t-65 20t-47 66q-46 92 -133 92t-138 -87
t-51 -243t74 -243t191 -87t186 44q19 12 27 17t40 27z" />
    <glyph glyph-name="Ccaron" unicode="&#x10c;" horiz-adv-x="1278" 
d="M948 1728q20 0 20 -40q-2 -2 -32 -28t-79 -72t-85 -89t-47 -43t-25 16q-49 68 -134 141q-84 73 -86 75q0 40 19 40t98 -43t127 -77q186 120 224 120zM699 -12q-277 0 -463 194t-186 470t190 479t468 203q226 0 472 -54q6 -2 12 -131t6 -160t-48 -31q-12 0 -28 8
q-16 74 -92 160q-42 48 -124 79t-190 31q-196 0 -305 -162t-109 -401t123 -414t347 -175q178 0 282 112q41 45 66 115q24 71 28 71q70 0 78 -18q0 -26 -30 -155t-46 -137q-174 -84 -451 -84z" />
    <glyph glyph-name="ccaron" unicode="&#x10d;" horiz-adv-x="870" 
d="M637 1328q17 0 17 -46q-105 -105 -156 -188q-51 -82 -63 -82q-11 0 -48 59t-169 211q0 46 17 46t86 -49t115 -91q50 42 117 91t84 49zM788 220q16 -8 16 -31t-12 -39q-30 -54 -118 -108t-196 -54q-178 0 -303 130t-125 315t120 318t314 133q106 0 189 -35t119 -77
q0 -68 -23 -113t-65 -45t-65 20t-47 66q-46 92 -133 92t-138 -87t-51 -243t74 -243t191 -87t186 44q19 12 27 17t40 27z" />
    <glyph glyph-name="Dcaron" unicode="&#x10e;" horiz-adv-x="1416" 
d="M834 1728q20 0 20 -40q-2 -2 -32 -27t-79 -72t-85 -90t-47 -43t-25 16q-49 68 -134 141q-84 73 -86 75q0 40 19 40t98 -43t127 -77q186 120 224 120zM434 1060v-784q0 -112 22 -148q32 -32 244 -32q406 0 406 584q0 224 -109 380t-311 156h-10q-192 0 -217 -34t-25 -122z
M54 30q0 30 6 30q26 0 76 13t58 31q14 42 14 182v756q0 120 -14 164q-6 22 -56 36t-80 14q-8 0 -8 29t8 37q132 -6 266 -6h346q326 0 509 -192t183 -466t-185 -469t-509 -195l-342 8l-266 -8q-6 6 -6 36z" />
    <glyph glyph-name="dcaron" unicode="&#x10f;" horiz-adv-x="1040" 
d="M1006 1288q0 102 156 102q28 -40 28 -125t-54 -171t-108 -118h-10q-8 0 -22 14t-14 19t20 24q60 57 60 123q0 18 -28 55t-28 77zM504 888q86 0 146 -28q10 0 10 32v188q0 76 -12 136q-10 32 -104 32h-16q-12 0 -12 32t12 32q170 17 249 46q80 30 83 30h4q8 0 16 -11
t8 -21q-20 -78 -20 -188v-880q0 -92 12 -148q5 -36 116 -36q4 -4 4 -34t-12 -30q-114 -8 -293 -47l-23 -5q-12 0 -12 34v34q0 6 -3 8t-5 0q-96 -74 -208 -74q-162 0 -282 119t-120 308t137 330t325 141zM272 451q0 -161 62 -256t174 -95q68 0 110 35t42 89v420q0 43 -24 79
q-47 69 -152 69q-104 0 -158 -90t-54 -251z" />
    <glyph glyph-name="Dcroat" unicode="&#x110;" horiz-adv-x="1436" 
d="M68 1322q134 -6 280 -6h324q178 0 313 -55t218 -147q169 -187 169 -458t-176 -461q-86 -93 -219 -147t-297 -54q-32 0 -150 5q-195 8 -420 -3l-38 -4q-8 8 -8 38t8 30q24 0 75 13t59 31q14 36 14 182v330h-112q-12 0 -12 34t12 50h112v342q0 114 -14 164q-6 16 -59 33
t-77 17q-8 0 -8 30t6 36zM446 616v-340q0 -112 24 -148q18 -16 104 -24t138 -8q200 0 306 147t106 448t-189 448q-99 77 -235 77h-12q-192 0 -217 -33t-25 -123v-360h354q12 0 12 -29t-12 -55h-354z" />
    <glyph glyph-name="dcroat" unicode="&#x111;" horiz-adv-x="1070" 
d="M900 1388q8 0 17 -12t11 -20q-22 -60 -24 -164v-36q0 -10 14 -10h108q16 0 16 -12v-6q-8 -96 -30 -96h-94q-14 0 -14 -10v-734q0 -92 12 -148q8 -27 62 -32q20 -2 38 -4h20q8 -4 8 -34t-12 -30q-75 -5 -176 -24q-100 -18 -124 -24l-24 -4q-12 0 -12 34v50q0 8 -2 10
t-6 -2q-108 -92 -216 -92q-160 0 -274 117t-114 306t133 334t317 147q86 0 154 -36q8 0 8 36v132q0 8 -12 8h-264q-12 0 -12 28t16 76l12 10h250q6 0 6 27t-6 51q-10 32 -104 32h-18q-12 0 -12 28t12 28q174 17 332 76h4zM696 254v386q0 66 -24 94q-48 62 -156 62
q-84 0 -145 -94t-61 -238t64 -246t172 -102q70 0 110 36t40 102z" />
    <glyph glyph-name="Emacron" unicode="&#x112;" horiz-adv-x="1168" 
d="M274 1472q0 38 8 70t20 32h536q27 0 -8 -110h-544q-12 0 -12 8zM991 1034q-27 0 -33 14q-66 178 -256 178h-104q-148 0 -152 -26q-12 -56 -12 -162v-314q0 -12 72 -12h158q86 0 108 10t31 55t15 65q2 14 31 14t39 -10v-378q-8 -8 -36 -8t-34 16q-26 99 -39 108
q-3 2 -23 15t-171 13t-151 -16v-310q0 -110 18 -162q10 -26 136 -26h74q156 0 238 42q32 16 72 70t62 122q2 12 37 12t47 -12q-12 -36 -56 -157t-52 -181q-80 0 -331 6t-353 2l-266 -8q-6 6 -6 36t6 30q26 0 76 13t58 31q14 42 14 182v756q0 120 -14 164q-6 22 -56 36
t-80 14q-8 0 -8 29t8 37q132 -8 266 -8l646 14q8 -60 32 -167t26 -117q-10 -10 -37 -10z" />
    <glyph glyph-name="emacron" unicode="&#x113;" horiz-adv-x="872" 
d="M224 1128h456q10 0 9 -32t-13 -68l-12 -16h-456l-8 4q-4 4 -4 16q4 96 28 96zM788 220q16 -8 16 -31t-12 -39q-30 -54 -118 -108t-198 -54q-174 0 -300 129t-126 322t117 319t297 126q94 0 168 -37t116 -94q86 -117 86 -235q0 -44 -15 -55t-61 -11h-478q-14 0 -14 -12
q0 -167 115 -258q63 -50 167 -50t173 44q19 12 27 17t40 27zM450 792q-48 0 -86 -28t-67 -86t-29 -116q0 -14 12 -14h324q18 0 18 30q0 70 -47 142t-125 72z" />
    <glyph glyph-name="Ebreve" unicode="&#x114;" horiz-adv-x="1168" 
d="M562 1564q54 0 102 30t68 74q6 12 29 -8t22 -27t-5 -15q-30 -72 -88 -117t-128 -45t-129 44t-87 118q-4 8 -5 15t22 27t29 8q20 -44 68 -74t102 -30zM991 1034q-27 0 -33 14q-66 178 -256 178h-104q-148 0 -152 -26q-12 -56 -12 -162v-314q0 -12 72 -12h158q86 0 108 10
t31 55t15 65q2 14 31 14t39 -10v-378q-8 -8 -36 -8t-34 16q-26 99 -39 108q-3 2 -23 15t-171 13t-151 -16v-310q0 -110 18 -162q10 -26 136 -26h74q156 0 238 42q32 16 72 70t62 122q2 12 37 12t47 -12q-12 -36 -56 -157t-52 -181q-80 0 -331 6t-353 2l-266 -8q-6 6 -6 36
t6 30q26 0 76 13t58 31q14 42 14 182v756q0 120 -14 164q-6 22 -56 36t-80 14q-8 0 -8 29t8 37q132 -8 266 -8l646 14q8 -60 32 -167t26 -117q-10 -10 -37 -10z" />
    <glyph glyph-name="ebreve" unicode="&#x115;" horiz-adv-x="872" 
d="M447 1012q-79 0 -145 58t-80 150q0 8 19 22t28 14t9 -8q14 -58 64 -94t106 -36t102 36t60 94q0 8 9 8t28 -14t19 -22q-11 -90 -76 -149q-64 -59 -143 -59zM788 220q16 -8 16 -31t-12 -39q-30 -54 -118 -108t-198 -54q-174 0 -300 129t-126 322t117 319t297 126
q94 0 168 -37t116 -94q86 -117 86 -235q0 -44 -15 -55t-61 -11h-478q-14 0 -14 -12q0 -167 115 -258q63 -50 167 -50t173 44q19 12 27 17t40 27zM450 792q-48 0 -86 -28t-67 -86t-29 -116q0 -14 12 -14h324q18 0 18 30q0 70 -47 142t-125 72z" />
    <glyph glyph-name="Edotaccent" unicode="&#x116;" horiz-adv-x="1168" 
d="M462 1580q0 52 36 88t88 36t88 -36t36 -88t-36 -88t-88 -36t-88 36t-36 88zM991 1034q-27 0 -33 14q-66 178 -256 178h-104q-148 0 -152 -26q-12 -56 -12 -162v-314q0 -12 72 -12h158q86 0 108 10t31 55t15 65q2 14 31 14t39 -10v-378q-8 -8 -36 -8t-34 16
q-26 99 -39 108q-3 2 -23 15t-171 13t-151 -16v-310q0 -110 18 -162q10 -26 136 -26h74q156 0 238 42q32 16 72 70t62 122q2 12 37 12t47 -12q-12 -36 -56 -157t-52 -181q-80 0 -331 6t-353 2l-266 -8q-6 6 -6 36t6 30q26 0 76 13t58 31q14 42 14 182v756q0 120 -14 164
q-6 22 -56 36t-80 14q-8 0 -8 29t8 37q132 -8 266 -8l646 14q8 -60 32 -167t26 -117q-10 -10 -37 -10z" />
    <glyph glyph-name="edotaccent" unicode="&#x117;" horiz-adv-x="872" 
d="M332 1180q0 52 36 88t88 36t88 -36t36 -88t-36 -88t-88 -36t-88 36t-36 88zM788 220q16 -8 16 -31t-12 -39q-30 -54 -118 -108t-198 -54q-174 0 -300 129t-126 322t117 319t297 126q94 0 168 -37t116 -94q86 -117 86 -235q0 -44 -15 -55t-61 -11h-478q-14 0 -14 -12
q0 -167 115 -258q63 -50 167 -50t173 44q19 12 27 17t40 27zM450 792q-48 0 -86 -28t-67 -86t-29 -116q0 -14 12 -14h324q18 0 18 30q0 70 -47 142t-125 72z" />
    <glyph glyph-name="Eogonek" unicode="&#x118;" horiz-adv-x="1156" 
d="M973 1030q-27 0 -33 14q-66 178 -256 178h-104q-148 0 -152 -26q-12 -56 -12 -162v-314q0 -12 72 -12h158q86 0 108 10t31 55t15 65q2 14 31 14t39 -10v-378q-8 -8 -36 -8t-34 16q-26 99 -39 108q-3 2 -23 15t-171 13t-151 -16v-310q0 -110 18 -162q10 -26 136 -26h74
q156 0 238 42q32 16 72 70t62 122q4 12 38 12t46 -12q-100 -282 -108 -336q-78 -6 -171 -82t-93 -142q0 -30 22 -53t56 -23q57 0 104 29t62 43q8 0 8 -31t-8 -41q-36 -48 -99 -91t-128 -43t-109 46t-44 115t71 151t161 124q-340 8 -516 8l-266 -10q-6 6 -6 37t6 31
q26 0 76 13t58 31q14 42 14 182v756q0 110 -14 164q-6 16 -59 33t-77 17q-8 0 -8 29t8 37q132 -6 266 -6l646 8q8 -60 32 -167t26 -117q-10 -10 -37 -10z" />
    <glyph glyph-name="eogonek" unicode="&#x119;" horiz-adv-x="860" 
d="M468 884q209 0 297 -176q45 -90 45 -190q0 -42 -17 -52t-119 -12t-390 -2q-12 0 -12 -16v-40q6 -102 70 -187t178 -85t180 39q22 13 52 35l32 22q16 -6 16 -31t-18 -48t-105 -93q-193 -155 -193 -280q0 -30 20 -53t54 -23q61 0 111 32q49 32 57 40q10 0 10 -28t-24 -60
t-87 -75t-128 -43t-109 46t-44 108t57 142t123 134q-16 -4 -60 -4q-180 0 -298 124t-118 318t120 326t300 132zM448 792q-66 0 -108 -48q-68 -78 -68 -182q0 -14 14 -14h294q18 2 18 30q0 70 -42 142t-108 72z" />
    <glyph glyph-name="Ecaron" unicode="&#x11a;" horiz-adv-x="1168" 
d="M804 1728q20 0 20 -40q-2 -2 -32 -28t-79 -72t-85 -89t-47 -43t-25 16q-49 68 -134 141q-84 73 -86 75q0 40 19 40t98 -43t127 -77q186 120 224 120zM991 1034q-27 0 -33 14q-66 178 -256 178h-104q-148 0 -152 -26q-12 -56 -12 -162v-314q0 -12 72 -12h158q86 0 108 10
t31 55t15 65q2 14 31 14t39 -10v-378q-8 -8 -36 -8t-34 16q-26 99 -39 108q-3 2 -23 15t-171 13t-151 -16v-310q0 -110 18 -162q10 -26 136 -26h74q156 0 238 42q32 16 72 70t62 122q2 12 37 12t47 -12q-12 -36 -56 -157t-52 -181q-80 0 -331 6t-353 2l-266 -8q-6 6 -6 36
t6 30q26 0 76 13t58 31q14 42 14 182v756q0 120 -14 164q-6 22 -56 36t-80 14q-8 0 -8 29t8 37q132 -8 266 -8l646 14q8 -60 32 -167t26 -117q-10 -10 -37 -10z" />
    <glyph glyph-name="ecaron" unicode="&#x11b;" horiz-adv-x="872" 
d="M645 1328q17 0 17 -46q-105 -105 -156 -188q-51 -82 -63 -82q-11 0 -48 59t-169 211q0 46 17 46t86 -49t115 -91q50 42 117 91t84 49zM788 220q16 -8 16 -31t-12 -39q-30 -54 -118 -108t-198 -54q-174 0 -300 129t-126 322t117 319t297 126q94 0 168 -37t116 -94
q86 -117 86 -235q0 -44 -15 -55t-61 -11h-478q-14 0 -14 -12q0 -167 115 -258q63 -50 167 -50t173 44q19 12 27 17t40 27zM450 792q-48 0 -86 -28t-67 -86t-29 -116q0 -14 12 -14h324q18 0 18 30q0 70 -47 142t-125 72z" />
    <glyph glyph-name="Gcircumflex" unicode="&#x11c;" horiz-adv-x="1404" 
d="M932 1456q-38 0 -224 120q-48 -34 -127 -77t-98 -43t-19 38q2 2 86 75t134 141q16 18 25 18t46 -44t65 -71t60 -56t51 -45t21 -18q0 -38 -20 -38zM1228 136q0 -28 -44 -48q-80 -36 -118 -50t-145 -34t-237 -20q-264 0 -449 196t-185 471t192 479t466 204q176 0 464 -74
q6 -2 17 -133t11 -155t-34 -24t-50 12q-13 62 -50 116q-36 54 -77 84q-104 76 -286 76q-183 0 -293 -156t-110 -400q0 -144 51 -277t162 -226t248 -93t203 38q20 14 20 46l-2 144v14q0 120 -14 162q-8 26 -59 38t-85 12q-8 0 -8 29t8 37l280 -12q2 0 242 12q6 -18 6 -43
t-10 -25t-51 -12t-63 -24t-22 -142l2 -130q0 -36 10 -62t10 -30z" />
    <glyph glyph-name="gcircumflex" unicode="&#x11d;" horiz-adv-x="954" 
d="M623 994q-17 0 -84 49t-117 91q-46 -42 -115 -91t-86 -49t-17 48q98 112 124 145t54 78t38 45t22 -18q114 -166 198 -250q0 -48 -17 -48zM436 880q72 0 166 -26t160 -26h114q4 0 14 -26t10 -47t-12 -21h-130q-8 0 -8 -4t18 -54t18 -96q0 -118 -99 -213t-247 -95
q-72 0 -124 8q-24 -10 -44 -37t-20 -48q0 -43 79 -55t228 -15t242 -52t93 -147q2 -150 -144 -260t-338 -110q-146 -2 -255 56t-109 164q0 58 57 112t123 76q-52 16 -96 61t-44 105q0 86 148 178q-58 26 -108 103t-50 163q0 142 104 224t254 82zM284 581q0 -89 40 -156
t113 -67t108 57t35 152t-40 161t-114 66t-108 -62t-34 -151zM712 -166q0 70 -101 93t-271 23q-8 0 -20 -8q-79 -31 -99 -74q-9 -20 -9 -48q0 -72 76 -120t179 -48t174 52t71 130z" />
    <glyph glyph-name="Gbreve" unicode="&#x11e;" horiz-adv-x="1404" 
d="M708 1564q54 0 102 30t68 74q6 12 29 -8t22 -27t-5 -15q-30 -72 -88 -117t-128 -45t-129 44t-87 118q-4 8 -5 15t22 27t29 8q20 -44 68 -74t102 -30zM1228 136q0 -28 -44 -48q-80 -36 -118 -50t-145 -34t-237 -20q-264 0 -449 196t-185 471t192 479t466 204
q176 0 464 -74q6 -2 17 -133t11 -155t-34 -24t-50 12q-13 62 -50 116q-36 54 -77 84q-104 76 -286 76q-183 0 -293 -156t-110 -400q0 -144 51 -277t162 -226t248 -93t203 38q20 14 20 46l-2 144v14q0 120 -14 162q-8 26 -59 38t-85 12q-8 0 -8 29t8 37l280 -12q2 0 242 12
q6 -18 6 -43t-10 -25t-51 -12t-63 -24t-22 -142l2 -130q0 -36 10 -62t10 -30z" />
    <glyph glyph-name="gbreve" unicode="&#x11f;" horiz-adv-x="954" 
d="M417 1012q-79 0 -145 58t-80 150q0 8 19 22t28 14t9 -8q14 -58 64 -94t106 -36t102 36t60 94q0 8 9 8t28 -14t19 -22q-11 -90 -76 -149q-64 -59 -143 -59zM436 880q72 0 166 -26t160 -26h114q4 0 14 -26t10 -47t-12 -21h-130q-8 0 -8 -4t18 -54t18 -96q0 -118 -99 -213
t-247 -95q-72 0 -124 8q-24 -10 -44 -37t-20 -48q0 -43 79 -55t228 -15t242 -52t93 -147q2 -150 -144 -260t-338 -110q-146 -2 -255 56t-109 164q0 58 57 112t123 76q-52 16 -96 61t-44 105q0 86 148 178q-58 26 -108 103t-50 163q0 142 104 224t254 82zM284 581
q0 -89 40 -156t113 -67t108 57t35 152t-40 161t-114 66t-108 -62t-34 -151zM712 -166q0 70 -101 93t-271 23q-8 0 -20 -8q-79 -31 -99 -74q-9 -20 -9 -48q0 -72 76 -120t179 -48t174 52t71 130z" />
    <glyph glyph-name="Gdotaccent" unicode="&#x120;" horiz-adv-x="1404" 
d="M584 1580q0 52 36 88t88 36t88 -36t36 -88t-36 -88t-88 -36t-88 36t-36 88zM1228 136q0 -28 -44 -48q-80 -36 -118 -50t-145 -34t-237 -20q-264 0 -449 196t-185 471t192 479t466 204q176 0 464 -74q6 -2 17 -133t11 -155t-34 -24t-50 12q-13 62 -50 116q-36 54 -77 84
q-104 76 -286 76q-183 0 -293 -156t-110 -400q0 -144 51 -277t162 -226t248 -93t203 38q20 14 20 46l-2 144v14q0 120 -14 162q-8 26 -59 38t-85 12q-8 0 -8 29t8 37l280 -12q2 0 242 12q6 -18 6 -43t-10 -25t-51 -12t-63 -24t-22 -142l2 -130q0 -36 10 -62t10 -30z" />
    <glyph glyph-name="gdotaccent" unicode="&#x121;" horiz-adv-x="954" 
d="M314 1180q0 52 36 88t88 36t88 -36t36 -88t-36 -88t-88 -36t-88 36t-36 88zM436 880q72 0 166 -26t160 -26h114q4 0 14 -26t10 -47t-12 -21h-130q-8 0 -8 -4t18 -54t18 -96q0 -118 -99 -213t-247 -95q-72 0 -124 8q-24 -10 -44 -37t-20 -48q0 -43 79 -55t228 -15t242 -52
t93 -147q2 -150 -144 -260t-338 -110q-146 -2 -255 56t-109 164q0 58 57 112t123 76q-52 16 -96 61t-44 105q0 86 148 178q-58 26 -108 103t-50 163q0 142 104 224t254 82zM284 581q0 -89 40 -156t113 -67t108 57t35 152t-40 161t-114 66t-108 -62t-34 -151zM712 -166
q0 70 -101 93t-271 23q-8 0 -20 -8q-79 -31 -99 -74q-9 -20 -9 -48q0 -72 76 -120t179 -48t174 52t71 130z" />
    <glyph glyph-name="Gcommaaccent" unicode="&#x122;" horiz-adv-x="1404" 
d="M584 -192q0 40 51 70t131 30q18 -16 31 -51t13 -65q0 -136 -174 -240h-10q-14 0 -31 8t-17 12t22 21q66 51 66 85t-41 62t-41 68zM1228 136q0 -28 -44 -48q-80 -36 -118 -50t-145 -34t-237 -20q-264 0 -449 196t-185 471t192 479t466 204q176 0 464 -74q6 -2 17 -133
t11 -155t-34 -24t-50 12q-13 62 -50 116q-36 54 -77 84q-104 76 -286 76q-183 0 -293 -156t-110 -400q0 -144 51 -277t162 -226t248 -93t203 38q20 14 20 46l-2 144v14q0 120 -14 162q-8 26 -59 38t-85 12q-8 0 -8 29t8 37l280 -12q2 0 242 12q6 -18 6 -43t-10 -25t-51 -12
t-63 -24t-22 -142l2 -130q0 -36 10 -62t10 -30z" />
    <glyph glyph-name="gcommaaccent" unicode="&#x123;" horiz-adv-x="954" 
d="M556 1110q0 -40 -51 -70t-131 -30q-18 16 -31 51t-13 65q0 136 174 240h10q14 0 31 -8t17 -12t-22 -21q-66 -51 -66 -85t41 -62t41 -68zM436 880q72 0 166 -26t160 -26h114q4 0 14 -26t10 -47t-12 -21h-130q-8 0 -8 -4t18 -54t18 -96q0 -118 -99 -213t-247 -95
q-72 0 -124 8q-24 -10 -44 -37t-20 -48q0 -43 79 -55t228 -15t242 -52t93 -147q2 -150 -144 -260t-338 -110q-146 -2 -255 56t-109 164q0 58 57 112t123 76q-52 16 -96 61t-44 105q0 86 148 178q-58 26 -108 103t-50 163q0 142 104 224t254 82zM284 581q0 -89 40 -156
t113 -67t108 57t35 152t-40 161t-114 66t-108 -62t-34 -151zM712 -166q0 70 -101 93t-271 23q-8 0 -20 -8q-79 -31 -99 -74q-9 -20 -9 -48q0 -72 76 -120t179 -48t174 52t71 130z" />
    <glyph glyph-name="Hcircumflex" unicode="&#x124;" horiz-adv-x="1416" 
d="M930 1456q-38 0 -224 120q-48 -34 -127 -77t-98 -43t-19 38q2 2 86 75t134 141q16 18 25 18t46 -44t65 -71t60 -56t51 -45t21 -18q0 -38 -20 -38zM1358 1282q0 -24 -8 -24q-18 0 -72 -16t-58 -30q-16 -62 -16 -176v-752q0 -110 18 -180q4 -14 55 -29t69 -15q8 0 8 -27
t-4 -39q-240 12 -284 12t-236 -12q-8 8 -8 37t8 29q24 0 75 14t57 30q16 62 16 168v344l-4 8q-188 4 -364 2t-176 -8v-334q0 -110 18 -180q4 -14 55 -29t69 -15q8 0 8 -27t-4 -39q-240 12 -284 12t-236 -12q-8 8 -8 37t8 29q24 0 75 14t57 30q16 62 16 168v772
q0 120 -16 168q-8 16 -56 31t-72 15q-8 0 -8 31t4 35l266 -12q16 0 256 12q6 -18 6 -42t-8 -24q-18 0 -72 -16t-58 -30q-16 -62 -16 -176v-292l4 -6q196 -4 276 -4t260 4q4 4 4 8v298q0 120 -16 168q-8 16 -56 31t-72 15q-8 0 -8 31t4 35l266 -12q16 0 256 12q6 -18 6 -42z
" />
    <glyph glyph-name="hcircumflex" unicode="&#x125;" horiz-adv-x="1156" 
d="M518 1456q-38 0 -224 120q-48 -34 -127 -77t-98 -43t-19 38q2 2 86 75t134 141q16 18 25 18t46 -44t65 -71t60 -56t51 -45t21 -18q0 -38 -20 -38zM1108 -8q-98 14 -221 14t-263 -14q-6 8 -6 38t6 30q24 0 69 15t51 29q12 60 12 146v196q0 166 -45 229t-143 63
q-60 0 -110 -34t-50 -76v-344q0 -122 16 -180q4 -14 53 -29t67 -15q6 0 7 -29t-3 -39q-112 14 -243 14t-243 -14q-8 8 -8 38t8 30q24 0 73 15t53 29q14 60 14 144v832q0 80 -10 136q-10 32 -104 32h-18q-12 0 -12 32t12 32q168 16 275 56q27 10 57 20h4q8 0 16 -11t10 -21
q-24 -78 -24 -188v-404q0 -12 5 -12t11 6q42 48 123 87t161 39q256 0 256 -394v-206q0 -122 16 -180q2 -14 53 -29t69 -15q6 0 7 -29t-1 -39z" />
    <glyph glyph-name="Hbar" unicode="&#x126;" horiz-adv-x="1464" 
d="M1002 960h-546v-234q0 -6 4 -6q196 -4 277 -4t261 4q4 4 4 8v232zM610 1286q0 -28 -8 -28q-18 0 -71 -15t-57 -31q-14 -48 -16 -168q24 -4 244 -4t300 4q-2 118 -14 168q-6 16 -56 31t-74 15q-8 0 -8 29t6 37q192 -12 236 -12t284 12q4 -16 4 -41t-8 -25q-18 0 -71 -15
t-57 -31q-14 -56 -14 -168h102q12 0 12 -32t-12 -52h-104v-680q0 -116 16 -176q4 -16 56 -30t72 -14q8 0 8 -26t-6 -42q-6 2 -101 8t-193 6t-224 -14q-8 8 -8 38t8 30q24 0 75 14t57 30q14 50 14 168v326l-4 8q-188 4 -364 2t-178 -8v-320q0 -110 18 -176q4 -14 56 -29
t70 -15q8 0 8 -28t-4 -40q-182 14 -267 14t-253 -14q-8 8 -8 38t6 30q24 0 76 14t58 30q14 52 14 168v688h-94q-10 0 -10 32t12 52h92q-2 126 -14 166q-8 18 -56 33t-74 15q-8 0 -8 30t6 36l260 -12q20 0 260 12q6 -10 6 -38z" />
    <glyph glyph-name="hbar" unicode="&#x127;" horiz-adv-x="1124" 
d="M1108 -8q-98 14 -221 14t-263 -14q-6 8 -6 38t6 30q24 0 69 15t51 29q12 60 12 146v196q0 166 -45 229t-143 63q-60 0 -110 -34t-50 -76v-344q0 -122 16 -180q4 -14 53 -29t67 -15q6 0 7 -29t-3 -39q-112 14 -243 14t-243 -14q-8 8 -8 38t8 30q24 0 73 15t53 29
q14 60 14 144v800h-112q-10 0 -10 34t12 54h109q-2 45 -9 80q-10 32 -104 32h-18q-12 0 -12 32t12 32q168 16 275 56q27 10 57 20h4q8 0 16 -11t10 -21q-24 -78 -24 -188v-32h268q12 0 12 -30t-12 -58h-268v-284q0 -12 5 -12t11 6q42 48 123 87t161 39q256 0 256 -394v-206
q0 -122 16 -180q2 -14 53 -29t69 -15q6 0 7 -29t-1 -39z" />
    <glyph glyph-name="Itilde" unicode="&#x128;" horiz-adv-x="646" 
d="M-22 1476q-16 0 -16 36t36 90q74 92 156 92t192 -61t182 -61q36 0 85 51t53 51q14 0 14 -38t-34 -90q-68 -90 -152 -90t-194 61t-182 61q-42 0 -110 -77q-22 -25 -30 -25zM296 6q-44 0 -236 -12q-8 8 -8 37t8 29q24 0 75 14t57 30q16 62 16 168v772q0 120 -16 168
q-8 16 -56 31t-72 15q-8 0 -8 31t4 35l266 -12q16 0 256 12q6 -18 6 -42t-8 -24q-18 0 -72 -16t-58 -30q-16 -62 -16 -176v-752q0 -110 18 -180q4 -14 55 -29t69 -15q8 0 8 -27t-4 -39q-240 12 -284 12z" />
    <glyph glyph-name="itilde" unicode="&#x129;" horiz-adv-x="600" 
d="M16 1030q-10 0 -10 33t32 79q60 80 126 80t156 -53t150 -53q30 0 70 45t47 45t7 -38t-28 -78q-56 -78 -124 -78t-158 53t-150 53q-28 0 -68 -44t-50 -44zM406 288q0 -124 14 -180q4 -14 49 -31t61 -17q6 0 7 -28t-3 -38q-168 12 -228 12t-240 -12q-8 8 -8 37t8 29
q22 0 67 17t49 31q16 70 16 148v322q0 133 -77 157q-29 9 -49 11t-20 6q0 60 10 60q128 14 235 41t109 27q14 0 14 -40l-14 -172v-380z" />
    <glyph glyph-name="Imacron" unicode="&#x12a;" horiz-adv-x="646" 
d="M34 1472q0 38 8 70t20 32h536q27 0 -8 -110h-544q-12 0 -12 8zM296 6q-44 0 -236 -12q-8 8 -8 37t8 29q24 0 75 14t57 30q16 62 16 168v772q0 120 -16 168q-8 16 -56 31t-72 15q-8 0 -8 31t4 35l266 -12q16 0 256 12q6 -18 6 -42t-8 -24q-18 0 -72 -16t-58 -30
q-16 -62 -16 -176v-752q0 -110 18 -180q4 -14 55 -29t69 -15q8 0 8 -27t-4 -39q-240 12 -284 12z" />
    <glyph glyph-name="imacron" unicode="&#x12b;" horiz-adv-x="600" 
d="M82 1128h456q10 0 9 -32t-13 -68l-12 -16h-456l-8 4q-4 4 -4 16q4 96 28 96zM406 288q0 -124 14 -180q4 -14 49 -31t61 -17q6 0 7 -28t-3 -38q-168 12 -228 12t-240 -12q-8 8 -8 37t8 29q22 0 67 17t49 31q16 70 16 148v322q0 133 -77 157q-29 9 -49 11t-20 6q0 60 10 60
q128 14 235 41t109 27q14 0 14 -40l-14 -172v-380z" />
    <glyph glyph-name="Ibreve" unicode="&#x12c;" horiz-adv-x="646" 
d="M322 1564q54 0 102 30t68 74q6 12 29 -8t22 -27t-5 -15q-30 -72 -88 -117t-128 -45t-129 44t-87 118q-4 8 -5 15t22 27t29 8q20 -44 68 -74t102 -30zM296 6q-44 0 -236 -12q-8 8 -8 37t8 29q24 0 75 14t57 30q16 62 16 168v772q0 120 -16 168q-8 16 -56 31t-72 15
q-8 0 -8 31t4 35l266 -12q16 0 256 12q6 -18 6 -42t-8 -24q-18 0 -72 -16t-58 -30q-16 -62 -16 -176v-752q0 -110 18 -180q4 -14 55 -29t69 -15q8 0 8 -27t-4 -39q-240 12 -284 12z" />
    <glyph glyph-name="ibreve" unicode="&#x12d;" horiz-adv-x="600" 
d="M305 1012q-79 0 -145 58t-80 150q0 8 19 22t28 14t9 -8q14 -58 64 -94t106 -36t102 36t60 94q0 8 9 8t28 -14t19 -22q-11 -90 -76 -149q-64 -59 -143 -59zM406 288q0 -124 14 -180q4 -14 49 -31t61 -17q6 0 7 -28t-3 -38q-168 12 -228 12t-240 -12q-8 8 -8 37t8 29
q22 0 67 17t49 31q16 70 16 148v322q0 133 -77 157q-29 9 -49 11t-20 6q0 60 10 60q128 14 235 41t109 27q14 0 14 -40l-14 -172v-380z" />
    <glyph glyph-name="Iogonek" unicode="&#x12e;" horiz-adv-x="566" 
d="M552 1282q0 -24 -8 -24q-18 0 -72 -16t-58 -30q-16 -62 -16 -176v-752q0 -110 18 -180q4 -14 55 -29t69 -15q8 0 8 -28t-4 -40q-38 0 -110 8q-78 -46 -138 -110t-60 -122q0 -30 22 -53t56 -23q57 0 104 29t62 43q8 0 8 -31t-8 -41q-36 -48 -99 -91t-128 -43t-109 46
t-44 115t78 155t170 130l-58 2q-84 0 -266 -14q-8 8 -8 38t8 30q24 0 75 14t57 30q16 62 16 168v772q0 120 -16 168q-8 16 -56 31t-72 15q-8 0 -8 31t4 35l266 -12q16 0 256 12q6 -18 6 -42z" />
    <glyph glyph-name="iogonek" unicode="&#x12f;" horiz-adv-x="572" 
d="M156 1182q0 52 36 88t86 36t87 -37t37 -87t-37 -87t-87 -37t-86 36t-36 88zM400 288q0 -124 14 -180q4 -14 49 -31t61 -17q6 0 7 -28t-3 -38l-94 6q-78 -46 -138 -110t-60 -122q0 -30 21 -52t55 -22q58 0 107 29t61 41q8 0 8 -28t-10 -42q-36 -48 -99 -92t-128 -44
t-109 46t-44 115t79 155t171 130l-52 2q-56 0 -236 -12q-8 8 -8 37t8 29q22 0 67 17t49 31q16 70 16 148v322q0 133 -77 157q-29 9 -49 11t-20 6q0 60 10 60q128 14 235 41t109 27q14 0 14 -40l-14 -172v-380z" />
    <glyph glyph-name="Idotaccent" unicode="&#x130;" horiz-adv-x="646" 
d="M196 1580q0 52 36 88t88 36t88 -36t36 -88t-36 -88t-88 -36t-88 36t-36 88zM296 6q-44 0 -236 -12q-8 8 -8 37t8 29q24 0 75 14t57 30q16 62 16 168v772q0 120 -16 168q-8 16 -56 31t-72 15q-8 0 -8 31t4 35l266 -12q16 0 256 12q6 -18 6 -42t-8 -24q-18 0 -72 -16
t-58 -30q-16 -62 -16 -176v-752q0 -110 18 -180q4 -14 55 -29t69 -15q8 0 8 -27t-4 -39q-240 12 -284 12z" />
    <glyph glyph-name="dotlessi" unicode="&#x131;" horiz-adv-x="600" 
d="M406 288q0 -124 14 -180q4 -14 49 -31t61 -17q6 0 7 -28t-3 -38q-168 12 -228 12t-240 -12q-8 8 -8 37t8 29q22 0 67 17t49 31q16 70 16 148v322q0 133 -77 157q-29 9 -49 11t-20 6q0 60 10 60q128 14 235 41t109 27q14 0 14 -40l-14 -172v-380z" />
    <glyph glyph-name="IJ" unicode="&#x132;" horiz-adv-x="1132" 
d="M942 1312q54 0 294 12q6 -18 6 -42t-8 -24q-18 0 -71 -16t-57 -30q-16 -62 -16 -176v-808q0 -296 -150 -484t-396 -188q-30 0 -66 12t-44 20q-26 34 -26 85t38 83t84 32t95 -52t77 -52q74 0 117 137t43 391v836q0 112 -14 164q-6 24 -55 35t-81 11q-8 0 -8 31t4 35
q180 -12 234 -12zM296 6q-44 0 -236 -12q-8 8 -8 37t8 29q24 0 75 14t57 30q16 62 16 168v772q0 120 -16 168q-8 16 -56 31t-72 15q-8 0 -8 31t4 35l266 -12q16 0 256 12q6 -18 6 -42t-8 -24q-18 0 -72 -16t-58 -30q-16 -62 -16 -176v-752q0 -110 18 -180q4 -14 55 -29
t69 -15q8 0 8 -27t-4 -39q-240 12 -284 12z" />
    <glyph glyph-name="ij" unicode="&#x133;" horiz-adv-x="1120" 
d="M626 1209q0 51 36 87t88 36t88 -36t36 -87t-36 -88t-88 -37t-88 37t-36 88zM876 668v-480q0 -274 -88 -410q-48 -76 -147 -145t-155 -81q-26 14 -30 38v9q0 7 2 9q210 97 210 536v432q0 94 -32 128q-29 36 -92 42q-20 2 -20 6q0 58 12 60q56 4 162 24t133 28t39 10
t18 -12t4 -22q-16 -136 -16 -172zM410 668v-384q0 -122 16 -180q4 -14 54 -29t68 -15q8 0 9 -29t-3 -39q-14 2 -107 8t-140 6t-138 -6t-105 -8q-8 8 -8 38t8 30q22 0 72 15t54 29q14 60 14 146v326q0 94 -32 129t-94 41q-20 2 -20 6q0 58 12 60q56 4 162 24t133 28t39 10
t18 -12t4 -22q-16 -128 -16 -172zM166 1209q0 51 36 87t88 36t88 -36t36 -87t-36 -88t-88 -37t-88 37t-36 88z" />
    <glyph glyph-name="Jcircumflex" unicode="&#x134;" horiz-adv-x="932" 
d="M834 1456q-38 0 -224 120q-48 -34 -127 -77t-98 -43t-19 38q2 2 86 75t134 141q16 18 25 18t46 -44t65 -71t60 -56t51 -45t21 -18q0 -38 -20 -38zM580 1312q54 0 294 12q6 -18 6 -42t-8 -24q-18 0 -71 -16t-57 -30q-16 -62 -16 -176v-808q0 -296 -150 -484t-396 -188
q-30 0 -66 12t-44 20q-26 34 -26 85t38 83t84 32t95 -52t77 -52q74 0 117 137t43 391v836q0 112 -14 164q-6 24 -55 35t-81 11q-8 0 -8 31t4 35q180 -12 234 -12z" />
    <glyph glyph-name="jcircumflex" unicode="&#x135;" horiz-adv-x="548" 
d="M485 1012q-17 0 -84 49t-117 91q-46 -42 -115 -91t-86 -49t-17 48q98 112 124 145t54 78t38 45t22 -18q114 -166 198 -250q0 -48 -17 -48zM400 200q0 -272 -89 -425t-291 -223q-40 18 -40 44q0 10 4 14l39 25q90 63 139 229q30 103 30 262v452q0 133 -77 157
q-29 9 -49 11t-20 6q0 60 10 60q128 14 235 41t109 27q14 0 14 -40l-14 -172v-468z" />
    <glyph glyph-name="Kcommaaccent" unicode="&#x136;" horiz-adv-x="1444" 
d="M616 -192q0 40 51 70t131 30q18 -16 31 -51t13 -65q0 -136 -174 -240h-10q-14 0 -31 8t-17 12t22 21q66 51 66 85t-41 62t-41 68zM588 1282q0 -24 -8 -24q-18 0 -72 -16t-58 -30q-16 -62 -16 -176v-322q0 -9 10 -14h18q42 0 104 68q160 172 352 400q32 38 32 59t-44 29
t-74 8q-8 0 -10 23t2 37q222 -12 261 -12t207 12q4 -8 3 -34t-7 -26q-140 -16 -202 -84l-372 -424q-22 -26 4 -56l468 -556q36 -44 97 -64t89 -20q10 0 10 -27t-6 -39q-240 12 -288 12t-264 -12q-8 8 -8 37t8 29q22 0 56 14t34 35t-154 202t-250 281q-8 8 -42 8t-34 -24
v-296q0 -106 18 -176q4 -14 55 -29t69 -15q8 0 8 -27t-4 -39q-240 12 -284 12t-236 -12q-8 8 -8 37t8 29q24 0 75 14t57 30q16 62 16 168v772q0 120 -16 168q-8 16 -56 31t-72 15q-8 0 -8 31t4 35l266 -12q16 0 256 12q6 -18 6 -42z" />
    <glyph glyph-name="kcommaaccent" unicode="&#x137;" horiz-adv-x="1192" 
d="M490 -192q0 40 51 70t131 30q18 -16 31 -51t13 -65q0 -136 -174 -240h-10q-14 0 -31 8t-17 12t22 21q66 51 66 85t-41 62t-41 68zM54 30q0 30 8 30q24 0 73 15t53 29q14 60 14 146v830q0 80 -10 136q-10 32 -104 32h-18q-12 0 -12 32t12 32q168 16 275 56q27 10 57 20h4
q8 0 16 -11t10 -21q-24 -78 -24 -188v-668q48 12 60 22q64 56 124 106t89 78t29 50t-45 27t-45 7q-6 14 -6 35t8 23h194q54 0 212 8q17 -13 12 -40q-6 -26 -12 -26q-72 0 -125 -32t-140 -98t-159 -140q58 -62 198 -221t172 -185t79 -42t67 -16q8 0 8 -28t-2 -34
q-220 10 -262 10t-210 -12q-8 8 -8 36t8 28q20 0 46 9t26 19q0 4 -2 4l-292 326l-24 -6v-124q2 -130 16 -180q4 -14 54 -29t70 -15q6 0 7 -29t-3 -39q-98 14 -238 14t-252 -14q-8 8 -8 38z" />
    <glyph glyph-name="kgreenlandic" unicode="&#x138;" horiz-adv-x="1124" 
d="M386 876q8 0 16 -11t10 -21q-24 -76 -24 -188v-156q40 6 60 22q88 70 122 97t96 80t62 77t-45 29t-47 7q-4 14 -4 36t8 24q150 -4 213 -4t219 12q10 -10 9 -34t-5 -30l-40 -6q-84 -12 -123 -35t-143 -104t-178 -151q60 -66 196 -224t164 -184q30 -24 78 -40t66 -16
q10 0 10 -29t-2 -33q-200 10 -252 10t-220 -12q-8 8 -8 36t8 28q18 0 45 9t27 19l-292 330l-24 -6v-124q0 -118 16 -180q4 -14 55 -29t69 -15q6 0 7 -30t-3 -38l-244 14q-78 0 -246 -14q-8 8 -8 38t8 30q24 0 73 15t53 29q14 60 14 146v318q0 86 -10 136q-10 32 -104 32h-18
q-12 0 -12 32t12 32q200 19 332 76h4z" />
    <glyph glyph-name="Lacute" unicode="&#x139;" horiz-adv-x="1168" 
d="M212 1490q0 12 91 101t149 133q12 6 46 6t66 -18t32 -48q0 -48 -161 -128t-199 -80q-8 0 -16 11t-8 23zM588 1282q0 -24 -8 -24q-18 0 -72 -16t-58 -30q-16 -62 -16 -176v-752q0 -98 18 -160q10 -26 136 -26h74q156 0 238 42q32 16 72 70t62 122q2 12 37 12t47 -12
q-12 -36 -56 -157t-52 -181q-80 0 -331 6t-353 2l-266 -8q-6 6 -6 36t6 30q26 0 76 13t58 31q14 42 14 182v756q0 122 -16 170q-8 16 -56 31t-72 15q-8 0 -8 31t4 35l266 -12q16 0 256 12q6 -18 6 -42z" />
    <glyph glyph-name="lacute" unicode="&#x13a;" horiz-adv-x="590" 
d="M156 1490q0 12 91 101t149 133q12 6 46 6t66 -18t32 -48q0 -48 -161 -128t-199 -80q-8 0 -16 11t-8 23zM398 1388q8 0 17 -12t11 -20q-24 -76 -24 -188v-880q0 -124 14 -180q4 -14 49 -31t61 -17q6 0 7 -28t-3 -38q-168 12 -228 12t-240 -12q-8 8 -8 37t8 29q22 0 67 17
t49 31q16 70 16 148v832q0 76 -12 136q-10 32 -100 32h-20q-12 0 -12 28t12 28q200 19 332 76h4z" />
    <glyph glyph-name="Lcommaaccent" unicode="&#x13b;" horiz-adv-x="1168" 
d="M434 -192q0 40 51 70t131 30q18 -16 31 -51t13 -65q0 -136 -174 -240h-10q-14 0 -31 8t-17 12t22 21q66 51 66 85t-41 62t-41 68zM588 1282q0 -24 -8 -24q-18 0 -72 -16t-58 -30q-16 -62 -16 -176v-752q0 -98 18 -160q10 -26 136 -26h74q156 0 238 42q32 16 72 70t62 122
q2 12 37 12t47 -12q-12 -36 -56 -157t-52 -181q-80 0 -331 6t-353 2l-266 -8q-6 6 -6 36t6 30q26 0 76 13t58 31q14 42 14 182v756q0 122 -16 170q-8 16 -56 31t-72 15q-8 0 -8 31t4 35l266 -12q16 0 256 12q6 -18 6 -42z" />
    <glyph glyph-name="lcommaaccent" unicode="&#x13c;" horiz-adv-x="590" 
d="M194 -192q0 40 51 70t131 30q18 -16 31 -51t13 -65q0 -136 -174 -240h-10q-14 0 -31 8t-17 12t22 21q66 51 66 85t-41 62t-41 68zM398 1388q8 0 17 -12t11 -20q-24 -76 -24 -188v-880q0 -124 14 -180q4 -14 49 -31t61 -17q6 0 7 -28t-3 -38q-168 12 -228 12t-240 -12
q-8 8 -8 37t8 29q22 0 67 17t49 31q16 70 16 148v832q0 76 -12 136q-10 32 -100 32h-20q-12 0 -12 28t12 28q200 19 332 76h4z" />
    <glyph glyph-name="Lcaron" unicode="&#x13d;" horiz-adv-x="1168" 
d="M948 1288q0 102 156 102q28 -40 28 -125t-54 -171t-108 -118h-10q-8 0 -22 14t-14 19t20 24q60 57 60 123q0 18 -28 55t-28 77zM588 1282q0 -24 -8 -24q-18 0 -72 -16t-58 -30q-16 -62 -16 -176v-752q0 -98 18 -160q10 -26 136 -26h74q156 0 238 42q32 16 72 70t62 122
q2 12 37 12t47 -12q-12 -36 -56 -157t-52 -181q-80 0 -331 6t-353 2l-266 -8q-6 6 -6 36t6 30q26 0 76 13t58 31q14 42 14 182v756q0 122 -16 170q-8 16 -56 31t-72 15q-8 0 -8 31t4 35l266 -12q16 0 256 12q6 -18 6 -42z" />
    <glyph glyph-name="lcaron" unicode="&#x13e;" horiz-adv-x="590" 
d="M508 1288q0 102 156 102q28 -40 28 -125t-54 -171t-108 -118h-10q-8 0 -22 14t-14 19t20 24q60 57 60 123q0 18 -28 55t-28 77zM398 1388q8 0 17 -12t11 -20q-24 -76 -24 -188v-880q0 -124 14 -180q4 -14 49 -31t61 -17q6 0 7 -28t-3 -38q-168 12 -228 12t-240 -12
q-8 8 -8 37t8 29q22 0 67 17t49 31q16 70 16 148v832q0 76 -12 136q-10 32 -100 32h-20q-12 0 -12 28t12 28q200 19 332 76h4z" />
    <glyph glyph-name="Ldot" unicode="&#x13f;" horiz-adv-x="1168" 
d="M732 660q0 52 36 88t88 36t88 -36t36 -88t-36 -88t-88 -36t-88 36t-36 88zM588 1282q0 -24 -8 -24q-18 0 -72 -16t-58 -30q-16 -62 -16 -176v-752q0 -98 18 -160q10 -26 136 -26h74q156 0 238 42q32 16 72 70t62 122q2 12 37 12t47 -12q-12 -36 -56 -157t-52 -181
q-80 0 -331 6t-353 2l-266 -8q-6 6 -6 36t6 30q26 0 76 13t58 31q14 42 14 182v756q0 122 -16 170q-8 16 -56 31t-72 15q-8 0 -8 31t4 35l266 -12q16 0 256 12q6 -18 6 -42z" />
    <glyph glyph-name="ldot" unicode="&#x140;" horiz-adv-x="910" 
d="M600 580q0 52 36 88t88 36t88 -36t36 -88t-36 -88t-88 -36t-88 36t-36 88zM398 1388q8 0 17 -12t11 -20q-24 -76 -24 -188v-880q0 -124 14 -180q4 -14 49 -31t61 -17q6 0 7 -28t-3 -38q-168 12 -228 12t-240 -12q-8 8 -8 37t8 29q22 0 67 17t49 31q16 70 16 148v832
q0 76 -12 136q-10 32 -100 32h-20q-12 0 -12 28t12 28q200 19 332 76h4z" />
    <glyph glyph-name="Lslash" unicode="&#x141;" horiz-adv-x="1130" 
d="M568 1282q0 -24 -8 -24q-18 0 -72 -16t-58 -30q-16 -62 -16 -172v-348l322 224q12 0 38 -42t6 -58l-366 -250v-282q0 -98 18 -160q10 -26 136 -26h72q158 0 240 42q32 16 72 70t62 122q2 12 36 12t46 -12q-12 -36 -56 -157t-52 -181l-682 10l-266 -8q-8 8 -8 36t8 28
q26 0 76 13t58 31q14 42 14 182v124l-102 -68q-6 0 -21 16t-24 43t-1 31l148 102v512q0 118 -16 166q-8 16 -56 31t-72 15q-8 0 -8 31t4 35l266 -12q16 0 256 12q6 -18 6 -42z" />
    <glyph glyph-name="lslash" unicode="&#x142;" horiz-adv-x="590" 
d="M50 30q0 30 8 30q24 0 73 15t53 29q14 60 14 146v276l-102 -70q-6 0 -21 17t-17 25t-6 14t-6 12t-2 13t4 9l150 104v430q0 86 -10 136q-10 32 -104 32h-18q-12 0 -12 32t12 32q200 19 332 76h4q8 0 16 -11t10 -21q-22 -76 -22 -188v-376l98 68q10 0 20 -12q48 -62 24 -86
l-142 -96l-2 -382q0 -118 16 -180q4 -14 55 -29t69 -15q6 0 7 -30t-3 -38l-244 14q-78 0 -246 -14q-8 8 -8 38z" />
    <glyph glyph-name="Nacute" unicode="&#x143;" horiz-adv-x="1506" 
d="M656 1490q0 12 91 101t149 133q12 6 46 6t66 -18t32 -48q0 -48 -161 -128t-199 -80q-8 0 -16 11t-8 23zM264 6q-46 0 -202 -12q-8 8 -8 37t8 29q34 0 91 15t73 45q20 42 20 168v784q0 108 -22 146q-8 14 -69 26t-89 12q-8 0 -9 30t7 38q210 -10 257 -10t161 10
q67 -127 329 -471q263 -345 327 -433q4 24 4 82v544q0 106 -20 160q-10 24 -67 38t-89 14q-8 0 -9 29t5 37q214 -14 252 -14l236 14q4 -8 4 -37t-8 -29q-28 0 -86 -15t-76 -41q-22 -54 -22 -166v-758q0 -72 8 -280q-8 -8 -42 -8t-66 46l-796 1056v-810q0 -120 16 -164
q10 -24 74 -41t90 -17q6 0 7 -28t-3 -38q-240 12 -286 12z" />
    <glyph glyph-name="nacute" unicode="&#x144;" horiz-adv-x="1168" 
d="M774 1336q42 0 68 -14t26 -38q0 -50 -142 -161t-168 -111q-10 0 -20 11t-10 21t69 114t119 162q16 16 58 16zM307 6q-131 0 -243 -14q-8 8 -8 38t8 30q24 0 73 15t53 29q14 60 14 146v326q0 94 -32 128q-28 35 -93 42q-19 2 -19 6q0 58 10 60q92 8 208 35t119 28t6 1h5
q8 0 14 -14t6 -22q-8 -56 -8 -68t2 -14q2 0 10 6q48 48 123 84t153 36q258 0 258 -410v-190q0 -122 14 -180q4 -14 55 -29t69 -15q6 0 7 -29t-3 -39q-12 2 -105 8t-171 6t-204 -14q-8 8 -8 38t8 30q22 0 67 15t49 29q16 60 16 146v190q0 166 -45 232t-143 66q-64 0 -112 -35
t-48 -75v-344q0 -122 14 -180q4 -14 53 -29t65 -15q8 0 9 -29t-3 -39q-112 14 -243 14z" />
    <glyph glyph-name="Ncommaaccent" unicode="&#x145;" horiz-adv-x="1506" 
d="M746 -192q0 40 51 70t131 30q18 -16 31 -51t13 -65q0 -136 -174 -240h-10q-14 0 -31 8t-17 12t22 21q66 51 66 85t-41 62t-41 68zM264 6q-46 0 -202 -12q-8 8 -8 37t8 29q34 0 91 15t73 45q20 42 20 168v784q0 108 -22 146q-8 14 -69 26t-89 12q-8 0 -9 30t7 38
q210 -10 257 -10t161 10q67 -127 329 -471q263 -345 327 -433q4 24 4 82v544q0 106 -20 160q-10 24 -67 38t-89 14q-8 0 -9 29t5 37q214 -14 252 -14l236 14q4 -8 4 -37t-8 -29q-28 0 -86 -15t-76 -41q-22 -54 -22 -166v-758q0 -72 8 -280q-8 -8 -42 -8t-66 46l-796 1056
v-810q0 -120 16 -164q10 -24 74 -41t90 -17q6 0 7 -28t-3 -38q-240 12 -286 12z" />
    <glyph glyph-name="ncommaaccent" unicode="&#x146;" horiz-adv-x="1168" 
d="M474 -192q0 40 51 70t131 30q18 -16 31 -51t13 -65q0 -136 -174 -240h-10q-14 0 -31 8t-17 12t22 21q66 51 66 85t-41 62t-41 68zM307 6q-131 0 -243 -14q-8 8 -8 38t8 30q24 0 73 15t53 29q14 60 14 146v326q0 94 -32 128q-28 35 -93 42q-19 2 -19 6q0 58 10 60
q92 8 208 35t119 28t6 1h5q8 0 14 -14t6 -22q-8 -56 -8 -68t2 -14q2 0 10 6q48 48 123 84t153 36q258 0 258 -410v-190q0 -122 14 -180q4 -14 55 -29t69 -15q6 0 7 -29t-3 -39q-12 2 -105 8t-171 6t-204 -14q-8 8 -8 38t8 30q22 0 67 15t49 29q16 60 16 146v190
q0 166 -45 232t-143 66q-64 0 -112 -35t-48 -75v-344q0 -122 14 -180q4 -14 53 -29t65 -15q8 0 9 -29t-3 -39q-112 14 -243 14z" />
    <glyph glyph-name="Ncaron" unicode="&#x147;" horiz-adv-x="1506" 
d="M980 1728q20 0 20 -40q-2 -2 -32 -28t-79 -72t-85 -89t-47 -43t-25 16q-49 68 -134 141q-84 73 -86 75q0 40 19 40t98 -43t127 -77q186 120 224 120zM264 6q-46 0 -202 -12q-8 8 -8 37t8 29q34 0 91 15t73 45q20 42 20 168v784q0 108 -22 146q-8 14 -69 26t-89 12
q-8 0 -9 30t7 38q210 -10 257 -10t161 10q67 -127 329 -471q263 -345 327 -433q4 24 4 82v544q0 106 -20 160q-10 24 -67 38t-89 14q-8 0 -9 29t5 37q214 -14 252 -14l236 14q4 -8 4 -37t-8 -29q-28 0 -86 -15t-76 -41q-22 -54 -22 -166v-758q0 -72 8 -280q-8 -8 -42 -8
t-66 46l-796 1056v-810q0 -120 16 -164q10 -24 74 -41t90 -17q6 0 7 -28t-3 -38q-240 12 -286 12z" />
    <glyph glyph-name="ncaron" unicode="&#x148;" horiz-adv-x="1168" 
d="M771 1328q17 0 17 -46q-106 -106 -156 -188q-51 -82 -63 -82q-11 0 -48 59t-169 211q0 46 17 46t86 -49t115 -91q50 42 117 91t84 49zM307 6q-131 0 -243 -14q-8 8 -8 38t8 30q24 0 73 15t53 29q14 60 14 146v326q0 94 -32 128q-28 35 -93 42q-19 2 -19 6q0 58 10 60
q92 8 208 35t119 28t6 1h5q8 0 14 -14t6 -22q-8 -56 -8 -68t2 -14q2 0 10 6q48 48 123 84t153 36q258 0 258 -410v-190q0 -122 14 -180q4 -14 55 -29t69 -15q6 0 7 -29t-3 -39q-12 2 -105 8t-171 6t-204 -14q-8 8 -8 38t8 30q22 0 67 15t49 29q16 60 16 146v190
q0 166 -45 232t-143 66q-64 0 -112 -35t-48 -75v-344q0 -122 14 -180q4 -14 53 -29t65 -15q8 0 9 -29t-3 -39q-112 14 -243 14z" />
    <glyph glyph-name="Eng" unicode="&#x14a;" horiz-adv-x="1492" 
d="M1456 1288q0 -28 -8 -28q-28 0 -86 -15t-76 -41q-22 -56 -22 -166v-810q0 -308 -122 -490t-362 -182q-30 0 -65 12t-43 20q-28 38 -28 87t37 81t83 32t96 -52t78 -52q66 0 123 102t75 284l-768 1022v-810q0 -120 16 -164q10 -24 74 -41t90 -17q6 0 7 -30t-3 -38l-250 14
l-238 -14q-8 8 -8 38t8 30q34 0 91 15t73 45q20 42 20 168v786q0 104 -22 146q-8 14 -69 26t-89 12q-8 0 -9 29t7 37q210 -10 256 -10t162 10q67 -127 329 -471q263 -345 327 -433q4 24 4 82v546q0 120 -20 160q-14 18 -73 35t-83 17q-8 0 -9 28t5 36q214 -14 252 -14
l236 14q4 -8 4 -36z" />
    <glyph glyph-name="eng" unicode="&#x14b;" horiz-adv-x="1100" 
d="M660 884q134 0 213 -85t79 -247v-352q0 -272 -89 -425t-291 -223q-40 18 -40 44q0 10 4 14l39 25q90 63 139 229q30 103 30 264v324q0 156 -42 223t-134 67q-60 0 -114 -41t-58 -69v-344q0 -124 14 -180q4 -14 49 -31t61 -17q6 0 7 -28t-3 -38q-168 12 -228 12t-240 -12
q-8 8 -8 37t8 29q22 0 67 17t49 31q16 70 16 148v322q0 133 -77 157q-29 9 -49 11t-20 6q0 60 10 60q128 14 235 41t109 27q14 0 14 -40l-8 -76q0 -10 8 -10l6 2q36 36 54 53t75 46t115 29z" />
    <glyph glyph-name="Omacron" unicode="&#x14c;" horiz-adv-x="1386" 
d="M402 1472q0 38 8 70t20 32h536q27 0 -8 -110h-544q-12 0 -12 8zM50 656q0 280 188 479t452 199t453 -199t189 -479t-189 -478t-453 -198t-452 198t-188 478zM660 1236q-172 0 -263 -157t-91 -379q0 -339 180 -521q98 -99 236 -99q170 0 263 159t93 379q0 345 -178 521
q-98 97 -240 97z" />
    <glyph glyph-name="omacron" unicode="&#x14d;" horiz-adv-x="1014" 
d="M286 1128h456q10 0 9 -32t-13 -68l-12 -16h-456l-8 4q-4 4 -4 16q4 96 28 96zM505 884q189 0 322 -131t133 -317t-131 -318t-321 -132t-322 132t-132 319t131 317t320 130zM473 790q-87 0 -139 -91t-52 -235t65 -264t181 -120q94 0 147 92t53 206t-26 203t-84 149
t-145 60z" />
    <glyph glyph-name="Obreve" unicode="&#x14e;" horiz-adv-x="1386" 
d="M690 1564q54 0 102 30t68 74q6 12 29 -8t22 -27t-5 -15q-30 -72 -88 -117t-128 -45t-129 44t-87 118q-4 8 -5 15t22 27t29 8q20 -44 68 -74t102 -30zM50 656q0 280 188 479t452 199t453 -199t189 -479t-189 -478t-453 -198t-452 198t-188 478zM660 1236q-172 0 -263 -157
t-91 -379q0 -339 180 -521q98 -99 236 -99q170 0 263 159t93 379q0 345 -178 521q-98 97 -240 97z" />
    <glyph glyph-name="obreve" unicode="&#x14f;" horiz-adv-x="1014" 
d="M509 1012q-79 0 -145 58t-80 150q0 8 19 22t28 14t9 -8q14 -58 64 -94t106 -36t102 36t60 94q0 8 9 8t28 -14t19 -22q-11 -90 -76 -149q-64 -59 -143 -59zM505 884q189 0 322 -131t133 -317t-131 -318t-321 -132t-322 132t-132 319t131 317t320 130zM473 790
q-87 0 -139 -91t-52 -235t65 -264t181 -120q94 0 147 92t53 206t-26 203t-84 149t-145 60z" />
    <glyph glyph-name="Ohungarumlaut" unicode="&#x150;" horiz-adv-x="1386" 
d="M774 1780q42 0 69 -14t27 -38q0 -50 -143 -161t-169 -111q-10 0 -20 11t-10 21t69 114t119 162q16 16 58 16zM1038 1780q42 0 70 -15t28 -37q0 -50 -143 -161t-169 -111q-10 0 -19 11t-9 19t59 106t125 172q16 16 58 16zM50 656q0 280 188 479t452 199t453 -199t189 -479
t-189 -478t-453 -198t-452 198t-188 478zM660 1236q-172 0 -263 -157t-91 -379q0 -339 180 -521q98 -99 236 -99q170 0 263 159t93 379q0 345 -178 521q-98 97 -240 97z" />
    <glyph glyph-name="ohungarumlaut" unicode="&#x151;" horiz-adv-x="1014" 
d="M550 1336q42 0 69 -14t27 -38q0 -50 -143 -161t-169 -111q-10 0 -20 11t-10 21t69 114t119 162q16 16 58 16zM814 1336q42 0 70 -15t28 -37q0 -50 -143 -161t-169 -111q-10 0 -19 11t-9 19t59 106t125 172q16 16 58 16zM505 884q189 0 322 -131t133 -317t-131 -318
t-321 -132t-322 132t-132 319t131 317t320 130zM473 790q-87 0 -139 -91t-52 -235t65 -264t181 -120q94 0 147 92t53 206t-26 203t-84 149t-145 60z" />
    <glyph glyph-name="OE" unicode="&#x152;" horiz-adv-x="2022" 
d="M700 -16q-264 0 -450 196t-186 477t186 479t454 198l480 -18l644 12q8 -58 32 -161t28 -123q-10 -10 -37 -10t-33 14q-66 178 -256 178h-106q-148 0 -152 -26q-10 -48 -10 -162v-314q0 -12 72 -12h158q86 0 108 10t31 55t15 65q2 14 31 14t39 -10v-378q-8 -8 -36 -8
t-34 16q-26 99 -39 108q-3 2 -23 15t-171 13t-151 -16v-310q0 -110 18 -162q10 -26 136 -26h72q158 0 240 42q32 16 72 70t62 122q2 12 36 12t46 -12q-12 -36 -56 -157t-52 -181l-682 10q-122 0 -261 -10t-225 -10zM675 1236q-117 0 -200 -80q-155 -149 -155 -472
q0 -322 190 -508q102 -100 244 -100q62 0 97 2q94 5 139 58q78 80 78 290v522q0 239 -203 275q-73 13 -190 13z" />
    <glyph glyph-name="oe" unicode="&#x153;" horiz-adv-x="1586" 
d="M1164 884q94 0 164 -35t107 -92q73 -112 73 -237q0 -64 -88 -64q-248 -6 -438 -6q-18 0 -18 -16v-16q0 -124 69 -208t190 -84t219 68q32 22 34 22t11 -9t9 -27t-8 -32q-40 -58 -135 -111t-189 -53q-188 0 -314 142q-126 -140 -327 -140t-333 132t-132 322t129 320
t329 130t330 -144q118 138 318 138zM1296 568q0 62 -43 143t-105 81t-100 -28t-59 -87t-21 -115q0 -12 12 -12h304q12 6 12 18zM527 80q93 0 149 95t56 243t-72 263t-165 115t-149 -95t-56 -243t72 -263t165 -115z" />
    <glyph glyph-name="Racute" unicode="&#x154;" horiz-adv-x="1370" 
d="M432 1490q0 12 91 101t149 133q12 6 46 6t66 -18t32 -48q0 -48 -161 -128t-199 -80q-8 0 -16 11t-8 23zM1052 968q0 -108 -70 -204t-170 -136q-16 -6 -8 -20q195 -351 375 -487q81 -61 149 -61q8 -12 8 -32t-8 -36q-24 -4 -94 -4t-153 24t-144 71t-101 91t-76 98l-72 108
t-55 83q-76 116 -117 131q-12 6 -46 6t-34 -34v-282q0 -120 16 -170q6 -24 67 -39t89 -15q8 0 8 -28t-4 -40q-220 12 -286 12t-226 -8l-40 -4q-6 8 -6 38t6 30q26 0 77 13t59 31q12 36 12 182v756q0 114 -12 164q-6 16 -59 33t-77 17q-8 0 -8 30t8 36q212 -6 266 -6l282 4
q114 0 201 -37t135 -75q108 -86 108 -240zM576 1220q-84 0 -116 -14q-22 -10 -24 -208v-230q0 -44 34 -58t94 -14h52q74 0 133 70t59 182q0 272 -232 272z" />
    <glyph glyph-name="racute" unicode="&#x155;" horiz-adv-x="860" 
d="M664 1336q42 0 68 -14t26 -38q0 -50 -142 -161t-168 -111q-10 0 -20 11t-10 21t69 114t119 162q16 16 58 16zM308 6q-132 0 -244 -14q-8 8 -8 38t8 30q24 0 73 15t53 29q14 60 14 146v326q0 94 -32 128q-28 35 -93 42q-19 2 -19 6q0 58 10 60q92 8 214 36t127 28t11 -14
t5 -23t-3 -28t-5 -40t-3 -27q36 54 98 97t126 43q110 0 164 -66q0 -170 -96 -170q-36 0 -78 40t-95 40t-88 -63t-35 -131v-250q0 -122 14 -180q4 -14 53 -29t67 -15q6 0 7 -29t-1 -39q-112 14 -244 14z" />
    <glyph glyph-name="Rcommaaccent" unicode="&#x156;" horiz-adv-x="1370" 
d="M596 -192q0 40 51 70t131 30q18 -16 31 -51t13 -65q0 -136 -174 -240h-10q-14 0 -31 8t-17 12t22 21q66 51 66 85t-41 62t-41 68zM1052 968q0 -108 -70 -204t-170 -136q-16 -6 -8 -20q195 -351 375 -487q81 -61 149 -61q8 -12 8 -32t-8 -36q-24 -4 -94 -4t-153 24
t-144 71t-101 91t-76 98l-72 108t-55 83q-76 116 -117 131q-12 6 -46 6t-34 -34v-282q0 -120 16 -170q6 -24 67 -39t89 -15q8 0 8 -28t-4 -40q-220 12 -286 12t-226 -8l-40 -4q-6 8 -6 38t6 30q26 0 77 13t59 31q12 36 12 182v756q0 114 -12 164q-6 16 -59 33t-77 17
q-8 0 -8 30t8 36q212 -6 266 -6l282 4q114 0 201 -37t135 -75q108 -86 108 -240zM576 1220q-84 0 -116 -14q-22 -10 -24 -208v-230q0 -44 34 -58t94 -14h52q74 0 133 70t59 182q0 272 -232 272z" />
    <glyph glyph-name="rcommaaccent" unicode="&#x157;" horiz-adv-x="860" 
d="M196 -192q0 40 51 70t131 30q18 -16 31 -51t13 -65q0 -136 -174 -240h-10q-14 0 -31 8t-17 12t22 21q66 51 66 85t-41 62t-41 68zM308 6q-132 0 -244 -14q-8 8 -8 38t8 30q24 0 73 15t53 29q14 60 14 146v326q0 94 -32 128q-28 35 -93 42q-19 2 -19 6q0 58 10 60
q92 8 214 36t127 28t11 -14t5 -23t-3 -28t-5 -40t-3 -27q36 54 98 97t126 43q110 0 164 -66q0 -170 -96 -170q-36 0 -78 40t-95 40t-88 -63t-35 -131v-250q0 -122 14 -180q4 -14 53 -29t67 -15q6 0 7 -29t-1 -39q-112 14 -244 14z" />
    <glyph glyph-name="Rcaron" unicode="&#x158;" horiz-adv-x="1370" 
d="M782 1728q20 0 20 -40q-2 -2 -32 -28t-79 -72t-85 -89t-47 -43t-25 16q-49 68 -134 141q-84 73 -86 75q0 40 19 40t98 -43t127 -77q186 120 224 120zM1052 968q0 -108 -70 -204t-170 -136q-16 -6 -8 -20q195 -351 375 -487q81 -61 149 -61q8 -12 8 -32t-8 -36
q-24 -4 -94 -4t-153 24t-144 71t-101 91t-76 98l-72 108t-55 83q-76 116 -117 131q-12 6 -46 6t-34 -34v-282q0 -120 16 -170q6 -24 67 -39t89 -15q8 0 8 -28t-4 -40q-220 12 -286 12t-226 -8l-40 -4q-6 8 -6 38t6 30q26 0 77 13t59 31q12 36 12 182v756q0 114 -12 164
q-6 16 -59 33t-77 17q-8 0 -8 30t8 36q212 -6 266 -6l282 4q114 0 201 -37t135 -75q108 -86 108 -240zM576 1220q-84 0 -116 -14q-22 -10 -24 -208v-230q0 -44 34 -58t94 -14h52q74 0 133 70t59 182q0 272 -232 272z" />
    <glyph glyph-name="rcaron" unicode="&#x159;" horiz-adv-x="860" 
d="M625 1328q17 0 17 -46q-106 -106 -156 -188q-51 -82 -63 -82q-11 0 -48 59t-169 211q0 46 17 46t86 -49t115 -91q50 42 117 91t84 49zM308 6q-132 0 -244 -14q-8 8 -8 38t8 30q24 0 73 15t53 29q14 60 14 146v326q0 94 -32 128q-28 35 -93 42q-19 2 -19 6q0 58 10 60
q92 8 214 36t127 28t11 -14t5 -23t-3 -28t-5 -40t-3 -27q36 54 98 97t126 43q110 0 164 -66q0 -170 -96 -170q-36 0 -78 40t-95 40t-88 -63t-35 -131v-250q0 -122 14 -180q4 -14 53 -29t67 -15q6 0 7 -29t-1 -39q-112 14 -244 14z" />
    <glyph glyph-name="Sacute" unicode="&#x15a;" horiz-adv-x="948" 
d="M396 1490q0 12 91 101t149 133q12 6 46 6t66 -18t32 -48q0 -48 -161 -128t-199 -80q-8 0 -16 11t-8 23zM76 980q0 150 126 253t284 103q93 0 191 -25q99 -25 127 -31q24 -136 24 -308q-4 -18 -24 -18q-54 0 -58 18q-12 92 -86 180t-173 88t-148 -52t-49 -129t28 -112
t41 -52t50 -43t50 -36t60 -39t57 -33q12 -10 67 -43t77 -48q91 -62 125 -119q51 -86 51 -186q0 -160 -129 -264t-299 -104q-120 0 -368 56q-18 72 -33 181t-15 143q2 16 43 16t47 -16q18 -80 83 -171q79 -111 237 -111q84 0 146 56t62 169t-148 207q-49 31 -126 74
q-6 6 -43 29t-67 43q-104 69 -157 144q-53 76 -53 180z" />
    <glyph glyph-name="sacute" unicode="&#x15b;" horiz-adv-x="732" 
d="M542 1336q42 0 68 -14t26 -38q0 -50 -142 -161t-168 -111q-10 0 -20 11t-10 21t69 114t119 162q16 16 58 16zM372 886q120 0 240 -34q20 -90 22 -224q0 -16 -35 -16t-39 16q-14 70 -59 119t-112 49q-133 0 -133 -100q0 -56 43 -91t81 -55t43 -22t31 -16t33 -18t32 -19
t35 -23t31 -24t30 -28t24 -31q37 -47 37 -117q0 -126 -97 -199t-228 -73t-265 56q-10 34 -20 111t-10 115q12 10 43 10t33 -16q16 -84 79 -135t128 -51q137 0 137 110q0 42 -19 65t-28 34t-36 27q-35 21 -90 49q-141 72 -192 133q-51 60 -51 144q0 122 96 188t216 66z" />
    <glyph glyph-name="Scircumflex" unicode="&#x15c;" horiz-adv-x="948" 
d="M710 1458q-38 0 -224 120q-48 -34 -127 -77t-98 -43t-19 38q2 2 86 75t134 141q16 18 25 18t46 -44t65 -71t60 -56t51 -45t21 -18q0 -38 -20 -38zM76 980q0 150 126 253t284 103q93 0 191 -25q99 -25 127 -31q24 -136 24 -308q-4 -18 -24 -18q-54 0 -58 18
q-12 92 -86 180t-173 88t-148 -52t-49 -129t28 -112t41 -52t50 -43t50 -36t60 -39t57 -33q12 -10 67 -43t77 -48q91 -62 125 -119q51 -86 51 -186q0 -160 -129 -264t-299 -104q-120 0 -368 56q-18 72 -33 181t-15 143q2 16 43 16t47 -16q18 -80 83 -171q79 -111 237 -111
q84 0 146 56t62 169t-148 207q-49 31 -126 74q-6 6 -43 29t-67 43q-104 69 -157 144q-53 76 -53 180z" />
    <glyph glyph-name="scircumflex" unicode="&#x15d;" horiz-adv-x="732" 
d="M583 994q-17 0 -84 49t-117 91q-46 -42 -115 -91t-86 -49t-17 48q98 112 124 145t54 78t38 45t22 -18q114 -166 198 -250q0 -48 -17 -48zM372 886q120 0 240 -34q20 -90 22 -224q0 -16 -35 -16t-39 16q-14 70 -59 119t-112 49q-133 0 -133 -100q0 -56 43 -91t81 -55
t43 -22t31 -16t33 -18t32 -19t35 -23t31 -24t30 -28t24 -31q37 -47 37 -117q0 -126 -97 -199t-228 -73t-265 56q-10 34 -20 111t-10 115q12 10 43 10t33 -16q16 -84 79 -135t128 -51q137 0 137 110q0 42 -19 65t-28 34t-36 27q-35 21 -90 49q-141 72 -192 133
q-51 60 -51 144q0 122 96 188t216 66z" />
    <glyph glyph-name="Scedilla" unicode="&#x15e;" horiz-adv-x="948" 
d="M514 -66q48 0 82 -35t34 -81q0 -82 -63 -132t-141 -50t-118 30q-6 30 -6 39t8 19t17 10t43 -16t69 -16t61 21t26 52t-19 52t-48 21t-63 -14q-4 0 -17 13t-11 19q22 37 64 115q-119 7 -332 55q-18 72 -33 181t-15 143q2 16 43 16t47 -16q18 -80 83 -171q79 -111 237 -111
q84 0 146 56t62 169t-148 207q-49 31 -126 74q-6 6 -43 29t-67 43q-104 69 -157 144t-53 180q0 150 126 253t284 103q93 0 191 -25q99 -25 127 -31q24 -136 24 -308q-4 -18 -24 -18q-54 0 -58 18q-12 92 -86 180t-173 88t-148 -52t-49 -129t28 -112t41 -52t50 -43t50 -36
t60 -39t57 -33q12 -10 67 -43t77 -48q91 -62 125 -119q51 -86 51 -186q0 -160 -124 -260t-280 -107l-30 -47h52z" />
    <glyph glyph-name="scedilla" unicode="&#x15f;" horiz-adv-x="732" 
d="M374 -58q42 0 70 -30t28 -70q0 -70 -54 -112t-124 -42t-94 24q-6 24 -6 33t8 18t14 9t35 -14t60 -14t52 18t21 45t-16 44t-41 17t-55 -12q-4 0 -15 11t-9 17q43 78 55 98q-105 8 -217 54q-10 34 -20 111t-10 115q12 10 43 10t33 -16q16 -84 79 -135t128 -51
q137 0 137 110q0 42 -19 65t-28 34t-36 27q-35 21 -90 49q-141 72 -192 133q-51 60 -51 144q0 122 96 188t216 66t240 -34q20 -90 22 -224q0 -16 -35 -16t-39 16q-14 70 -59 119t-112 49q-133 0 -133 -100q0 -56 43 -91t81 -55t43 -22t31 -16t33 -18t32 -19t35 -23t31 -24
t30 -28t24 -31q37 -47 37 -117q0 -126 -95 -198t-225 -74l-26 -40q36 2 44 2z" />
    <glyph glyph-name="Scaron" unicode="&#x160;" horiz-adv-x="948" 
d="M686 1730q20 0 20 -40q-2 -2 -32 -28t-79 -72t-85 -89t-47 -43t-25 16q-49 68 -134 141q-84 73 -86 75q0 40 19 40t98 -43t127 -77q186 120 224 120zM76 980q0 150 126 253t284 103q93 0 191 -25q99 -25 127 -31q24 -136 24 -308q-4 -18 -24 -18q-54 0 -58 18
q-12 92 -86 180t-173 88t-148 -52t-49 -129t28 -112t41 -52t50 -43t50 -36t60 -39t57 -33q12 -10 67 -43t77 -48q91 -62 125 -119q51 -86 51 -186q0 -160 -129 -264t-299 -104q-120 0 -368 56q-18 72 -33 181t-15 143q2 16 43 16t47 -16q18 -80 83 -171q79 -111 237 -111
q84 0 146 56t62 169t-148 207q-49 31 -126 74q-6 6 -43 29t-67 43q-104 69 -157 144q-53 76 -53 180z" />
    <glyph glyph-name="scaron" unicode="&#x161;" horiz-adv-x="732" 
d="M541 1328q17 0 17 -46q-105 -105 -156 -188q-51 -82 -63 -82q-11 0 -48 59t-169 211q0 46 17 46t86 -49t115 -91q50 42 117 91t84 49zM372 886q120 0 240 -34q20 -90 22 -224q0 -16 -35 -16t-39 16q-14 70 -59 119t-112 49q-133 0 -133 -100q0 -56 43 -91t81 -55t43 -22
t31 -16t33 -18t32 -19t35 -23t31 -24t30 -28t24 -31q37 -47 37 -117q0 -126 -97 -199t-228 -73t-265 56q-10 34 -20 111t-10 115q12 10 43 10t33 -16q16 -84 79 -135t128 -51q137 0 137 110q0 42 -19 65t-28 34t-36 27q-35 21 -90 49q-141 72 -192 133q-51 60 -51 144
q0 122 96 188t216 66z" />
    <glyph glyph-name="Tcommaaccent" unicode="&#x162;" horiz-adv-x="1328" 
d="M1236 1024q-28 0 -32 10q-28 110 -74 149t-144 39q-186 0 -194 -34q-18 -58 -18 -188v-722q0 -108 18 -174q2 -14 54 -29t70 -15q8 0 8 -28t-4 -40q-182 14 -274 14t-246 -14q-8 8 -8 38t8 30q24 0 75 14t57 30q16 54 16 166v724q0 166 -18 194q-16 34 -190 34
q-98 0 -144 -39t-76 -147q-2 -12 -30 -12t-42 16l38 304q88 -20 138 -20l438 -12l440 12q50 0 138 20l38 -306q-14 -14 -42 -14zM548 -192q0 40 51 70t131 30q18 -16 31 -51t13 -65q0 -136 -174 -240h-10q-14 0 -31 8t-17 12t22 21q66 51 66 85t-41 62t-41 68z" />
    <glyph glyph-name="tcommaaccent" unicode="&#x163;" horiz-adv-x="700" 
d="M636 832q0 -48 -20 -88h-240v-482q0 -80 34 -122t88 -42t88 17t36 17q8 2 18 -18t8 -26q-12 -28 -85 -65t-160 -37t-160 67t-73 207v484h-122q-14 0 -14 33t2 37q129 58 263 224l21 26q20 0 38 -5t18 -11v-196l244 -2q16 0 16 -18zM304 -192q0 40 51 70t131 30
q18 -16 31 -51t13 -65q0 -136 -174 -240h-10q-14 0 -31 8t-17 12t22 21q66 51 66 85t-41 62t-41 68z" />
    <glyph glyph-name="Tcaron" unicode="&#x164;" horiz-adv-x="1328" 
d="M886 1738q20 0 20 -40q-2 -2 -32 -28t-79 -72t-85 -89t-47 -43t-25 16q-49 68 -134 141q-84 73 -86 75q0 40 19 40t98 -43t127 -77q186 120 224 120zM1236 1024q-28 0 -32 10q-28 110 -74 149t-144 39q-186 0 -194 -34q-18 -58 -18 -188v-722q0 -108 18 -174
q2 -14 54 -29t70 -15q8 0 8 -28t-4 -40q-182 14 -274 14t-246 -14q-8 8 -8 38t8 30q24 0 75 14t57 30q16 54 16 166v724q0 166 -18 194q-16 34 -190 34q-98 0 -144 -39t-76 -147q-2 -12 -30 -12t-42 16l38 304q88 -20 138 -20l438 -12l440 12q50 0 138 20l38 -306
q-14 -14 -42 -14z" />
    <glyph glyph-name="tcaron" unicode="&#x165;" horiz-adv-x="700" 
d="M520 1288q0 102 156 102q28 -40 28 -125t-54 -171t-108 -118h-10q-8 0 -22 14t-14 19t20 24q60 57 60 123q0 18 -28 55t-28 77zM636 832q0 -48 -20 -88h-240v-482q0 -80 34 -122t88 -42t88 17t36 17q8 2 18 -18t8 -26q-12 -28 -85 -65t-160 -37t-160 67t-73 207v484h-122
q-14 0 -14 33t2 37q129 58 263 224l21 26q20 0 38 -5t18 -11v-196l244 -2q16 0 16 -18z" />
    <glyph glyph-name="Tbar" unicode="&#x166;" horiz-adv-x="1312" 
d="M1230 1024q-28 0 -30 10q-28 110 -74 149t-144 39q-186 0 -194 -34q-16 -56 -16 -188v-298h236q12 0 12 -29t-12 -55h-236v-340q0 -112 16 -174q4 -14 55 -30t69 -16q8 0 8 -27t-4 -39l-254 14q-84 0 -266 -14q-8 8 -8 37t8 29q24 0 75 15t57 31q16 62 16 166v348h-228
q-10 0 -10 33t12 51h226v292q0 162 -18 195t-190 33q-98 0 -145 -38t-75 -148q-4 -12 -30 -12t-42 16l38 304q88 -22 138 -22l438 -10l440 10q50 0 138 22l36 -306q-14 -14 -42 -14z" />
    <glyph glyph-name="tbar" unicode="&#x167;" horiz-adv-x="700" 
d="M636 832q0 -48 -20 -88h-240v-122h232q12 0 12 -29t-12 -57h-232v-274q0 -80 34 -122t88 -42t88 17t36 17q8 2 18 -18t8 -26q-12 -28 -85 -65t-160 -37t-160 67t-73 207v276h-124q-10 0 -10 34t12 52h122v122h-122q-14 0 -14 33t2 37q129 58 263 224l21 26q20 0 38 -5
t18 -11v-196l244 -2q16 0 16 -18z" />
    <glyph glyph-name="Utilde" unicode="&#x168;" horiz-adv-x="1466" 
d="M388 1476q-16 0 -16 36t36 90q74 92 156 92t192 -61t182 -61q36 0 85 51t53 51q14 0 14 -38t-34 -90q-68 -90 -152 -90t-194 61t-182 61q-42 0 -110 -77q-22 -25 -30 -25zM1416 1285q0 -25 -8 -25q-28 0 -86 -15t-76 -41q-22 -50 -22 -166v-470q0 -439 -305 -542
q-89 -30 -203 -30q-240 0 -378 145t-138 467v436q0 128 -16 168q-8 16 -56 31t-72 15q-8 0 -8 30t6 36q254 -12 278 -12t244 12q4 -16 4 -41t-8 -25q-18 0 -72 -15t-56 -31q-16 -60 -16 -176v-460q0 -206 89 -329t245 -123t249 101t93 335v488q0 122 -20 160q-12 18 -71 35
t-85 17q-8 0 -9 28t5 36q216 -14 252 -14l236 14q4 -14 4 -39z" />
    <glyph glyph-name="utilde" unicode="&#x169;" horiz-adv-x="1110" 
d="M264 1030q-10 0 -10 33t32 79q60 80 126 80t156 -53t150 -53q30 0 70 45t47 45t7 -38t-28 -78q-56 -78 -124 -78t-158 53t-150 53q-28 0 -68 -44t-50 -44zM928 668v-396q0 -96 16 -140q16 -26 91 -26q15 0 20 -2t5 -33t-16 -31q-68 0 -167 -22t-121 -26l-22 -4
q-14 0 -14 32v88q-2 10 -6 10q-46 -50 -122 -90t-151 -40q-140 0 -206 122q-55 102 -55 242v224q0 94 -32 129t-94 41q-20 2 -20 6q0 58 10 60q113 8 338 64q10 0 15 -14t5 -22q-18 -136 -18 -176v-240q0 -156 44 -224t142 -68q64 0 108 39t44 75v330q0 94 -32 128
q-28 35 -94 42q-20 2 -20 6q0 58 12 60q56 4 162 24t133 28t39 10t18 -12t4 -22q-16 -136 -16 -172z" />
    <glyph glyph-name="Umacron" unicode="&#x16a;" horiz-adv-x="1466" 
d="M444 1472q0 38 8 70t20 32h536q27 0 -8 -110h-544q-12 0 -12 8zM1416 1285q0 -25 -8 -25q-28 0 -86 -15t-76 -41q-22 -50 -22 -166v-470q0 -439 -305 -542q-89 -30 -203 -30q-240 0 -378 145t-138 467v436q0 128 -16 168q-8 16 -56 31t-72 15q-8 0 -8 30t6 36
q254 -12 278 -12t244 12q4 -16 4 -41t-8 -25q-18 0 -72 -15t-56 -31q-16 -60 -16 -176v-460q0 -206 89 -329t245 -123t249 101t93 335v488q0 122 -20 160q-12 18 -71 35t-85 17q-8 0 -9 28t5 36q216 -14 252 -14l236 14q4 -14 4 -39z" />
    <glyph glyph-name="umacron" unicode="&#x16b;" horiz-adv-x="1110" 
d="M338 1128h456q10 0 9 -32t-13 -68l-12 -16h-456l-8 4q-4 4 -4 16q4 96 28 96zM928 668v-396q0 -96 16 -140q16 -26 91 -26q15 0 20 -2t5 -33t-16 -31q-68 0 -167 -22t-121 -26l-22 -4q-14 0 -14 32v88q-2 10 -6 10q-46 -50 -122 -90t-151 -40q-140 0 -206 122
q-55 102 -55 242v224q0 94 -32 129t-94 41q-20 2 -20 6q0 58 10 60q113 8 338 64q10 0 15 -14t5 -22q-18 -136 -18 -176v-240q0 -156 44 -224t142 -68q64 0 108 39t44 75v330q0 94 -32 128q-28 35 -94 42q-20 2 -20 6q0 58 12 60q56 4 162 24t133 28t39 10t18 -12t4 -22
q-16 -136 -16 -172z" />
    <glyph glyph-name="Ubreve" unicode="&#x16c;" horiz-adv-x="1466" 
d="M732 1564q54 0 102 30t68 74q6 12 29 -8t22 -27t-5 -15q-30 -72 -88 -117t-128 -45t-129 44t-87 118q-4 8 -5 15t22 27t29 8q20 -44 68 -74t102 -30zM1416 1285q0 -25 -8 -25q-28 0 -86 -15t-76 -41q-22 -50 -22 -166v-470q0 -439 -305 -542q-89 -30 -203 -30
q-240 0 -378 145t-138 467v436q0 128 -16 168q-8 16 -56 31t-72 15q-8 0 -8 30t6 36q254 -12 278 -12t244 12q4 -16 4 -41t-8 -25q-18 0 -72 -15t-56 -31q-16 -60 -16 -176v-460q0 -206 89 -329t245 -123t249 101t93 335v488q0 122 -20 160q-12 18 -71 35t-85 17q-8 0 -9 28
t5 36q216 -14 252 -14l236 14q4 -14 4 -39z" />
    <glyph glyph-name="ubreve" unicode="&#x16d;" horiz-adv-x="1110" 
d="M561 1012q-79 0 -145 58t-80 150q0 8 19 22t28 14t9 -8q14 -58 64 -94t106 -36t102 36t60 94q0 8 9 8t28 -14t19 -22q-11 -90 -76 -149q-64 -59 -143 -59zM928 668v-396q0 -96 16 -140q16 -26 91 -26q15 0 20 -2t5 -33t-16 -31q-68 0 -167 -22t-121 -26l-22 -4
q-14 0 -14 32v88q-2 10 -6 10q-46 -50 -122 -90t-151 -40q-140 0 -206 122q-55 102 -55 242v224q0 94 -32 129t-94 41q-20 2 -20 6q0 58 10 60q113 8 338 64q10 0 15 -14t5 -22q-18 -136 -18 -176v-240q0 -156 44 -224t142 -68q64 0 108 39t44 75v330q0 94 -32 128
q-28 35 -94 42q-20 2 -20 6q0 58 12 60q56 4 162 24t133 28t39 10t18 -12t4 -22q-16 -136 -16 -172z" />
    <glyph glyph-name="Uring" unicode="&#x16e;" horiz-adv-x="1466" 
d="M546 1646q0 78 55 132t132 54t131 -54t54 -132t-54 -134t-130 -56t-132 56t-56 134zM626 1645q0 -45 32 -77t76 -32t75 32t31 78t-31 77t-76 31t-76 -32t-31 -77zM1416 1285q0 -25 -8 -25q-28 0 -86 -15t-76 -41q-22 -50 -22 -166v-470q0 -439 -305 -542
q-89 -30 -203 -30q-240 0 -378 145t-138 467v436q0 128 -16 168q-8 16 -56 31t-72 15q-8 0 -8 30t6 36q254 -12 278 -12t244 12q4 -16 4 -41t-8 -25q-18 0 -72 -15t-56 -31q-16 -60 -16 -176v-460q0 -206 89 -329t245 -123t249 101t93 335v488q0 122 -20 160q-12 18 -71 35
t-85 17q-8 0 -9 28t5 36q216 -14 252 -14l236 14q4 -14 4 -39z" />
    <glyph glyph-name="uring" unicode="&#x16f;" horiz-adv-x="1110" 
d="M356 1210q0 80 58 138t140 58t139 -58t57 -139t-58 -139t-139 -58t-139 59t-58 139zM438 1210q0 -48 34 -82t82 -34t81 34t33 82t-33 81t-81 33t-82 -33t-34 -81zM928 668v-396q0 -96 16 -140q16 -26 91 -26q15 0 20 -2t5 -33t-16 -31q-68 0 -167 -22t-121 -26l-22 -4
q-14 0 -14 32v88q-2 10 -6 10q-46 -50 -122 -90t-151 -40q-140 0 -206 122q-55 102 -55 242v224q0 94 -32 129t-94 41q-20 2 -20 6q0 58 10 60q113 8 338 64q10 0 15 -14t5 -22q-18 -136 -18 -176v-240q0 -156 44 -224t142 -68q64 0 108 39t44 75v330q0 94 -32 128
q-28 35 -94 42q-20 2 -20 6q0 58 12 60q56 4 162 24t133 28t39 10t18 -12t4 -22q-16 -136 -16 -172z" />
    <glyph glyph-name="Uhungarumlaut" unicode="&#x170;" horiz-adv-x="1466" 
d="M780 1780q42 0 69 -14t27 -38q0 -50 -143 -161t-169 -111q-10 0 -20 11t-10 21t69 114t119 162q16 16 58 16zM1044 1780q42 0 70 -15t28 -37q0 -50 -143 -161t-169 -111q-10 0 -19 11t-9 19t59 106t125 172q16 16 58 16zM1416 1285q0 -25 -8 -25q-28 0 -86 -15t-76 -41
q-22 -50 -22 -166v-470q0 -439 -305 -542q-89 -30 -203 -30q-240 0 -378 145t-138 467v436q0 128 -16 168q-8 16 -56 31t-72 15q-8 0 -8 30t6 36q254 -12 278 -12t244 12q4 -16 4 -41t-8 -25q-18 0 -72 -15t-56 -31q-16 -60 -16 -176v-460q0 -206 89 -329t245 -123t249 101
t93 335v488q0 122 -20 160q-12 18 -71 35t-85 17q-8 0 -9 28t5 36q216 -14 252 -14l236 14q4 -14 4 -39z" />
    <glyph glyph-name="uhungarumlaut" unicode="&#x171;" horiz-adv-x="1110" 
d="M588 1336q42 0 69 -14t27 -38q0 -50 -143 -161t-169 -111q-10 0 -20 11t-10 21t69 114t119 162q16 16 58 16zM852 1336q42 0 70 -15t28 -37q0 -50 -143 -161t-169 -111q-10 0 -19 11t-9 19t59 106t125 172q16 16 58 16zM928 668v-396q0 -96 16 -140q16 -26 91 -26
q15 0 20 -2t5 -33t-16 -31q-68 0 -167 -22t-121 -26l-22 -4q-14 0 -14 32v88q-2 10 -6 10q-46 -50 -122 -90t-151 -40q-140 0 -206 122q-55 102 -55 242v224q0 94 -32 129t-94 41q-20 2 -20 6q0 58 10 60q113 8 338 64q10 0 15 -14t5 -22q-18 -136 -18 -176v-240
q0 -156 44 -224t142 -68q64 0 108 39t44 75v330q0 94 -32 128q-28 35 -94 42q-20 2 -20 6q0 58 12 60q56 4 162 24t133 28t39 10t18 -12t4 -22q-16 -136 -16 -172z" />
    <glyph glyph-name="Uogonek" unicode="&#x172;" horiz-adv-x="1462" 
d="M556 1282q0 -24 -8 -24q-18 0 -72 -16t-58 -30q-16 -62 -16 -176v-460q0 -204 89 -328t249 -124q340 0 340 436v488q0 120 -20 160q-14 18 -73 35t-83 17q-8 0 -9 28t5 36q214 -14 250 -14l236 14q6 -12 6 -38t-8 -26q-28 0 -87 -15t-77 -41q-20 -50 -20 -166v-470
q0 -190 -53 -307t-154 -187t-169 -153t-68 -153q0 -30 20 -53t54 -23q61 0 111 32q49 32 57 40q10 0 10 -27t-24 -59t-87 -76t-128 -44t-109 46t-44 114t59 154t133 132q-48 -8 -116 -8q-516 0 -516 612v436q0 120 -16 168q-8 16 -56 31t-72 15q-8 0 -8 31t4 35l266 -12
q16 0 256 12q6 -18 6 -42z" />
    <glyph glyph-name="uogonek" unicode="&#x173;" horiz-adv-x="1068" 
d="M376 666v-246q0 -158 42 -225t134 -67q60 0 111 39t51 67v342q0 133 -77 157q-29 9 -49 12t-20 7q0 60 12 60q206 22 320 60l16 4q20 0 20 -36q-16 -128 -16 -172v-400q0 -100 16 -138q11 -22 43 -24q31 -2 49 -2l16 -2q8 -4 8 -15t-5 -30t-11 -19q-122 -14 -230 -129
q-72 -77 -72 -145q0 -30 21 -52t55 -22q60 0 108 30t58 40q3 0 7 -11q5 -11 5 -27t-24 -48t-87 -75t-128 -43t-109 46t-44 109t58 149t132 140q-52 -16 -60 -16q-14 0 -14 34v82q-2 10 -6 10q-124 -124 -254 -124t-205 103t-75 231v256q0 133 -77 157q-29 9 -49 12t-20 7
q0 60 10 60q208 24 322 60l16 4q20 0 20 -36q-18 -144 -18 -174z" />
    <glyph glyph-name="Wcircumflex" unicode="&#x174;" horiz-adv-x="2156" 
d="M1402 1456q-38 0 -224 120q-48 -34 -127 -77t-98 -43t-19 38q2 2 86 75t134 141q16 18 25 18t46 -44t65 -71t60 -56t51 -45t21 -18q0 -38 -20 -38zM1921 1312q51 0 219 12q4 -14 4 -39t-8 -25q-24 0 -69 -17t-67 -39q-54 -62 -116 -190l-458 -970q-16 -32 -37 -48
t-35 -16t-22 8l-244 492l-228 -436q-16 -32 -44 -54t-48 -2l-530 1052q-56 112 -104 174q-16 20 -55 32t-63 12q-8 0 -8 30t6 36q254 -12 272 -12t238 12q10 -62 -4 -66q-41 0 -68 -18q-28 -18 -28 -50t36 -100l392 -774q6 -10 15 -5t13 13l146 284l-214 432
q-60 122 -90 156q-55 62 -128 62q-8 0 -8 30t6 36q252 -12 266 -12t234 12q4 -12 5 -38t-5 -28q-45 0 -71 -19q-25 -19 -25 -47t36 -100l122 -250l118 242q36 72 36 109t-49 52t-85 15q-8 0 -8 28t6 36q176 -12 235 -12t215 12q4 -12 4 -37t-6 -27q-24 0 -73 -18t-81 -55
t-102 -175l-146 -296l194 -396q12 -20 26 10q40 94 188 406t173 366t25 90t-48 52t-80 16q-8 0 -9 28t7 36q176 -12 227 -12z" />
    <glyph glyph-name="wcircumflex" unicode="&#x175;" horiz-adv-x="1630" 
d="M1047 994q-17 0 -84 49t-117 91q-46 -42 -115 -91t-86 -49t-17 48q98 112 124 145t54 78t38 45t22 -18q114 -166 198 -250q0 -48 -17 -48zM1052 810q-102 0 -102 -70q0 -38 188 -444q32 84 101 250t69 188t-16 39q-35 37 -128 37h-8q-8 0 -9 30t5 36l234 -12l202 12
q4 -14 4 -39t-8 -25q-24 0 -79 -25t-69 -61l-296 -706q-8 -16 -27 -29t-39 -13t-26 14l-244 552l-214 -522q-6 -12 -23 -28t-40 -16t-31 14q-46 104 -138 322t-206 442q-14 26 -52 40t-64 14q-8 0 -8 30t8 36l228 -12l240 12q4 -10 4 -36t-6 -28q-26 0 -69 -14t-43 -42
q0 -4 200 -460q22 56 51 127q53 129 77 190t24 88t-20 57t-46 42t-76 12q-8 0 -8 29t8 35l224 -12l232 12q4 -8 3 -37t-7 -29z" />
    <glyph glyph-name="Ycircumflex" unicode="&#x176;" horiz-adv-x="1314" 
d="M956 1456q-38 0 -224 120q-48 -34 -127 -77t-98 -43t-19 38q2 2 86 75t134 141q16 18 25 18t46 -44t65 -71t60 -56t51 -45t21 -18q0 -38 -20 -38zM642 6q-88 0 -242 -14q-8 8 -8 36t6 28q24 0 74 16t56 32q16 58 16 176v296q0 25 -90 185t-165 297q-75 136 -121 166
q-20 14 -59 25t-57 11q-6 0 -7 20t3 28q48 4 174 4t366 12q4 -8 3 -36t-7 -28q-32 0 -72 -14t-40 -42q0 -18 18 -52l212 -388q10 -10 20 4q86 128 166 264t80 165t-37 46t-97 17q-8 0 -8 28t6 36q202 -12 265 -12t195 12q4 -16 4 -40t-8 -24q-30 0 -83 -18t-77 -48
q-58 -86 -208 -329t-150 -269v-312q0 -118 16 -180q4 -14 55 -31t67 -17q8 0 8 -26t-4 -38q-182 14 -270 14z" />
    <glyph glyph-name="ycircumflex" unicode="&#x177;" horiz-adv-x="1048" 
d="M797 994q-17 0 -84 49t-117 91q-46 -42 -115 -91t-86 -49t-17 48q98 112 124 145t54 78t38 45t22 -18q114 -166 198 -250q0 -48 -17 -48zM500 837q0 -25 -8 -25q-20 0 -63 -15t-45 -33v-12q4 -32 186 -456q29 65 151 387q11 29 11 56t-32 50t-96 23q-8 0 -8 28t8 36
l220 -12l192 12q8 -12 8 -38t-8 -26q-28 0 -81 -20t-69 -60l-366 -884q-124 -292 -298 -292q-52 0 -80 28t-28 72t38 70q208 0 274 164q48 120 54 136l-292 680q-16 36 -24 46q-20 30 -59 45t-65 15q-8 0 -8 30t6 34l250 -12l228 12q4 -14 4 -39z" />
    <glyph glyph-name="Ydieresis" unicode="&#x178;" horiz-adv-x="1314" 
d="M384 1580q0 52 36 88t88 36t88 -36t36 -88t-36 -88t-88 -36t-88 36t-36 88zM796 1580q0 52 36 88t88 36t88 -36t36 -88t-36 -88t-88 -36t-88 36t-36 88zM642 6q-88 0 -242 -14q-8 8 -8 36t6 28q24 0 74 16t56 32q16 58 16 176v296q0 25 -90 185t-165 297
q-75 136 -121 166q-20 14 -59 25t-57 11q-6 0 -7 20t3 28q48 4 174 4t366 12q4 -8 3 -36t-7 -28q-32 0 -72 -14t-40 -42q0 -18 18 -52l212 -388q10 -10 20 4q86 128 166 264t80 165t-37 46t-97 17q-8 0 -8 28t6 36q202 -12 265 -12t195 12q4 -16 4 -40t-8 -24q-30 0 -83 -18
t-77 -48q-58 -86 -208 -329t-150 -269v-312q0 -118 16 -180q4 -14 55 -31t67 -17q8 0 8 -26t-4 -38q-182 14 -270 14z" />
    <glyph glyph-name="Zacute" unicode="&#x179;" horiz-adv-x="1244" 
d="M490 1490q0 12 91 101t149 133q12 6 46 6t66 -18t32 -48q0 -48 -161 -128t-199 -80q-8 0 -16 11t-8 23zM448 1312h218q162 0 442 20q6 -2 13 -26t7 -40q-5 -19 -556 -834l-184 -274q-12 -22 -12 -30q0 -20 28 -20h384q236 0 322 238q4 10 35 10t47 -16q-86 -270 -98 -340
h-1014q-16 18 -16 47t8 39l752 1122h-384q-72 -2 -120 -16t-78 -51t-46 -72t-36 -101q-4 -10 -40 -10t-48 14q50 250 62 356q20 -6 147 -11t167 -5z" />
    <glyph glyph-name="zacute" unicode="&#x17a;" horiz-adv-x="862" 
d="M574 1336q42 0 68 -14t26 -38q0 -50 -142 -161t-168 -111q-10 0 -20 11t-10 21t69 114t119 162q16 16 58 16zM316 109q0 -7 10 -11t14 -4h194q148 0 200 156q6 20 35 20t39 -16l-36 -254h-680q-40 24 -40 46q0 6 2 8l462 698l-212 4q-101 0 -151 -117l-14 -32
q-3 -7 -36 -7t-33 4q0 10 14 103t18 153q118 -12 190 -12h244q120 0 252 16q4 -10 4 -48l-460 -680q-16 -20 -16 -27z" />
    <glyph glyph-name="Zdotaccent" unicode="&#x17b;" horiz-adv-x="1244" 
d="M502 1580q0 52 36 88t88 36t88 -36t36 -88t-36 -88t-88 -36t-88 36t-36 88zM448 1312h218q162 0 442 20q6 -2 13 -26t7 -40q-5 -19 -556 -834l-184 -274q-12 -22 -12 -30q0 -20 28 -20h384q236 0 322 238q4 10 35 10t47 -16q-86 -270 -98 -340h-1014q-16 18 -16 47t8 39
l752 1122h-384q-72 -2 -120 -16t-78 -51t-46 -72t-36 -101q-4 -10 -40 -10t-48 14q50 250 62 356q20 -6 147 -11t167 -5z" />
    <glyph glyph-name="zdotaccent" unicode="&#x17c;" horiz-adv-x="862" 
d="M338 1180q0 52 36 88t88 36t88 -36t36 -88t-36 -88t-88 -36t-88 36t-36 88zM316 109q0 -7 10 -11t14 -4h194q148 0 200 156q6 20 35 20t39 -16l-36 -254h-680q-40 24 -40 46q0 6 2 8l462 698l-212 4q-101 0 -151 -117l-14 -32q-3 -7 -36 -7t-33 4q0 10 14 103t18 153
q118 -12 190 -12h244q120 0 252 16q4 -10 4 -48l-460 -680q-16 -20 -16 -27z" />
    <glyph glyph-name="Zcaron" unicode="&#x17d;" horiz-adv-x="1244" 
d="M858 1728q20 0 20 -40q-2 -2 -32 -28t-79 -72t-85 -89t-47 -43t-25 16q-49 68 -134 141q-84 73 -86 75q0 40 19 40t98 -43t127 -77q186 120 224 120zM448 1312h218q162 0 442 20q6 -2 13 -26t7 -40q-5 -19 -556 -834l-184 -274q-12 -22 -12 -30q0 -20 28 -20h384
q236 0 322 238q4 10 35 10t47 -16q-86 -270 -98 -340h-1014q-16 18 -16 47t8 39l752 1122h-384q-72 -2 -120 -16t-78 -51t-46 -72t-36 -101q-4 -10 -40 -10t-48 14q50 250 62 356q20 -6 147 -11t167 -5z" />
    <glyph glyph-name="zcaron" unicode="&#x17e;" horiz-adv-x="862" 
d="M649 1328q17 0 17 -46q-106 -106 -156 -188q-51 -82 -63 -82q-11 0 -48 59t-169 211q0 46 17 46t86 -49t115 -91q50 42 117 91t84 49zM316 109q0 -7 10 -11t14 -4h194q148 0 200 156q6 20 35 20t39 -16l-36 -254h-680q-40 24 -40 46q0 6 2 8l462 698l-212 4
q-101 0 -151 -117l-14 -32q-3 -7 -36 -7t-33 4q0 10 14 103t18 153q118 -12 190 -12h244q120 0 252 16q4 -10 4 -48l-460 -680q-16 -20 -16 -27z" />
    <glyph glyph-name="longs" unicode="&#x17f;" horiz-adv-x="618" 
d="M264 6q-88 0 -200 -14q-13 13 -10 41q4 27 10 27q22 0 70 15t52 29q18 70 18 164v460q0 14 -12 14h-120q-4 0 -4 17t28 53t64 36h32q12 0 12 12v20q0 210 125 360t295 150q84 0 139 -21t73 -51q8 -62 -11 -111t-63 -49t-71 33t-57 66t-77 33t-83 -52q-66 -95 -66 -288
v-666q0 -112 16 -180q4 -14 53 -29t67 -15q6 0 7 -29t-3 -39q-12 2 -104 8t-180 6z" />
    <glyph glyph-name="uni01CD" unicode="&#x1cd;" horiz-adv-x="1472" 
d="M982 1728q20 0 20 -40q-2 -2 -32 -28t-79 -72t-85 -89t-47 -43t-25 16q-49 68 -134 141q-84 73 -86 75q0 40 19 40t98 -43t127 -77q186 120 224 120zM684 570q72 0 166 6l4 8l-152 400l-164 -400q0 -8 4 -8q70 -6 142 -6zM54 31q0 29 4 29q24 0 77 17t67 39q38 60 76 156
l372 900q46 120 68 139t38 19t26 -10l420 -1048q30 -80 60 -146q12 -30 64 -48t76 -18q8 0 8 -30t-4 -36q-240 12 -253 12t-259 -12q-8 8 -8 37t8 29q24 0 66 12t49 26t7 41t-38 125l-70 186q-12 12 -153 12t-261 -6q-12 0 -12 -8l-76 -186q-38 -104 -38 -130t20 -39t65 -23
t61 -10q6 -2 6 -28t-4 -38l-230 12q-44 0 -224 -12q-8 8 -8 37z" />
    <glyph glyph-name="uni01CE" unicode="&#x1ce;" horiz-adv-x="904" 
d="M655 1328q17 0 17 -46q-106 -106 -156 -188q-51 -82 -63 -82q-11 0 -48 59t-169 211q0 46 17 46t86 -49t115 -91q50 42 117 91t84 49zM464 884q134 0 196 -65t62 -223v-394q0 -40 18 -61t48 -21t68 26q12 -4 12 -33t-12 -49q-95 -76 -176 -76q-46 0 -90 34t-58 74
q-71 -71 -171 -99q-39 -11 -79 -11q-100 0 -163 55t-63 151q0 165 257 251q39 13 100 31t85 26q18 8 18 32v110q0 70 -32 110t-89 40t-91 -37t-34 -91q0 -92 -98 -92q-74 0 -104 48q0 96 131 180t265 84zM386 116q52 0 91 28t39 64v204q-14 -6 -59 -20q-73 -23 -130 -55
t-57 -96q0 -65 32 -95t84 -30z" />
    <glyph glyph-name="uni01CF" unicode="&#x1cf;" horiz-adv-x="646" 
d="M544 1728q20 0 20 -40q-2 -2 -32 -28t-79 -72t-85 -89t-47 -43t-25 16q-49 68 -134 141q-84 73 -86 75q0 40 19 40t98 -43t127 -77q186 120 224 120zM296 6q-44 0 -236 -12q-8 8 -8 37t8 29q24 0 75 14t57 30q16 62 16 168v772q0 120 -16 168q-8 16 -56 31t-72 15
q-8 0 -8 31t4 35l266 -12q16 0 256 12q6 -18 6 -42t-8 -24q-18 0 -72 -16t-58 -30q-16 -62 -16 -176v-752q0 -110 18 -180q4 -14 55 -29t69 -15q8 0 8 -27t-4 -39q-240 12 -284 12z" />
    <glyph glyph-name="uni01D0" unicode="&#x1d0;" horiz-adv-x="600" 
d="M503 1328q17 0 17 -46q-106 -106 -156 -188q-51 -82 -63 -82q-11 0 -48 59t-169 211q0 46 17 46t86 -49t115 -91q50 42 117 91t84 49zM406 288q0 -124 14 -180q4 -14 49 -31t61 -17q6 0 7 -28t-3 -38q-168 12 -228 12t-240 -12q-8 8 -8 37t8 29q22 0 67 17t49 31
q16 70 16 148v322q0 133 -77 157q-29 9 -49 11t-20 6q0 60 10 60q128 14 235 41t109 27q14 0 14 -40l-14 -172v-380z" />
    <glyph glyph-name="uni01D1" unicode="&#x1d1;" horiz-adv-x="1386" 
d="M914 1728q20 0 20 -40q-2 -2 -32 -28t-79 -72t-85 -89t-47 -43t-25 16q-49 68 -134 141q-84 73 -86 75q0 40 19 40t98 -43t127 -77q186 120 224 120zM50 656q0 280 188 479t452 199t453 -199t189 -479t-189 -478t-453 -198t-452 198t-188 478zM660 1236q-172 0 -263 -157
t-91 -379q0 -339 180 -521q98 -99 236 -99q170 0 263 159t93 379q0 345 -178 521q-98 97 -240 97z" />
    <glyph glyph-name="uni01D2" unicode="&#x1d2;" horiz-adv-x="1014" 
d="M707 1328q17 0 17 -46q-106 -106 -156 -188q-51 -82 -63 -82q-11 0 -48 59t-169 211q0 46 17 46t86 -49t115 -91q50 42 117 91t84 49zM505 884q189 0 322 -131t133 -317t-131 -318t-321 -132t-322 132t-132 319t131 317t320 130zM473 790q-87 0 -139 -91t-52 -235
t65 -264t181 -120q94 0 147 92t53 206t-26 203t-84 149t-145 60z" />
    <glyph glyph-name="uni01D3" unicode="&#x1d3;" horiz-adv-x="1466" 
d="M956 1728q20 0 20 -40q-2 -2 -32 -27t-79 -72t-85 -90t-47 -43t-25 16q-49 68 -134 141q-84 73 -86 75q0 40 19 40t98 -43t127 -77q186 120 224 120zM1416 1285q0 -25 -8 -25q-28 0 -86 -15t-76 -41q-22 -50 -22 -166v-470q0 -439 -305 -542q-89 -30 -203 -30
q-240 0 -378 145t-138 467v436q0 128 -16 168q-8 16 -56 31t-72 15q-8 0 -8 30t6 36q254 -12 278 -12t244 12q4 -16 4 -41t-8 -25q-18 0 -72 -15t-56 -31q-16 -60 -16 -176v-460q0 -206 89 -329t245 -123t249 101t93 335v488q0 122 -20 160q-12 18 -71 35t-85 17q-8 0 -9 28
t5 36q216 -14 252 -14l236 14q4 -14 4 -39z" />
    <glyph glyph-name="uni01D4" unicode="&#x1d4;" horiz-adv-x="1110" 
d="M873 1328q17 0 17 -46q-106 -106 -156 -188q-51 -82 -63 -82q-11 0 -48 59t-169 211q0 46 17 46t86 -49t115 -91q50 42 117 91t84 49zM928 668v-396q0 -96 16 -140q16 -26 91 -26q15 0 20 -2t5 -33t-16 -31q-68 0 -167 -22t-121 -26l-22 -4q-14 0 -14 32v88q-2 10 -6 10
q-46 -50 -122 -90t-151 -40q-140 0 -206 122q-55 102 -55 242v224q0 94 -32 129t-94 41q-20 2 -20 6q0 58 10 60q113 8 338 64q10 0 15 -14t5 -22q-18 -136 -18 -176v-240q0 -156 44 -224t142 -68q64 0 108 39t44 75v330q0 94 -32 128q-28 35 -94 42q-20 2 -20 6q0 58 12 60
q56 4 162 24t133 28t39 10t18 -12t4 -22q-16 -136 -16 -172z" />
    <glyph glyph-name="uni01D5" unicode="&#x1d5;" horiz-adv-x="1466" 
d="M446 1834q0 38 8 70t20 32h536q27 0 -8 -110h-544q-12 0 -12 8zM404 1580q0 52 36 88t88 36t88 -36t36 -88t-36 -88t-88 -36t-88 36t-36 88zM816 1580q0 52 36 88t88 36t88 -36t36 -88t-36 -88t-88 -36t-88 36t-36 88zM1416 1285q0 -25 -8 -25q-28 0 -86 -15t-76 -41
q-22 -50 -22 -166v-470q0 -439 -305 -542q-89 -30 -203 -30q-240 0 -378 145t-138 467v436q0 128 -16 168q-8 16 -56 31t-72 15q-8 0 -8 30t6 36q254 -12 278 -12t244 12q4 -16 4 -41t-8 -25q-18 0 -72 -15t-56 -31q-16 -60 -16 -176v-460q0 -206 89 -329t245 -123t249 101
t93 335v488q0 122 -20 160q-12 18 -71 35t-85 17q-8 0 -9 28t5 36q216 -14 252 -14l236 14q4 -14 4 -39z" />
    <glyph glyph-name="uni01D6" unicode="&#x1d6;" horiz-adv-x="1110" 
d="M340 1488h456q10 0 9 -32t-13 -68l-12 -16h-456l-8 4q-4 4 -4 16q4 96 28 96zM242 1132q0 48 34 83t82 35t83 -35t35 -83t-35 -82t-83 -34t-82 34t-34 82zM646 1132q0 48 34 83t82 35t83 -35t35 -83t-35 -82t-83 -34t-82 34t-34 82zM928 668v-396q0 -96 16 -140
q16 -26 91 -26q15 0 20 -2t5 -33t-16 -31q-68 0 -167 -22t-121 -26l-22 -4q-14 0 -14 32v88q-2 10 -6 10q-46 -50 -122 -90t-151 -40q-140 0 -206 122q-55 102 -55 242v224q0 94 -32 129t-94 41q-20 2 -20 6q0 58 10 60q113 8 338 64q10 0 15 -14t5 -22q-18 -136 -18 -176
v-240q0 -156 44 -224t142 -68q64 0 108 39t44 75v330q0 94 -32 128q-28 35 -94 42q-20 2 -20 6q0 58 12 60q56 4 162 24t133 28t39 10t18 -12t4 -22q-16 -136 -16 -172z" />
    <glyph glyph-name="uni01D7" unicode="&#x1d7;" horiz-adv-x="1466" 
d="M710 1860q0 12 91 101t149 133q12 6 46 6t66 -18t32 -48q0 -48 -161 -128t-199 -80q-8 0 -16 11t-8 23zM404 1580q0 52 36 88t88 36t88 -36t36 -88t-36 -88t-88 -36t-88 36t-36 88zM816 1580q0 52 36 88t88 36t88 -36t36 -88t-36 -88t-88 -36t-88 36t-36 88zM1416 1285
q0 -25 -8 -25q-28 0 -86 -15t-76 -41q-22 -50 -22 -166v-470q0 -439 -305 -542q-89 -30 -203 -30q-240 0 -378 145t-138 467v436q0 128 -16 168q-8 16 -56 31t-72 15q-8 0 -8 30t6 36q254 -12 278 -12t244 12q4 -16 4 -41t-8 -25q-18 0 -72 -15t-56 -31q-16 -60 -16 -176
v-460q0 -206 89 -329t245 -123t249 101t93 335v488q0 122 -20 160q-12 18 -71 35t-85 17q-8 0 -9 28t5 36q216 -14 252 -14l236 14q4 -14 4 -39z" />
    <glyph glyph-name="uni01D8" unicode="&#x1d8;" horiz-adv-x="1110" 
d="M776 1696q42 0 68 -14t26 -38q0 -50 -142 -161t-168 -111q-10 0 -20 11t-10 21t69 114t119 162q16 16 58 16zM242 1132q0 48 34 83t82 35t83 -35t35 -83t-35 -82t-83 -34t-82 34t-34 82zM646 1132q0 48 34 83t82 35t83 -35t35 -83t-35 -82t-83 -34t-82 34t-34 82z
M928 668v-396q0 -96 16 -140q16 -26 91 -26q15 0 20 -2t5 -33t-16 -31q-68 0 -167 -22t-121 -26l-22 -4q-14 0 -14 32v88q-2 10 -6 10q-46 -50 -122 -90t-151 -40q-140 0 -206 122q-55 102 -55 242v224q0 94 -32 129t-94 41q-20 2 -20 6q0 58 10 60q113 8 338 64
q10 0 15 -14t5 -22q-18 -136 -18 -176v-240q0 -156 44 -224t142 -68q64 0 108 39t44 75v330q0 94 -32 128q-28 35 -94 42q-20 2 -20 6q0 58 12 60q56 4 162 24t133 28t39 10t18 -12t4 -22q-16 -136 -16 -172z" />
    <glyph glyph-name="uni01D9" unicode="&#x1d9;" horiz-adv-x="1466" 
d="M958 2098q20 0 20 -40q-2 -2 -32 -27t-79 -72t-85 -90t-47 -43t-25 16q-49 68 -134 141q-84 73 -86 75q0 40 19 40t98 -43t127 -77q186 120 224 120zM404 1580q0 52 36 88t88 36t88 -36t36 -88t-36 -88t-88 -36t-88 36t-36 88zM816 1580q0 52 36 88t88 36t88 -36t36 -88
t-36 -88t-88 -36t-88 36t-36 88zM1416 1285q0 -25 -8 -25q-28 0 -86 -15t-76 -41q-22 -50 -22 -166v-470q0 -439 -305 -542q-89 -30 -203 -30q-240 0 -378 145t-138 467v436q0 128 -16 168q-8 16 -56 31t-72 15q-8 0 -8 30t6 36q254 -12 278 -12t244 12q4 -16 4 -41t-8 -25
q-18 0 -72 -15t-56 -31q-16 -60 -16 -176v-460q0 -206 89 -329t245 -123t249 101t93 335v488q0 122 -20 160q-12 18 -71 35t-85 17q-8 0 -9 28t5 36q216 -14 252 -14l236 14q4 -14 4 -39z" />
    <glyph glyph-name="uni01DA" unicode="&#x1da;" horiz-adv-x="1110" 
d="M761 1688q17 0 17 -46q-106 -106 -156 -188q-51 -82 -63 -82q-11 0 -48 59t-169 211q0 46 17 46t86 -49t115 -91q50 42 117 91t84 49zM242 1132q0 48 34 83t82 35t83 -35t35 -83t-35 -82t-83 -34t-82 34t-34 82zM646 1132q0 48 34 83t82 35t83 -35t35 -83t-35 -82
t-83 -34t-82 34t-34 82zM928 668v-396q0 -96 16 -140q16 -26 91 -26q15 0 20 -2t5 -33t-16 -31q-68 0 -167 -22t-121 -26l-22 -4q-14 0 -14 32v88q-2 10 -6 10q-46 -50 -122 -90t-151 -40q-140 0 -206 122q-55 102 -55 242v224q0 94 -32 129t-94 41q-20 2 -20 6q0 58 10 60
q113 8 338 64q10 0 15 -14t5 -22q-18 -136 -18 -176v-240q0 -156 44 -224t142 -68q64 0 108 39t44 75v330q0 94 -32 128q-28 35 -94 42q-20 2 -20 6q0 58 12 60q56 4 162 24t133 28t39 10t18 -12t4 -22q-16 -136 -16 -172z" />
    <glyph glyph-name="uni01DB" unicode="&#x1db;" horiz-adv-x="1466" 
d="M758 1860q0 -12 -8 -23t-16 -11q-38 0 -199 80t-161 128q0 30 32 48t66 18t46 -6q58 -44 149 -133t91 -101zM404 1580q0 52 36 88t88 36t88 -36t36 -88t-36 -88t-88 -36t-88 36t-36 88zM816 1580q0 52 36 88t88 36t88 -36t36 -88t-36 -88t-88 -36t-88 36t-36 88z
M1416 1285q0 -25 -8 -25q-28 0 -86 -15t-76 -41q-22 -50 -22 -166v-470q0 -439 -305 -542q-89 -30 -203 -30q-240 0 -378 145t-138 467v436q0 128 -16 168q-8 16 -56 31t-72 15q-8 0 -8 30t6 36q254 -12 278 -12t244 12q4 -16 4 -41t-8 -25q-18 0 -72 -15t-56 -31
q-16 -60 -16 -176v-460q0 -206 89 -329t245 -123t249 101t93 335v488q0 122 -20 160q-12 18 -71 35t-85 17q-8 0 -9 28t5 36q216 -14 252 -14l236 14q4 -14 4 -39z" />
    <glyph glyph-name="uni01DC" unicode="&#x1dc;" horiz-adv-x="1110" 
d="M248 1644q0 23 28 37q28 15 70 15t58 -16q67 -79 125 -174q59 -96 59 -104t-9 -19t-19 -11q-26 0 -169 111t-143 161zM242 1132q0 48 34 83t82 35t83 -35t35 -83t-35 -82t-83 -34t-82 34t-34 82zM646 1132q0 48 34 83t82 35t83 -35t35 -83t-35 -82t-83 -34t-82 34t-34 82
zM928 668v-396q0 -96 16 -140q16 -26 91 -26q15 0 20 -2t5 -33t-16 -31q-68 0 -167 -22t-121 -26l-22 -4q-14 0 -14 32v88q-2 10 -6 10q-46 -50 -122 -90t-151 -40q-140 0 -206 122q-55 102 -55 242v224q0 94 -32 129t-94 41q-20 2 -20 6q0 58 10 60q113 8 338 64
q10 0 15 -14t5 -22q-18 -136 -18 -176v-240q0 -156 44 -224t142 -68q64 0 108 39t44 75v330q0 94 -32 128q-28 35 -94 42q-20 2 -20 6q0 58 12 60q56 4 162 24t133 28t39 10t18 -12t4 -22q-16 -136 -16 -172z" />
    <glyph glyph-name="uni01EA" unicode="&#x1ea;" horiz-adv-x="1448" 
d="M706 1236q-130 0 -212 -80q-154 -150 -154 -473q0 -322 180 -504q98 -99 236 -99q170 0 263 159t93 379q0 345 -178 521q-98 97 -228 97zM84 656q0 280 188 479t452 199t453 -199t189 -479q0 -182 -82 -329t-218 -243q-100 -70 -178 -159t-78 -157q0 -30 21 -52t55 -22
q60 0 108 30t58 40q4 0 8 -12t4 -27t-24 -47t-87 -76t-128 -44t-109 46t-44 110t65 148t139 138q-54 -20 -152 -20q-264 0 -452 198t-188 478z" />
    <glyph glyph-name="uni01EB" unicode="&#x1eb;" horiz-adv-x="1022" 
d="M497 792q-107 0 -158 -91t-51 -236t64 -265t170 -120t159 92t53 236t-65 264t-172 120zM510 886q190 0 322 -132t132 -318t-134 -316q-156 -164 -200 -230t-44 -109q0 -89 82 -89q51 0 98 29t62 43q4 0 8 -12t4 -27t-24 -47t-87 -76t-128 -44t-109 46t-44 107t55 152
t117 137q-60 -14 -108 -14q-188 0 -320 132t-132 319t130 318t320 131z" />
    <glyph glyph-name="Scommaaccent" unicode="&#x218;" horiz-adv-x="948" 
d="M358 -192q0 40 51 70t131 30q18 -16 31 -51t13 -65q0 -136 -174 -240h-10q-14 0 -31 8t-17 12t22 21q66 51 66 85t-41 62t-41 68zM76 980q0 150 126 253t284 103q93 0 191 -25q99 -25 127 -31q24 -136 24 -308q-4 -18 -24 -18q-54 0 -58 18q-12 92 -86 180t-173 88
t-148 -52t-49 -129t28 -112t41 -52t50 -43t50 -36t60 -39t57 -33q12 -10 67 -43t77 -48q91 -62 125 -119q51 -86 51 -186q0 -160 -129 -264t-299 -104q-120 0 -368 56q-18 72 -33 181t-15 143q2 16 43 16t47 -16q18 -80 83 -171q79 -111 237 -111q84 0 146 56t62 169
t-148 207q-49 31 -126 74q-6 6 -43 29t-67 43q-104 69 -157 144q-53 76 -53 180z" />
    <glyph glyph-name="scommaaccent" unicode="&#x219;" horiz-adv-x="732" 
d="M226 -192q0 40 51 70t131 30q18 -16 31 -51t13 -65q0 -136 -174 -240h-10q-14 0 -31 8t-17 12t22 21q66 51 66 85t-41 62t-41 68zM372 886q120 0 240 -34q20 -90 22 -224q0 -16 -35 -16t-39 16q-14 70 -59 119t-112 49q-133 0 -133 -100q0 -56 43 -91t81 -55t43 -22
t31 -16t33 -18t32 -19t35 -23t31 -24t30 -28t24 -31q37 -47 37 -117q0 -126 -97 -199t-228 -73t-265 56q-10 34 -20 111t-10 115q12 10 43 10t33 -16q16 -84 79 -135t128 -51q137 0 137 110q0 42 -19 65t-28 34t-36 27q-35 21 -90 49q-141 72 -192 133q-51 60 -51 144
q0 122 96 188t216 66z" />
    <glyph glyph-name="uni021A" unicode="&#x21a;" horiz-adv-x="1328" 
d="M548 -192q0 40 51 70t131 30q18 -16 31 -51t13 -65q0 -136 -174 -240h-10q-14 0 -31 8t-17 12t22 21q66 51 66 85t-41 62t-41 68zM1236 1024q-28 0 -32 10q-28 110 -74 149t-144 39q-186 0 -194 -34q-18 -58 -18 -188v-722q0 -108 18 -174q2 -14 54 -29t70 -15q8 0 8 -28
t-4 -40q-182 14 -274 14t-246 -14q-8 8 -8 38t8 30q24 0 75 14t57 30q16 54 16 166v724q0 166 -18 194q-16 34 -190 34q-98 0 -144 -39t-76 -147q-2 -12 -30 -12t-42 16l38 304q88 -20 138 -20l438 -12l440 12q50 0 138 20l38 -306q-14 -14 -42 -14z" />
    <glyph glyph-name="uni021B" unicode="&#x21b;" horiz-adv-x="700" 
d="M304 -192q0 40 51 70t131 30q18 -16 31 -51t13 -65q0 -136 -174 -240h-10q-14 0 -31 8t-17 12t22 21q66 51 66 85t-41 62t-41 68zM636 832q0 -48 -20 -88h-240v-482q0 -80 34 -122t88 -42t88 17t36 17q8 2 18 -18t8 -26q-12 -28 -85 -65t-160 -37t-160 67t-73 207v484
h-122q-14 0 -14 33t2 37q129 58 263 224l21 26q20 0 38 -5t18 -11v-196l244 -2q16 0 16 -18z" />
    <glyph glyph-name="uni0237" unicode="&#x237;" horiz-adv-x="548" 
d="M400 200q0 -272 -89 -425t-291 -223q-40 18 -40 44q0 10 4 14l39 25q90 63 139 229q30 103 30 262v452q0 133 -77 157q-29 9 -49 11t-20 6q0 60 10 60q128 14 235 41t109 27q14 0 14 -40l-14 -172v-468z" />
    <glyph glyph-name="uni02BB" unicode="&#x2bb;" horiz-adv-x="384" 
d="M270 1174q0 -40 -51 -70t-131 -30q-18 16 -31 51t-13 65q0 136 174 240h10q14 0 31 -8t17 -12t-22 -21q-66 -51 -66 -85t41 -62t41 -68z" />
    <glyph glyph-name="gravecomb" unicode="&#x300;" horiz-adv-x="494" 
d="M88 1320q0 23 28 37q28 15 70 15t58 -16q67 -79 125 -174q59 -96 59 -104t-9 -19t-19 -11q-26 0 -169 111t-143 161z" />
    <glyph glyph-name="acutecomb" unicode="&#x301;" horiz-adv-x="468" 
d="M318 1372q42 0 68 -14t26 -38q0 -50 -142 -161t-168 -111q-10 0 -20 11t-10 21t69 114t119 162q16 16 58 16z" />
    <glyph glyph-name="uni0302" unicode="&#x302;" horiz-adv-x="708" 
d="M529 984q-17 0 -84 49t-117 91q-46 -42 -115 -91t-86 -49t-17 48q98 112 124 145t54 78t38 45t22 -18q114 -166 198 -250q0 -48 -17 -48z" />
    <glyph glyph-name="tildecomb" unicode="&#x303;" horiz-adv-x="830" 
d="M102 1040q-10 0 -10 33t32 79q60 80 126 80t156 -53t150 -53q30 0 70 45t47 45t7 -38t-28 -78q-56 -78 -124 -78t-158 53t-150 53q-28 0 -68 -44t-50 -44z" />
    <glyph glyph-name="uni0304" unicode="&#x304;" horiz-adv-x="768" 
d="M164 1196h456q10 0 9 -32t-13 -68l-12 -16h-456l-8 4q-4 4 -4 16q4 96 28 96z" />
    <glyph glyph-name="uni0305" unicode="&#x305;" horiz-adv-x="1130" 
d="M-30 1492q0 20 7 68t21 48h1164q12 0 12 -28t-10 -65t-20 -43h-1162q-12 0 -12 20z" />
    <glyph glyph-name="uni0306" unicode="&#x306;" horiz-adv-x="504" 
d="M253 1040q-79 0 -145 58t-80 150q0 8 19 22t28 14t9 -8q14 -58 64 -94t106 -36t102 36t60 94q0 8 9 8t28 -14t19 -22q-11 -90 -76 -149q-64 -59 -143 -59z" />
    <glyph glyph-name="uni0307" unicode="&#x307;" horiz-adv-x="572" 
d="M152 1160q0 52 36 88t88 36t88 -36t36 -88t-36 -88t-88 -36t-88 36t-36 88z" />
    <glyph glyph-name="uni0308" unicode="&#x308;" horiz-adv-x="702" 
d="M162 1168q48 0 82 -35t34 -83t-35 -81t-83 -33t-82 34t-34 82t35 82t83 34zM534 1168q48 0 81 -35t33 -83t-34 -81t-82 -33t-82 34t-34 82t35 82t83 34z" />
    <glyph glyph-name="hookabovecomb" unicode="&#x309;" horiz-adv-x="360" 
d="M224 1328q64 0 97 -30t33 -78q0 -96 -102 -140q-34 -14 -47 -24t-13 -25t10 -31q0 -6 -21 -14t-35 -8q-44 26 -44 50q0 52 79 86t79 86q0 24 -14 43t-40 19q-66 0 -66 -72q0 -42 -68 -42q-14 0 -26 7t-12 19q0 60 63 107t127 47z" />
    <glyph glyph-name="uni030A" unicode="&#x30a;" horiz-adv-x="708" 
d="M156 1200q0 78 56 133t132 55t130 -55t54 -133t-54 -133t-130 -55t-132 55t-56 133zM236 1201q0 -45 32 -77t76 -32t75 31t31 77t-31 78t-75 32t-76 -32t-32 -77z" />
    <glyph glyph-name="uni030B" unicode="&#x30b;" horiz-adv-x="740" 
d="M318 1372q42 0 69 -14t27 -38q0 -50 -143 -161t-169 -111q-10 0 -20 11t-10 21t69 114t119 162q16 16 58 16zM582 1372q42 0 70 -15t28 -37q0 -50 -143 -161t-169 -111q-10 0 -19 11t-9 19t59 106t125 172q16 16 58 16z" />
    <glyph glyph-name="uni030C" unicode="&#x30c;" horiz-adv-x="708" 
d="M529 1302q17 0 17 -46q-105 -105 -156 -188q-51 -82 -63 -82q-11 0 -48 59t-169 211q0 46 17 46t86 -49t115 -91q50 42 117 91t84 49z" />
    <glyph glyph-name="uni0315" unicode="&#x315;" horiz-adv-x="302" 
d="M76 1232q0 102 156 102q28 -40 28 -125t-54 -171t-108 -118h-10q-8 0 -22 14t-14 19t20 24q60 57 60 123q0 18 -28 55t-28 77z" />
    <glyph glyph-name="dotbelowcomb" unicode="&#x323;" horiz-adv-x="572" 
d="M172 -200q0 52 36 88t88 36t88 -36t36 -88t-36 -88t-88 -36t-88 36t-36 88z" />
    <glyph glyph-name="uni0326" unicode="&#x326;" horiz-adv-x="384" 
d="M50 -188q0 40 51 70t131 30q18 -16 31 -51t13 -65q0 -136 -174 -240h-10q-14 0 -31 8t-17 12t22 21q66 51 66 85t-41 62t-41 68z" />
    <glyph glyph-name="uni0327" unicode="&#x327;" horiz-adv-x="886" 
d="M490 -54q42 0 70 -30t28 -70q0 -70 -54 -112t-124 -42t-94 24q-6 24 -6 33t8 18t14 9t35 -14t60 -14t52 18t21 45t-16 44t-41 17t-55 -12q-4 0 -15 11t-9 17q53 96 60 106h54l-32 -50q36 2 44 2z" />
    <glyph glyph-name="uni2002" unicode="&#x2002;" horiz-adv-x="1052" 
 />
    <glyph glyph-name="uni2003" unicode="&#x2003;" horiz-adv-x="1664" 
 />
    <glyph glyph-name="uni2009" unicode="&#x2009;" horiz-adv-x="204" 
 />
    <glyph glyph-name="uni200A" unicode="&#x200a;" horiz-adv-x="102" 
 />
    <glyph glyph-name="uni200B" unicode="&#x200b;" 
 />
    <glyph glyph-name="uni2010" unicode="&#x2010;" horiz-adv-x="628" 
d="M56 414q0 114 24 114h2l482 24h4q10 0 10 -31q0 -72 -26 -107l-482 -22h-4t-6 6t-4 16z" />
    <glyph glyph-name="uni2011" unicode="&#x2011;" horiz-adv-x="628" 
d="M56 414q0 114 24 114h2l482 24h4q10 0 10 -31q0 -72 -26 -107l-482 -22h-4t-6 6t-4 16z" />
    <glyph glyph-name="figuredash" unicode="&#x2012;" horiz-adv-x="974" 
d="M56 417q0 17 7 65t21 48h820q10 0 10 -28t-18 -94l-12 -14h-816q-12 6 -12 23z" />
    <glyph glyph-name="endash" unicode="&#x2013;" horiz-adv-x="998" 
d="M56 417q0 17 7 65t21 48h850q12 0 12 -25t-10 -64t-13 -42t-7 -3l-2 -2h-846q-12 6 -12 23z" />
    <glyph glyph-name="emdash" unicode="&#x2014;" horiz-adv-x="1664" 
d="M50 427q0 17 7 65t21 48h1526q12 0 12 -29t-9 -64t-13 -38t-6 -5h-1526q-12 6 -12 23z" />
    <glyph glyph-name="afii00208" unicode="&#x2015;" horiz-adv-x="2146" 
d="M50 427q0 17 7 65t21 48h2006q16 0 16 -21t-20 -101l-12 -14h-2006q-12 6 -12 23z" />
    <glyph glyph-name="quoteleft" unicode="&#x2018;" horiz-adv-x="320" 
d="M32 1088q0 74 21 125q33 80 106 139q73 60 89 60t35 -14t25 -30q-54 -32 -97 -85t-43 -87t41 -79t41 -77t-40 -58t-80 -26t-68 14q-30 44 -30 118z" />
    <glyph glyph-name="quoteright" unicode="&#x2019;" horiz-adv-x="324" 
d="M302 1282q0 -74 -21 -125q-32 -78 -104 -138q-72 -61 -88 -61q-17 0 -36 14t-25 30q54 32 97 86t43 88t-42 79t-42 76t41 57t80 26t67 -14q30 -44 30 -118z" />
    <glyph glyph-name="quotesinglbase" unicode="&#x201a;" horiz-adv-x="320" 
d="M296 120q0 -76 -21 -127q-33 -80 -105 -138q-72 -59 -88 -59t-35 13t-25 29q54 32 98 86t44 88t-42 79t-42 76t41 57t80 26t67 -14q28 -40 28 -116z" />
    <glyph glyph-name="quotedblleft" unicode="&#x201c;" horiz-adv-x="640" 
d="M32 1088q0 74 21 125q33 80 106 139q73 60 89 60t35 -14t25 -30q-54 -32 -97 -85t-43 -87t41 -79t41 -77t-40 -58t-80 -26t-68 14q-30 44 -30 118zM324 1086q0 76 21 127q33 80 106 139q73 60 89 60t35 -14t25 -30q-54 -32 -98 -85t-44 -87t41 -79t41 -77t-40 -58
t-80 -26t-68 14q-28 40 -28 116z" />
    <glyph glyph-name="quotedblright" unicode="&#x201d;" horiz-adv-x="642" 
d="M456 1284q0 -76 -21 -127q-32 -78 -104 -138q-72 -61 -93 -61h-4q28 8 72 44t74 70q72 82 72 185t-28 143q-26 12 -52 14q28 0 56 -14q28 -40 28 -116zM240 1331q0 -31 42 -76t42 -65t-9 -45t-44 -68t-89 -75q6 -16 23 -29t27 -15q-12 0 -30 14t-24 30q54 32 97 86t43 88
t-41 79t-41 77t40 57t90 25q-46 -2 -86 -27t-40 -56z" />
    <glyph glyph-name="quotedblbase" unicode="&#x201e;" horiz-adv-x="628" 
d="M448 94q0 100 -28 140q-28 14 -58 14t-54 -9q28 11 58 11t58 -14q28 -40 28 -116q0 -192 -177 -304q173 122 173 278zM236 164q0 -28 42 -73t42 -65t-9 -45t-44 -68t-89 -75q6 -16 25 -29t31 -13q11 0 41 20q-34 -24 -47 -24q-12 0 -30 14t-24 30q54 32 97 85t43 87
t-41 79t-41 77t40 58q17 11 36 17q-72 -27 -72 -75z" />
    <glyph glyph-name="dagger" unicode="&#x2020;" horiz-adv-x="710" 
d="M452 732h-18q-16 0 -16 -20q0 -80 18 -732q-28 10 -78 10t-80 -10q18 652 18 732q0 20 -16 20h-20q-66 0 -210 -12q4 36 4 68t-4 76q206 -10 210 -10h20q16 0 16 16q0 38 -18 388q48 -8 79 -8t79 8q-18 -350 -18 -388q0 -16 16 -16h18q8 0 212 10q-4 -44 -4 -76t4 -68
q-144 12 -212 12z" />
    <glyph glyph-name="daggerdbl" unicode="&#x2021;" horiz-adv-x="728" 
d="M460 732h-18q-16 0 -16 -20v-184q0 -20 16 -20h18q68 0 212 12q-4 -36 -4 -68t4 -76q-204 10 -212 10h-18q-16 0 -16 -16q0 -38 18 -388q-48 8 -79 8t-79 -8q18 350 18 388q0 16 -16 16h-20q-4 0 -210 -10q4 44 4 76t-4 68q144 -12 210 -12h20q16 0 16 20v184
q0 20 -16 20h-20q-66 0 -210 -12q4 36 4 68t-4 76q206 -10 210 -10h20q16 0 16 16q0 38 -18 388q48 -8 79 -8t79 8q-18 -350 -18 -388q0 -16 16 -16h18q8 0 212 10q-4 -44 -4 -76t4 -68q-144 12 -212 12z" />
    <glyph glyph-name="bullet" unicode="&#x2022;" horiz-adv-x="818" 
d="M158 526q0 102 73 176t175 74t174 -74t72 -176t-72 -175t-174 -73t-175 73t-73 175z" />
    <glyph glyph-name="onedotenleader" unicode="&#x2024;" horiz-adv-x="1404" 
d="M836 112q0 -54 -39 -95t-94 -41t-95 41t-40 95t40 94t95 40t94 -40t39 -94z" />
    <glyph glyph-name="ellipsis" unicode="&#x2026;" horiz-adv-x="1542" 
d="M326 112q0 -54 -39 -95t-94 -41t-95 41t-40 95t40 94t95 40t94 -40t39 -94zM906 112q0 -54 -39 -95t-94 -41t-95 41t-40 95t40 94t95 40t94 -40t39 -94zM1486 112q0 -54 -39 -95t-94 -41t-95 41t-40 95t40 94t95 40t94 -40t39 -94z" />
    <glyph glyph-name="perthousand" unicode="&#x2030;" horiz-adv-x="1954" 
d="M155 -16q-51 0 -57 24l964 1248q22 26 38 26q48 0 86 -30l-964 -1244q-16 -24 -67 -24zM938 618q130 0 217 -92t87 -220t-86 -220t-216 -92t-220 90t-90 220t89 222t219 92zM946 56q132 0 132 229q0 101 -37 186t-110 85t-107 -66t-34 -163t42 -184t114 -87zM352 1286
q130 0 218 -92t88 -220t-87 -220t-217 -92t-219 90t-89 220t88 222t218 92zM362 726q132 0 132 227q0 101 -39 187t-112 86t-105 -66t-32 -164t42 -184t114 -86zM1598 618q130 0 218 -92t88 -220t-87 -220t-217 -92t-220 90t-90 220t89 222t219 92zM1608 56q132 0 132 229
q0 101 -38 186t-111 85t-107 -66t-34 -163t43 -184t115 -87z" />
    <glyph glyph-name="minute" unicode="&#x2032;" horiz-adv-x="306" 
d="M187 1398q27 0 49 -14t22 -42q0 -112 -142 -346q-12 -18 -24 -18q-24 0 -24 24q0 154 26 330q4 20 35 43t58 23z" />
    <glyph glyph-name="second" unicode="&#x2033;" horiz-adv-x="564" 
d="M187 1398q27 0 48 -14t21 -42q0 -116 -140 -346q-12 -18 -24 -18q-24 0 -24 24q0 154 26 330q4 20 35 43t58 23zM435 1398q27 0 48 -14t21 -42q0 -116 -140 -346q-12 -18 -24 -18q-26 0 -26 24q0 48 10 165t18 165q4 20 35 43t58 23z" />
    <glyph glyph-name="uni2038" unicode="&#x2038;" horiz-adv-x="794" 
d="M184 -96q-16 0 -16 30l-2 10q2 4 41 38q113 99 175 222q10 20 23 20t21 -11t32 -52t51 -74t59 -63t57 -53t27 -25q0 -8 -8 -25t-22 -17t-87 56t-129 116q-48 -58 -124 -115t-98 -57z" />
    <glyph glyph-name="guilsinglleft" unicode="&#x2039;" horiz-adv-x="582" 
d="M478 846q58 -16 58 -47q0 -15 -136 -143l-160 -160q8 -8 76 -78t138 -137t75 -77t5 -16q0 -22 -58 -42q-10 20 -145 122t-267 186q-14 6 -14 35t16 47q205 122 394 292z" />
    <glyph glyph-name="guilsinglright" unicode="&#x203a;" horiz-adv-x="588" 
d="M50 799q0 31 58 47l20 -18q80 -80 199 -164t193 -128q16 -18 16 -47t-14 -35q-241 -154 -373 -271q-37 -33 -39 -37q-58 20 -58 40t60 77t75 71t83 84t76 78l-160 160q-136 128 -136 143z" />
    <glyph glyph-name="uni203E" unicode="&#x203e;" horiz-adv-x="1130" 
d="M-30 1492q0 20 7 68t21 48h1164q12 0 12 -28t-10 -65t-20 -43h-1162q-12 0 -12 20z" />
    <glyph glyph-name="Euro" unicode="&#x20ac;" horiz-adv-x="1316" 
d="M769 1284q189 0 433 -54q4 -2 11 -125t7 -146q0 -39 -46 -39q-14 0 -28 8q-13 61 -49 111q-109 151 -316 151q-143 0 -235 -78q-126 -107 -161 -304h463q12 0 1 -39t-35 -67h-441q-1 -22 -1 -52t3 -68h473q12 0 1 -38t-35 -68h-424q42 -201 179 -312q103 -84 255 -84
t256 108q46 49 78 149q10 31 14 31q68 0 74 -18q0 -26 -28 -150t-44 -130q-168 -82 -438 -82q-166 0 -306 86t-220 231q-45 82 -65 171h-109q-6 4 1 40t35 66h59q-1 18 -1 48t5 72h-99q-6 2 1 39t35 67h83q68 250 281 385q144 91 333 91z" />
    <glyph glyph-name="arrowleft" unicode="&#x2190;" horiz-adv-x="1524" 
d="M534 805q0 -9 -1 -13t-6 -10l-10 -12t-17 -17q-36 -33 -70 -67t-124 -122h1146q14 -2 14 -31t-10 -67t-16 -38h-1134l92 -96q58 -58 84 -82q52 -48 52 -62q0 -24 -60 -44q-10 20 -145 122t-267 186q-12 4 -12 35t16 49q212 126 394 290l18 18q18 -4 37 -17t19 -22z" />
    <glyph glyph-name="arrowup" unicode="&#x2191;" horiz-adv-x="784" 
d="M703 936q-9 0 -12 1t-7 3t-8 5t-10 10t-13 13t-18 18t-49 50t-126 128v-1144q-2 -16 -30 -16t-63 9t-38 13t-5 6v1134l-113 -113q-45 -45 -56 -57t-23 -24q-34 -34 -48 -34q-22 0 -42 58q20 10 122 145t186 267q6 14 35 14t47 -16q122 -205 292 -394l18 -18
q-4 -18 -17 -38t-22 -20z" />
    <glyph glyph-name="arrowright" unicode="&#x2192;" horiz-adv-x="1522" 
d="M54 532q0 28 10 32h1148q-90 88 -123 121t-46 45t-25 23t-23 24t-11 25t20 25t38 17l18 -18q182 -164 394 -290q16 -18 16 -48t-14 -36q-241 -154 -373 -271q-37 -33 -39 -37q-58 20 -58 44q0 14 39 50t97 94l92 96h-1132q-8 0 -12 12q-16 64 -16 92z" />
    <glyph glyph-name="arrowdown" unicode="&#x2193;" horiz-adv-x="790" 
d="M432 1422q28 0 28 -10l2 -4v-1144l110 110q44 44 56 57t24 25l18 18q18 18 31 18t26 -21t17 -39l-18 -20q-80 -80 -164 -199t-128 -193q-18 -16 -47 -16t-35 16q-154 241 -271 373q-33 37 -37 39q18 56 42 56q18 0 50 -35t54 -57l136 -136v1132q2 10 14 14q64 16 92 16z
" />
    <glyph glyph-name="universal" unicode="&#x2200;" horiz-adv-x="1432" 
d="M760 748q-72 0 -166 -6l-6 -8l152 -400l164 400q0 8 -4 8q-68 6 -140 6zM1388 1292q0 -26 -8 -26q-22 0 -73 -21t-65 -43q-38 -60 -76 -156l-372 -900q-46 -120 -68 -139t-38 -19t-26 10l-422 1048q-30 80 -60 146q-12 32 -60 53t-68 21q-8 0 -8 29t4 35l256 -14
q100 0 240 14q8 -8 7 -36t-9 -28q-22 0 -62 -16t-46 -28t-6 -43t36 -125l72 -186q10 -12 152 -12t262 6q12 0 12 8l76 186q38 96 38 126t-20 46t-63 26t-61 10q-6 2 -6 26t4 36l212 -12q82 0 238 12q8 -8 8 -34z" />
    <glyph glyph-name="partialdiff" unicode="&#x2202;" horiz-adv-x="888" 
d="M384 0q-148 0 -240 101t-92 261t109 267t277 107q64 0 172 -36q8 -2 13 6t5 18q4 86 -29 210q-64 242 -273 242q-96 0 -214 -90q-24 24 -12 58q30 46 114 89t196 43t197 -66t132 -173q93 -212 93 -467q0 -256 -120 -413t-328 -157zM620 436q0 102 -61 157t-143 55
t-124 -71t-42 -194t53 -209t142 -86t132 99t43 249z" />
    <glyph glyph-name="uni2206" unicode="&#x2206;" horiz-adv-x="1346" 
d="M64 0q-8 12 -18 32l618 1194h34l604 -1198q-12 -12 -16 -28h-1222zM240 136h780q14 0 6 16l-386 776q-14 10 -24 -4l-392 -764q-6 -24 16 -24z" />
    <glyph glyph-name="gradient" unicode="&#x2207;" horiz-adv-x="1344" 
d="M1282 1284q8 -12 18 -32l-618 -1196h-34l-604 1200q12 12 16 28h1222zM1108 1146h-782q-14 0 -6 -14l388 -776q14 -10 24 4l390 764q6 22 -14 22z" />
    <glyph glyph-name="element" unicode="&#x2208;" horiz-adv-x="900" 
d="M768 418q0 -38 -18 -38h-552q-14 0 -10 -8q20 -100 88 -172t164 -72h376q30 -10 30 -80q0 -14 -14 -28h-388q-166 0 -278 123t-112 292t105 293t265 124h408q14 -10 14 -34q0 -59 -30 -74h-392q-90 0 -154 -73t-82 -173q0 -10 10 -10h554q16 -32 16 -70z" />
    <glyph glyph-name="notelement" unicode="&#x2209;" horiz-adv-x="896" 
d="M198 380q-14 0 -10 -8q20 -102 84 -170l100 178h-174zM424 744q-90 0 -154 -73t-82 -173q0 -10 10 -10h234l142 256h-150zM846 48q0 -14 -14 -28h-388q-76 0 -144 28l-42 -80q-8 -4 -16 -4q-32 0 -64 40l-8 16l44 78q-160 122 -160 338q0 168 105 292t265 124h210l56 100
q4 4 12 4q32 0 62 -34l10 -22l-26 -48h84q14 -10 14 -34q0 -59 -30 -74h-128l-142 -256h206q16 -32 16 -70t-18 -38h-264l-132 -234q46 -18 86 -18h376q30 -10 30 -80z" />
    <glyph glyph-name="summation" unicode="&#x2211;" horiz-adv-x="1210" 
d="M1029 1034q-27 0 -33 14q-66 178 -256 178h-104q-222 0 -226 -26q-7 -27 145 -220q151 -194 183 -237t32 -54q0 -17 -195 -244t-243 -301q-4 -8 2 -17t14 -11q100 -10 204 -8l158 2q168 0 238 36q32 16 72 70t62 122q2 12 37 12t47 -12q-12 -36 -56 -157t-52 -181l-768 4
l-234 -12q-8 8 -8 40t8 32q18 0 50 23t44 40t202 260t190 249t-4 10l-378 538q-16 24 -52 46t-54 22q-8 0 -8 30t8 38q100 -8 234 -8l720 16q8 -60 32 -167t26 -117q-10 -10 -37 -10z" />
    <glyph glyph-name="minus" unicode="&#x2212;" horiz-adv-x="1082" 
d="M90 556h914q14 0 14 -12q0 -42 -10 -76t-13 -37t-7 -3h-914q-12 0 -12 20q8 108 28 108z" />
    <glyph glyph-name="uni2213" unicode="&#x2213;" horiz-adv-x="1062" 
d="M466 74v390q0 10 -12 10h-390q-12 0 -12 32t9 62t12 32t7 2h376q10 0 10 12v372q-2 10 10 14q54 16 98 16l20 -12v-392q0 -10 8 -10h392q16 0 16 -12q0 -30 -12 -73t-18 -43h-378q-8 0 -8 -6v-376q-12 -17 -116 -34q-12 0 -12 16zM980 1080h-916q-12 0 -12 32t9 62t12 32
t7 2h914q16 0 16 -12q0 -30 -12 -73t-18 -43z" />
    <glyph glyph-name="radical" unicode="&#x221a;" horiz-adv-x="1106" 
d="M46 372q0 18 48 48t151 104t120 88t36 14t23 -12q12 -40 48 -138l206 -460l290 1566l96 -6l-352 -1882q-38 -46 -82 -46q-16 0 -20 8l-344 760l-174 -98q-46 20 -46 54z" />
    <glyph glyph-name="proportional" unicode="&#x221d;" horiz-adv-x="1336" 
d="M214 458q0 -104 65 -177t151 -73t156 62q69 62 109 110q39 48 44 53t2 8t-29 40t-43 59q-56 72 -118 123t-140 51q-77 0 -137 -76t-60 -180zM1282 161q0 -19 -22 -49t-32 -30q-74 0 -142 27t-114 65t-81 76t-57 65t-26 27h-2q-167 -201 -292 -243q-62 -21 -132 -21
q-140 0 -234 111t-94 266t116 274t266 119t253 -86t141 -132t42 -47t6 1q188 242 380 262q16 2 22 -8t6 -28q0 -86 -48 -86q-98 0 -222 -142q-14 -16 -43 -52t-31 -38t2 -7t35 -47t48 -62q72 -84 126 -124q55 -40 115 -40q4 0 9 -16t5 -35z" />
    <glyph glyph-name="infinity" unicode="&#x221e;" horiz-adv-x="1686" 
d="M1292 848q140 0 239 -109t99 -264t-119 -274t-283 -119q-74 0 -142 27t-114 65t-81 76t-57 65t-26 27h-2q-167 -201 -292 -243q-62 -21 -132 -21q-140 0 -234 111t-94 266t116 274t266 119t253 -86t141 -132t42 -47t6 1q203 264 414 264zM214 458q0 -104 65 -177t151 -73
t156 62q69 62 109 110q39 48 44 53t2 8t-29 40t-43 59q-56 72 -118 123t-140 51q-77 0 -137 -76t-60 -180zM1470 467q0 105 -68 181t-165 76t-221 -142q-14 -16 -43 -52t-31 -38t2 -7t35 -47t48 -62q72 -84 126 -124q55 -40 128 -40t131 75t58 180z" />
    <glyph glyph-name="notequal" unicode="&#x2260;" horiz-adv-x="1046" 
d="M980 638q12 0 12 -10q0 -32 -12 -75t-18 -43h-340l-88 -156h442q16 0 16 -10q0 -32 -12 -75t-18 -43h-498l-110 -198q-8 -4 -12 -4q-36 0 -68 40l-6 16l82 146h-280q-14 0 -14 28t11 64t17 36h338l86 156h-438q-14 0 -14 32t12 64t18 32h492l106 188q6 6 14 6
q32 0 62 -36l10 -20l-76 -138h286z" />
    <glyph glyph-name="lessequal" unicode="&#x2264;" horiz-adv-x="926" 
d="M880 270q0 -12 -12 -55t-17 -43t-13 4l-750 382q-36 20 -36 78q0 30 36 48l738 374q8 4 10 4q16 0 34 -94l-6 -18l-652 -330l662 -336q6 -2 6 -14zM276 124h579q16 0 7 -43q-10 -43 -14 -53t-14 -16h-769q-3 0 -9 11t7 54t16 45t197 2z" />
    <glyph glyph-name="greaterequal" unicode="&#x2265;" horiz-adv-x="924" 
d="M86 124h766q12 0 12 -23t-10 -54t-18 -35h-770q-10 0 -10 16t8 56t22 40zM60 972q0 20 13 55t17 35t12 -4l740 -374q34 -16 34 -48q0 -60 -34 -78l-750 -382l-4 -4q-6 -2 -10 3t-17 37t-13 60l6 12l662 336l-650 330q-6 2 -6 22z" />
    <glyph glyph-name="propersubset" unicode="&#x2282;" horiz-adv-x="900" 
d="M846 818q0 -59 -30 -74h-392q-98 0 -170 -93t-72 -216t74 -215t184 -92h376q30 -10 30 -80q0 -14 -14 -28h-388q-166 0 -278 123t-112 292t105 293t265 124h408q14 -10 14 -34z" />
    <glyph glyph-name="f_f" unicode="&#xf100;" horiz-adv-x="1488" 
d="M782 866q0 102 11 143t11 67t-20 56q-56 130 -171 130t-165 -88t-48 -224v-92q0 -10 8 -10h364q10 0 10 12v6zM888 6q-60 0 -240 -12q-8 8 -8 37t8 29q22 0 67 17t49 31q16 70 17 256t1 364q0 14 -10 14h-360q-12 0 -12 -12v-442q0 -124 14 -180q4 -14 49 -31t61 -17
q6 0 7 -28t-3 -38q-168 12 -228 12t-240 -12q-8 8 -8 37t8 29q22 0 67 17t49 31q16 70 16 148v472q0 14 -8 14h-108q-4 0 -4 16t10 53t18 37h84q8 0 8 12v20q0 202 142 343t306 141q94 0 173 -34t117 -76q52 62 136 100t158 38q164 0 208 -74q18 -160 -80 -160q-34 0 -62 32
t-59 65t-71 35q-80 4 -127 -101t-45 -239v-92q0 -10 10 -10h222q10 0 10 -29t-24 -77h-206q-12 0 -12 -12v-442q0 -124 14 -180q4 -14 49 -31t61 -17q6 0 7 -28t-3 -38q-168 12 -228 12z" />
    <glyph glyph-name="f_i" unicode="&#xf101;" horiz-adv-x="1174" 
d="M730 848q167 0 252 32q20 0 20 -40q-16 -128 -16 -172v-380q0 -124 14 -180q4 -14 49 -31t61 -17q6 0 7 -28t-3 -38q-168 12 -228 12t-240 -12q-8 8 -8 37t8 29q22 0 67 17t49 31q16 70 16 148v332q0 90 -28 123t-132 33h-208q-12 0 -12 -12l2 -444q0 -124 14 -180
q4 -14 49 -31t61 -17q6 0 7 -28t-3 -38q-168 12 -228 12t-240 -12q-8 8 -8 37t8 29q22 0 67 17t49 31q16 70 16 148q2 296 2 474q0 14 -12 14h-104q-8 0 -8 16t12 52t20 36h80q12 0 12 12v18q0 206 142 359t326 153q114 0 182 -23q138 -47 138 -139q0 -52 -35 -86t-85 -34
q-78 0 -112 68q-58 114 -150 114t-148 -105t-54 -235v-92q0 -10 12 -10h320z" />
    <glyph glyph-name="f_f_i" unicode="&#xf102;" horiz-adv-x="1764" 
d="M400 858q0 -10 8 -10h364q10 0 10 12v6q0 92 11 138t11 69t-6 36t-18 35q-20 37 -63 78q-42 40 -113 40q-106 0 -156 -88t-48 -224v-92zM1476 6q-60 0 -240 -12q-8 8 -8 37t8 29q22 0 67 17t49 31q16 70 16 158v322q0 88 -29 122t-133 34h-206q-12 0 -12 -12v-452
q0 -116 14 -172q4 -14 49 -31t61 -17q6 0 7 -28t-3 -38q-168 12 -228 12t-240 -12q-8 8 -8 37t8 29q22 0 67 17t49 31q16 70 17 256t1 364q0 14 -10 14h-360q-12 0 -12 -12v-450q0 -116 14 -172q4 -14 49 -31t61 -17q6 0 7 -28t-3 -38q-168 12 -228 12t-240 -12q-8 8 -8 37
t8 29q22 0 67 17t49 31q16 70 16 158v462q0 14 -8 14h-108q-4 0 -4 16t10 53t18 37h84q8 0 8 12v20q0 202 142 343t306 141q94 0 173 -34t117 -76q52 60 147 99t190 39t177 -30q128 -40 128 -134q0 -52 -34 -86t-86 -34q-78 0 -112 68q-56 114 -150 114t-151 -106t-51 -234
v-92q0 -10 10 -10h320q166 0 236 26q6 0 18 6q18 0 18 -40q-14 -112 -14 -172v-388q0 -116 14 -172q4 -14 49 -31t61 -17q6 0 7 -28t-3 -38q-168 12 -228 12z" />
    <glyph glyph-name="f_l" unicode="&#xf103;" horiz-adv-x="1190" 
d="M656 31q0 29 8 29q22 0 67 17t49 31q16 70 16 158v750q0 96 -21 145t-71 89t-112 40q-86 0 -142 -105t-54 -235v-92q0 -10 12 -10h220q12 0 12 -28t-24 -76h-208q-12 0 -12 -12l4 -452q0 -116 14 -172q4 -14 49 -31t61 -17q6 0 7 -28t-3 -38q-168 12 -228 12t-240 -12
q-8 8 -8 37t8 29q22 0 67 17t49 31q16 70 16 158v464q0 14 -12 14h-104q-8 0 -8 16t12 52t20 36h80q12 0 12 12v18q0 206 142 359t326 153q28 0 84 -20t97 -20t125 28l30 10h4q8 0 16 -11t10 -21q-22 -76 -22 -188v-888q0 -116 14 -172q4 -14 49 -31t61 -17q6 0 7 -28
t-3 -38q-168 12 -228 12t-240 -12q-8 8 -8 37z" />
    <glyph glyph-name="f_f_l" unicode="&#xf104;" horiz-adv-x="1780" 
d="M398 858q0 -8 10 -8h364q10 0 10 10v6q0 92 11 138t11 69t-6 36t-18 35q-20 37 -63 78q-42 40 -113 40q-106 0 -157 -88t-49 -224v-92zM642 31q0 29 8 29q22 0 67 17t49 31q16 70 16 158v462q0 14 -10 14h-360q-14 0 -14 -12l2 -450q0 -116 14 -172q4 -14 49 -31t61 -17
q6 0 7 -28t-3 -38q-168 12 -228 12t-240 -12q-8 8 -8 37t8 29q22 0 67 17t49 31q16 70 16 158v462q0 14 -8 14h-108q-4 0 -4 16t10 54t18 38h84q8 0 8 10v20q0 202 142 342t306 140q94 0 173 -33t117 -75q50 60 146 98t148 38t108 -20t94 -20t128 30l30 10h6q8 0 16 -12
t10 -22q-22 -76 -22 -188v-888q0 -116 14 -172q4 -14 49 -31t61 -17q6 0 7 -28t-3 -38q-168 12 -228 12t-240 -12q-8 8 -8 37t8 29q22 0 67 17t49 31q16 70 16 158v750q0 92 -22 143t-72 91t-112 40q-86 0 -143 -106t-51 -234l2 -92q0 -10 10 -10h222q10 0 10 -28t-24 -76
h-206q-12 0 -12 -12l2 -452q0 -116 14 -172q4 -14 49 -31t61 -17q6 0 7 -28t-3 -38q-168 12 -228 12t-240 -12q-8 8 -8 37z" />
    <glyph glyph-name="f_b" unicode="&#xf105;" horiz-adv-x="1680" 
d="M52 31q0 29 8 29q22 0 67 17t49 31q16 70 16 148v474q0 14 -12 14h-104q-8 0 -8 16t12 52t20 36h80q12 0 12 12v18q0 206 142 359t326 153q28 0 84 -20t97 -20t125 28l30 10h4q8 0 16 -11t10 -21q-22 -76 -22 -188v-338q0 -26 12 -22q4 2 26 15q107 63 180 63
q198 0 301 -122t103 -311t-131 -328t-321 -139q-96 0 -158 14t-84 14t-62 -15t-44 -15h-10q-2 2 -12 8t-20 14t-6 22q18 70 18 224v764q0 96 -21 145t-71 89t-112 40q-86 0 -142 -105t-54 -235v-92q0 -10 12 -10h220q12 0 12 -28t-24 -76h-208q-12 0 -12 -12l4 -444
q0 -124 14 -180q4 -14 49 -31t61 -17q6 0 7 -28t-3 -38q-168 12 -228 12t-240 -12q-8 8 -8 37zM1152 760q-52 0 -100 -41t-48 -91v-430q0 -52 51 -84t148 -32t145 91t48 253t-55 248t-189 86z" />
    <glyph glyph-name="f_f_b" unicode="&#xf106;" horiz-adv-x="2268" 
d="M400 858q0 -10 8 -10h364q10 0 10 12v6q0 92 11 138t11 69t-6 36t-18 35q-20 37 -63 78q-42 40 -113 40q-106 0 -156 -88t-48 -224v-92zM1740 760q-52 0 -100 -41t-48 -91v-430q0 -52 51 -84t148 -32t145 91t48 253t-55 248t-189 86zM52 31q0 29 8 29q22 0 67 17t49 31
q16 70 16 158v462q0 14 -8 14h-108q-4 0 -4 16t10 53t18 37h84q8 0 8 12v20q0 202 142 343t306 141q94 0 173 -34t117 -76q52 60 147 99t147 39t108 -21t94 -21t128 30l30 10h6q8 0 16 -12t10 -22q-24 -76 -24 -188v-338q0 -26 12 -22q4 2 26 15q107 63 180 63
q198 0 301 -122t103 -311t-131 -328t-321 -139q-96 0 -158 14t-84 14t-62 -15t-44 -15h-10q-2 2 -12 8t-20 14t-6 22q18 70 18 224v764q0 96 -21 145t-71 89t-112 40q-86 0 -142 -106t-50 -234v-92q0 -10 10 -10h222q10 0 10 -28t-24 -76h-206q-12 0 -12 -12l2 -452
q0 -116 14 -172q4 -14 49 -31t61 -17q6 0 7 -28t-3 -38q-168 12 -228 12t-240 -12q-8 8 -8 37t8 29q22 0 67 17t49 31q16 70 16 158v462q0 14 -10 14h-360q-12 0 -12 -12v-450q0 -116 14 -172q4 -14 49 -31t61 -17q6 0 7 -28t-3 -38q-168 12 -228 12t-240 -12q-8 8 -8 37z
" />
    <glyph glyph-name="f_k" unicode="&#xf107;" horiz-adv-x="1792" 
d="M906 6q-60 0 -240 -12q-8 8 -8 37t8 29q22 0 67 17t49 31q16 70 16 148v760q0 96 -21 145t-71 89t-112 40q-86 0 -141 -105t-53 -235v-92q0 -10 10 -10h220q12 0 12 -28t-24 -76h-208q-10 0 -10 -12v-444q0 -124 14 -180q4 -14 49 -31t61 -17q6 0 7 -28t-3 -38
q-168 12 -228 12t-240 -12q-8 8 -8 37t8 29q22 0 67 17t49 31q16 70 16 148q2 296 2 474q0 14 -12 14h-104q-8 0 -8 16t12 52t20 36h80q12 0 12 12v18q0 206 142 359t326 153q28 0 84 -20t97 -20t125 28l30 10h4q8 0 16 -11t10 -21q-22 -76 -22 -188v-668q46 12 58 22
q63 54 124 105q62 51 90 78t28 49q0 32 -59 32q-27 0 -33 2q-4 14 -4 36t8 24h192q34 0 214 8q10 -6 10 -30t-4 -36q-2 -2 -51 -11t-90 -31t-128 -88t-159 -140q58 -64 201 -228t169 -185t76 -34t72 -13q10 0 10 -29t-4 -37q-156 12 -232 12t-244 -12q-8 8 -8 37t8 29
q20 0 46 7t26 14t-2 9l-292 324l-22 -6v-120q0 -124 14 -180q4 -14 49 -31t61 -17q6 0 7 -28t-3 -38q-168 12 -228 12z" />
    <glyph glyph-name="f_f_k" unicode="&#xf108;" horiz-adv-x="2378" 
d="M394 858q0 -8 10 -8h364q10 0 10 10v6q0 92 11 138t11 69t-6 36t-18 35q-20 37 -63 78q-42 40 -113 40q-106 0 -157 -88t-49 -224v-92zM1492 6q-60 0 -240 -12q-8 8 -8 37t8 29q22 0 67 17t49 31q16 70 16 148v760q0 86 -23 140t-73 94t-112 40q-86 0 -142 -106t-50 -234
v-92q0 -10 10 -10h222q10 0 10 -28t-24 -76h-206q-12 0 -12 -12l2 -444q0 -124 14 -180q4 -14 49 -31t61 -17q6 0 7 -28t-3 -38q-168 12 -228 12t-240 -12q-8 8 -8 37t8 29q22 0 67 17t49 31q16 70 16 148v472q0 14 -10 14h-360q-14 0 -14 -12l2 -450q0 -116 16 -180
q4 -14 48 -31t60 -17q6 0 8 -26t-2 -34q-154 14 -220 14t-248 -14q-8 8 -8 34t8 26q22 0 66 17t48 31q16 64 16 166v462q0 14 -8 14h-108q-4 0 -4 16t10 54t18 38h84q8 0 8 10v20q0 202 142 342t306 140q94 0 173 -33t117 -75q50 60 146 98t148 38t108 -20t94 -20t128 30
l30 10h6q8 0 16 -12t10 -22q-20 -76 -20 -188v-668q46 12 58 22q63 54 124 105q62 51 90 78t28 49q0 32 -59 32q-27 0 -33 2q-4 14 -4 36t8 24h192q34 0 214 8q10 -6 10 -30t-4 -36q-2 -2 -51 -11t-90 -31t-128 -88t-159 -140q58 -64 201 -228t169 -185t76 -34t72 -13
q10 0 10 -29t-4 -37q-156 12 -232 12t-244 -12q-8 8 -8 37t8 29q20 0 46 7t26 14t-2 9l-292 324l-22 -6v-120q0 -124 14 -180q4 -14 49 -31t61 -17q6 0 7 -28t-3 -38q-168 12 -228 12z" />
    <glyph glyph-name="f_h" unicode="&#xf109;" horiz-adv-x="1744" 
d="M654 27q0 27 8 27q22 0 67 16t49 30q16 70 16 156v760q0 96 -21 145t-71 89t-112 40q-86 0 -141 -105t-53 -235v-92q0 -10 10 -10h220q12 0 12 -28t-24 -76h-208q-10 0 -10 -12v-452q0 -116 16 -180q4 -14 48 -30t62 -16q6 0 7 -27t-3 -35q-154 14 -220 14t-248 -14
q-8 8 -8 35t8 27q22 0 66 16t48 30q16 64 17 258t1 372q0 14 -12 14h-104q-8 0 -8 16t12 52t20 36h80q12 0 12 12v18q0 206 142 359t326 153q28 0 84 -20t97 -20t125 28l30 10h4q8 0 16 -11t10 -21q-24 -76 -24 -188v-396q0 -22 14 -8q42 42 110 81t138 39q124 0 208 -103
t84 -229v-288q0 -100 16 -164q4 -14 48 -30t62 -16q8 0 8 -25t-4 -37q-168 14 -227 14t-241 -14q-8 8 -8 35t8 27q22 0 68 16t50 30q16 64 16 166v186q0 156 -42 223t-134 67q-50 0 -97 -30t-62 -51t-15 -25v-356q0 -124 14 -180q4 -14 49 -30t63 -16q6 0 7 -27t-3 -35
q-168 14 -227 14t-241 -14q-8 8 -8 35z" />
    <glyph glyph-name="f_f_h" unicode="&#xf10a;" horiz-adv-x="2336" 
d="M400 858q0 -10 8 -10h364q10 0 10 12v6q0 92 11 138t11 69t-6 36t-18 35q-20 37 -63 78q-42 40 -113 40q-106 0 -156 -88t-48 -224v-92zM2046 6q-60 0 -240 -12q-8 8 -8 37t8 29q22 0 67 17t49 31q18 78 18 144l2 200q2 156 -40 223t-136 67q-50 0 -97 -30t-62 -51
t-15 -25v-360q0 -112 14 -168q4 -14 49 -31t61 -17q6 0 7 -28t-3 -38q-168 12 -228 12t-240 -12q-8 8 -8 37t8 29q22 0 67 17t49 31q16 70 16 148l2 760q0 92 -22 143t-72 91t-112 40q-86 0 -142 -106t-50 -234v-92q0 -10 10 -10h222q10 0 10 -28t-24 -76h-206
q-12 0 -12 -12v-444q0 -124 14 -180q4 -14 49 -31t61 -17q6 0 7 -28t-3 -38q-168 12 -228 12t-240 -12q-8 8 -8 37t8 29q22 0 67 17t49 31q16 70 17 256t1 364q0 14 -10 14h-360q-12 0 -12 -12v-442q0 -124 14 -180q4 -14 49 -31t61 -17q6 0 7 -28t-3 -38q-168 12 -228 12
t-240 -12q-8 8 -8 37t8 29q22 0 67 17t49 31q16 70 16 148v472q0 14 -8 14h-108q-4 0 -4 16t10 53t18 37h84q8 0 8 12v20q0 202 142 343t306 141q94 0 173 -34t117 -76q52 60 147 99t147 39t108 -21t94 -21t128 30l30 10h6q8 0 16 -12t10 -22q-24 -76 -24 -188v-396
q0 -22 14 -8q42 42 110 81t138 39q124 0 208 -103t84 -229v-264q0 -124 14 -180q4 -14 49 -31t61 -17q6 0 7 -28t-3 -38q-168 12 -228 12z" />
    <glyph glyph-name="f_j" unicode="&#xf10b;" horiz-adv-x="1056" 
d="M726 848q167 0 252 32q20 0 20 -40q-16 -128 -16 -172v-468q0 -272 -89 -425t-291 -223q-40 18 -40 44q0 10 4 14q208 119 208 516v462q0 90 -28 123t-132 33h-208q-12 0 -12 -12l2 -452q0 -116 16 -180q4 -14 48 -30t62 -16q6 0 7 -27t-3 -35q-154 14 -220 14t-248 -14
q-8 8 -8 35t8 27q22 0 66 16t48 30q16 64 17 258t1 372q0 14 -12 14h-104q-8 0 -8 16t12 52t20 36h80q12 0 12 12v18q0 206 142 359t326 153q114 0 182 -23q138 -47 138 -139q0 -52 -35 -86t-85 -34q-78 0 -112 68q-58 114 -150 114t-148 -105t-54 -235v-92q0 -10 12 -10
h320z" />
    </font>
</defs>
</svg>
