<?xml version="1.0" standalone="no"?>
<!DOCTYPE svg PUBLIC "-//W3C//DTD SVG 1.1//EN" "http://www.w3.org/Graphics/SVG/1.1/DTD/svg11.dtd" >
<svg xmlns="http://www.w3.org/2000/svg">
<metadata>
Created by FontPrep 20130207 at Tue Nov 22 10:26:11 2016
 By Alexander McMillan
Copyright (c) 2010, Sebastian Kosch (sebastian@aldusleaf.org),
with Reserved Font Name "Crimson Text".
This Font Software is licensed under the SIL Open Font License, Version 1.1.
This license is available with a FAQ at: http://scripts.sil.org/OFL
</metadata>
<defs>
<font id="36e89fd555251cd3973cf29047a6c1e7" horiz-adv-x='1024' >
  <font-face 
    font-family="CrimsonText-Italic"
    font-weight="400"
    font-style="italic"
    font-stretch="normal"
    units-per-em="2048"
    panose-1="2 0 5 3 0 0 0 0 0 0"
    ascent="1434"
    descent="-614"
    x-height="870"
    cap-height="1316"
    bbox="-258 -538 2274 1814"
    underline-thickness="102"
    underline-position="-204"
    slope="-11"
    unicode-range="U+0020-F89F"
  />
<missing-glyph horiz-adv-x="748" 
d="M136 68h408v1228h-408v-1228zM68 0v1364h544v-1364h-544z" />
    <glyph glyph-name=".notdef" horiz-adv-x="748" 
d="M136 68h408v1228h-408v-1228zM68 0v1364h544v-1364h-544z" />
    <glyph glyph-name=".null" 
 />
    <glyph glyph-name="nonmarkingreturn" horiz-adv-x="682" 
 />
    <glyph glyph-name="space" unicode=" " horiz-adv-x="456" 
 />
    <glyph glyph-name="exclam" unicode="!" horiz-adv-x="374" 
d="M477 1262q37 0 53 -26t16 -55t-33 -152t-91 -335t-94 -354q-4 -18 -25 -31t-32 -13t-11 20t35 309t71 529q6 34 40 71t71 37zM140 80q0 48 38 86t84 38t71 -28t25 -75t-37 -88t-84 -41t-72 30t-25 78z" />
    <glyph glyph-name="quotedbl" unicode="&#x22;" horiz-adv-x="594" 
d="M523 1396q47 0 58 -21t-1 -109q-12 -62 -57 -188t-55 -160t-23 -42t-25 -8t-22 7t-8 19q8 80 8 151l-8 227q6 34 46 79t87 45zM223 1396q47 0 58 -21t-1 -109q-12 -62 -57 -188t-55 -160t-23 -42t-25 -8t-22 7t-8 19q8 80 8 151l-8 227q6 34 46 79t87 45z" />
    <glyph glyph-name="numbersign" unicode="#" horiz-adv-x="838" 
d="M538 634h-174l-58 -172h174zM834 746q14 0 14 -18t-17 -56t-33 -38h-154l-58 -172h152q14 0 14 -19t-17 -56t-33 -37h-154l-102 -302q-6 -16 -58 -16t-51 7t1 9l104 302h-174l-102 -302q-6 -16 -58 -16t-51 7t1 9l104 302h-152q-14 0 -14 19t17 56t33 37h154l58 172h-152
q-14 0 -14 19t17 56t33 37h154l102 302q6 16 58 16t52 -12q-2 -2 -2 -4l-104 -302h174l102 302q6 16 58 16t52 -12q-2 -2 -2 -4l-104 -302h152z" />
    <glyph glyph-name="dollar" unicode="$" horiz-adv-x="860" 
d="M406 -16q-23 0 -62 5l-32 -93q-64 0 -62 18l29 84q-72 11 -175 32q-18 130 6 302q4 16 34 16t40 -16q10 -190 126 -246l170 488q-204 132 -232 245q-14 57 0 127q28 146 153 244t267 98q27 0 59 -4l29 82q64 0 62 -14l-27 -78l137 -32q-12 -172 -32 -274q-4 -16 -16 -16
q-44 4 -44 22q4 70 -45 150q-16 26 -37 43l-157 -452q128 -91 157 -117q130 -118 101 -265t-162 -248t-287 -101zM426 62q92 0 168 58t96 162q4 22 4 43t-1 38t-9 34t-13 28t-19 25t-20 21t-25 20t-23 16t-25 16t-23 15h-1l-164 -472q26 -4 55 -4zM642 1204
q-202 0 -240 -194q-18 -92 22 -146t118 -111l155 444q-25 7 -55 7z" />
    <glyph glyph-name="percent" unicode="%" horiz-adv-x="1236" 
d="M904 654q110 0 168 -77t58 -187q0 -150 -108 -278t-250 -128q-108 0 -170 77t-62 185q0 152 108 280t256 128zM884 600q-90 0 -154 -106t-64 -213t32 -174t98 -67q90 0 147 110t57 217q0 233 -116 233zM12 -24q-34 0 -40 22l1192 1306q22 22 55 22t43 -26l-1192 -1300
q-24 -24 -58 -24zM480 1346q110 0 168 -77t58 -187q0 -150 -108 -278t-250 -128q-108 0 -170 77t-62 185q0 152 108 280t256 128zM460 1292q-90 0 -154 -106t-64 -213t32 -174t98 -67q90 0 147 110t57 217q0 233 -116 233z" />
    <glyph glyph-name="ampersand" unicode="&#x26;" horiz-adv-x="1288" 
d="M1326 888q0 30 -18 51t-43 21t-56 -18t-54 -18t-40 20t-17 56t52 76q112 0 181 -50t69 -138t-61 -142t-163 -54q-12 0 -52 4q110 -98 110 -248q0 -198 -177 -337t-390 -139t-362 118t-149 302q0 122 79 228t173 142q-76 86 -76 207t116 211t248 90q92 0 161 -50t69 -121
t-43 -123t-69 -52t-26 14q0 2 10 29t10 76t-46 93t-124 44t-142 -69t-64 -166t66 -155q50 14 92 14t89 -22t47 -61t-40 -60t-103 -21t-111 42q-144 -122 -144 -271t100 -251t256 -102t285 123t129 293q0 78 -47 137t-111 59t-106 -30t-42 -69t22 -54t47 -19t47 -20t22 -47
t-19 -57t-47 -34q-48 0 -101 50t-53 126q0 110 86 183t202 73l152 -4q70 0 123 31t53 89z" />
    <glyph glyph-name="quotesingle" unicode="'" horiz-adv-x="294" 
d="M223 1396q47 0 58 -21t-1 -109q-12 -62 -57 -188t-55 -160t-23 -42t-25 -8t-22 7t-8 19q8 80 8 151l-8 227q6 34 46 79t87 45z" />
    <glyph glyph-name="parenleft" unicode="(" horiz-adv-x="584" 
d="M42 333q0 225 66 443t156 371t183 251t149 98q18 0 18 -40q0 -10 -4 -14q-80 -38 -183 -202t-185 -419t-82 -471t45 -365t89 -175q2 0 2 -9t-13 -26t-23 -17q-70 0 -144 175t-74 400z" />
    <glyph glyph-name="parenright" unicode=")" horiz-adv-x="552" 
d="M538 942q0 -218 -47 -405t-117 -322t-148 -242t-143 -161t-99 -54q-18 0 -18 25t6 27q28 14 79 72t115 164t121 237t95 310t38 363t-37 319t-93 167q-2 2 -2 8t12 26t22 20q78 0 147 -168t69 -386z" />
    <glyph glyph-name="asterisk" unicode="*" horiz-adv-x="686" 
d="M260 596q-48 0 -48 65q0 35 65 140t65 125t-17 20t-111 -41t-145 -41t-51 46t36 68t86 22l156 -14q50 0 50 34q0 20 -51 99t-51 121t21 65t45 23q46 0 57 -50t11 -150t25 -100t102 119q29 45 69 82t74 37q46 0 46 -48q0 -38 -42 -76t-91 -61q-133 -62 -133 -99
q0 -30 124 -52q46 -8 85 -32t39 -56t-22 -54t-55 -22t-73 41t-73 83t-53 42t-27 -36t-13 -103t-19 -110t-36 -65t-45 -22z" />
    <glyph glyph-name="plus" unicode="+" horiz-adv-x="914" 
d="M576 976q28 0 24 -18q-46 -268 -70 -392q-4 -10 6 -10h362q8 0 8 -18q0 -48 -42 -94h-358q-8 0 -8 -8l-70 -376q-2 -16 -36 -26t-57 -10t-31 6t-6 12q50 280 72 392q0 10 -8 10h-358q-10 0 -10 28t44 84h356q8 0 8 8q12 58 32 181t34 195q4 18 48 27t60 9z" />
    <glyph glyph-name="comma" unicode="," horiz-adv-x="418" 
d="M-10 -290q0 10 47 51t95 105t48 110t-13 96t-13 60q0 50 50 88t108 38q16 0 44 -8q6 -14 6 -50t-19 -116q-36 -150 -132 -251q-97 -101 -159 -141l-26 -18q-8 0 -22 13t-14 23z" />
    <glyph glyph-name="hyphen" unicode="-" horiz-adv-x="590" 
d="M546 523q0 -23 -16 -62t-30 -41l-452 -22q-10 0 -10 25t14 61t28 38l454 24q12 0 12 -23z" />
    <glyph glyph-name="period" unicode="." horiz-adv-x="338" 
d="M248 204q92 0 92 -97q0 -47 -41 -91t-85 -44t-69 27t-25 74t42 89t86 42z" />
    <glyph glyph-name="slash" unicode="/" horiz-adv-x="926" 
d="M6 -66q-26 0 -36 10l850 1534q26 44 88 44q24 0 48 -12l-848 -1534q-26 -42 -102 -42z" />
    <glyph glyph-name="zero" unicode="0" horiz-adv-x="820" 
d="M645 1282q207 0 278 -196t17 -448q-78 -379 -297 -555q-111 -89 -234 -89t-200 90q-148 173 -79 554q34 176 109 321t186 234t220 89zM416 70q118 0 216 166t146 408t14 402t-136 160q-116 0 -216 -162t-146 -404q-50 -236 -15 -403t137 -167z" />
    <glyph glyph-name="one" unicode="1" horiz-adv-x="820" 
d="M372 1040q0 8 6 14q360 230 366 230h4q16 0 16 -38q-32 -66 -56 -188l-152 -788q-22 -122 -20 -178q2 -14 50 -27t66 -13q6 0 2 -26t-8 -32q-184 10 -217 10t-223 -10q-6 8 0 33t12 25q26 0 79 13t59 27q16 34 32 114l140 720q23 110 16 121q-6 11 -16 11t-34 -12
t-55 -30t-43 -24q-10 6 -17 23t-7 25z" />
    <glyph glyph-name="two" unicode="2" horiz-adv-x="820" 
d="M680 0h-610q-12 30 -6 66q246 222 435 455t221 397q20 108 -18 167t-120 59q-156 0 -280 -166q-10 0 -20 13t-4 28t39 56t84 90t128 84t158 35t134 -51q102 -98 68 -275t-210 -381q-176 -203 -425 -419q-14 -14 0 -14h342q49 0 70 14q20 14 29 19t22 26t16 27t17 35
t22 42t31 13t27 -8q-76 -190 -106 -280q-12 -32 -44 -32z" />
    <glyph glyph-name="three" unicode="3" horiz-adv-x="820" 
d="M664 1284q90 0 149 -71t39 -172t-71 -162t-137 -121q83 -33 151 -120t41 -226q-36 -190 -182 -306t-318 -116t-244 60q-15 15 -7 59q9 43 32 68t48 25t39 -15t31 -39t29 -36q46 -42 126 -42t162 65t110 204t-27 221t-149 82q-68 0 -124 -14q-17 29 4 72q134 24 224 96
t114 196q14 68 -25 121t-91 53t-90 -15t-58 -31t-40 -35t-26 -20t-9 18t-1 33q139 168 300 168z" />
    <glyph glyph-name="four" unicode="4" horiz-adv-x="820" 
d="M256 464h338l104 532q2 4 0 11t-6 7l-444 -526q-2 -2 -2 -6q-4 -18 10 -18zM878 1290q26 0 20 -20l-158 -806h134q18 0 12 -14q-12 -66 -32 -102h-136l-68 -350q-8 -10 -62 -10t-69 3t-15 13l68 344h-472q-8 16 0 62l730 856q22 24 48 24z" />
    <glyph glyph-name="five" unicode="5" horiz-adv-x="820" 
d="M398 70q86 0 162 71t106 219q24 92 -18 190q-18 42 -70 69t-138 27t-156 -22q-12 8 -28 28l204 594q368 12 442 28q16 -36 -30 -152q-52 -16 -215 -23l-163 -7q-10 -2 -21 -29t-111 -307q64 26 180 26q150 0 236 -110t58 -260q-36 -184 -179 -303t-317 -119t-246 60
q-19 14 -9 58q9 44 32 69t48 25t40 -15t32 -39t29 -36q46 -42 132 -42z" />
    <glyph glyph-name="six" unicode="6" horiz-adv-x="820" 
d="M568 744q128 0 210 -84t82 -202t-66 -227t-172 -176t-227 -67t-200 86t-79 259t103 365q192 356 687 576q16 0 16 -50q-194 -82 -334 -205t-226 -325t-86 -390q0 -100 40 -169t126 -69t172 106t86 262q0 100 -47 162t-145 62q-35 0 -70 -15q-34 -15 -36 -15q-12 8 -12 28
q0 34 68 61t110 27z" />
    <glyph glyph-name="seven" unicode="7" horiz-adv-x="820" 
d="M223 -12q-17 0 -35 21t-16 35l700 1062h-448q-30 0 -68 -36t-80 -122q-4 -8 -28 -10t-36 4q8 22 53 135t63 165q10 24 34 24h538l126 6q32 0 -19 -73q-9 -13 -26 -39t-27 -40l-708 -1126q-6 -6 -23 -6z" />
    <glyph glyph-name="eight" unicode="8" horiz-adv-x="820" 
d="M426 54q86 0 152 60t86 162q8 46 -6 95q-23 80 -82 139q-60 60 -79 72t-23 12t-6 -2q-88 -54 -135 -118t-68 -170t27 -178t134 -72zM651 1216q-75 0 -133 -64t-78 -168q-26 -136 144 -256q8 -4 12 -4t10 4q142 90 174 244q18 94 -18 169t-111 75zM673 1286q125 0 197 -83
t44 -227t-264 -288q-12 -2 -2 -12q86 -60 141 -152t37 -190q-28 -148 -155 -250t-275 -102t-227 90t-49 236q20 114 111 191t139 105t57 34t1 10q-64 46 -107 129t-20 197t135 213t237 99z" />
    <glyph glyph-name="nine" unicode="9" horiz-adv-x="820" 
d="M560 610q78 0 94 16q12 -10 12 -28q0 -34 -65 -56t-111 -22q-126 0 -204 80t-78 204q0 174 137 318t287 144t229 -86t79 -250q0 -315 -229 -580q-83 -96 -223 -193t-320 -169q-30 8 -34 42q196 82 338 205t223 315t81 400q0 102 -38 170t-123 68t-165 -105t-80 -261
q0 -212 190 -212z" />
    <glyph glyph-name="colon" unicode=":" horiz-adv-x="360" 
d="M120 75q0 49 42 93t88 44t71 -27t25 -76t-42 -93t-88 -44t-71 27t-25 76zM248 741q0 49 43 92t89 43t71 -27t25 -75t-42 -93t-88 -45t-72 28t-26 77z" />
    <glyph glyph-name="semicolon" unicode=";" horiz-adv-x="478" 
d="M158 29q0 33 -11 61t-11 34q0 40 49 82t103 42q46 0 46 -68q0 -26 -20 -131t-85 -185t-217 -194q-8 -4 -14 -4q-28 0 -28 48q0 16 76 69q30 21 62 71t41 96t9 79zM250 741q0 49 43 92t89 43t71 -27t25 -75t-42 -93t-88 -45t-72 28t-26 77z" />
    <glyph glyph-name="less" unicode="&#x3c;" horiz-adv-x="812" 
d="M700 67q0 -13 -21 -54t-27 -41t-10 2l-624 380q-20 14 -20 59t46 69l762 374q4 2 8 2q14 0 14 -53t-10 -57l-670 -330l548 -336q4 -2 4 -15z" />
    <glyph glyph-name="equal" unicode="=" horiz-adv-x="1006" 
d="M96 518q-8 0 -8 10t16 56t28 46h830q12 0 12 -10t-19 -56t-27 -46h-832zM40 234q-10 0 -10 11t17 56t29 45h832q12 0 12 -7t-36 -93l-14 -12h-830z" />
    <glyph glyph-name="greater" unicode="&#x3e;" horiz-adv-x="838" 
d="M126 759q0 9 22 55t30 46l622 -378q24 -14 24 -40q0 -64 -48 -88l-770 -380q-8 -4 -12 -4q-12 0 -12 96l10 16l682 336l-544 330q-4 2 -4 11z" />
    <glyph glyph-name="question" unicode="?" horiz-adv-x="588" 
d="M182 558q0 108 84 166l238 168q94 66 94 133q0 129 -108 129q-46 0 -83 -47t-73 -47q-68 0 -68 104q10 28 54 63t94 35q120 0 205 -80t85 -178q0 -131 -72 -194q-32 -28 -103 -73t-140 -92t-69 -123q0 -38 26 -74t52 -54q0 -20 -20 -32q-48 0 -122 61t-74 135zM218 -28
q-90 0 -90 100q0 48 40 90t84 42t70 -26t26 -73t-43 -90t-87 -43z" />
    <glyph glyph-name="at" unicode="@" horiz-adv-x="1446" 
d="M924 644l10 43q0 13 -12 17q-134 48 -265 -65t-177 -353q-18 -94 8 -137t68 -43q72 0 170 93t112 141zM934 1154q108 0 197 -41q157 -72 238 -268q67 -162 31 -379q-26 -138 -78 -239t-114 -153q-119 -100 -242 -100q-90 0 -136 70t-32 140q0 6 -10 -4q-40 -54 -142 -124
t-167 -70t-104 47q-63 76 -39 249q41 210 202 369q78 77 186 123t228 46l162 -18q-32 -94 -36 -106l-130 -446q-60 -196 50 -196q66 0 123 42t93 106q72 127 88 226q34 168 -3 310t-143 230t-267 88t-319 -78t-271 -219t-147 -313q-44 -262 21 -416q119 -282 511 -282
q64 0 134 26v-18q-4 -28 -50 -55t-120 -37q-327 -11 -509 217q-97 121 -119 316q-10 87 10 173q46 240 183 421t324 272t397 91z" />
    <glyph glyph-name="A" unicode="A" horiz-adv-x="1212" 
d="M788 1052q-246 -446 -246 -451t123 -5t181 4q8 0 8 9t-26 177t-40 266zM973 4q-43 0 -193 -10q-2 2 -2 28t14 26q20 0 56 12t46 28q14 30 14 79t-18 182t-18 134q0 15 -82 15h-120q-42 0 -186 -10q-6 0 -54 -80t-94 -174t-46 -120t35 -46t75 -20q4 0 4 -17t-10 -37
q-186 10 -206 10t-180 -10q-4 4 -4 29t14 25q22 0 61 12t55 30q44 48 122 188l552 992q30 54 78 54q8 0 16 -4l166 -1056q20 -126 24 -144q6 -30 51 -51t65 -21q4 0 4 -17t-10 -37q-186 10 -229 10z" />
    <glyph glyph-name="B" unicode="B" horiz-adv-x="1056" 
d="M946 1032q0 200 -206 200q-146 0 -150 -26l-90 -434q-2 -8 7 -13t33 -9t83 -4q117 0 207 42q116 54 116 244zM1116 1067q0 -59 -14 -104t-36 -77q-43 -62 -91 -97t-111 -67q60 -10 136 -94t76 -198q0 -164 -149 -297t-403 -133h-254l-220 -6q-2 2 -2 30t14 28q24 0 73 14
t57 32q28 58 52 186l144 744q22 114 22 186q0 14 -45 31t-67 17q-4 0 -4 20t14 34q92 -4 214 -4l262 2q119 0 217 -54q51 -28 83 -81t32 -112zM896 421q0 107 -66 174t-210 67t-150 -30l-76 -400q-10 -60 -10 -96t28 -45t130 -9t170 32t126 116t58 191z" />
    <glyph glyph-name="C" unicode="C" horiz-adv-x="1160" 
d="M865 1334q145 0 435 -90q-36 -228 -41 -253t-34 -25t-35 6q0 131 -71 200q-31 30 -97 54t-158 24q-206 0 -384 -220t-178 -512q0 -192 104 -318t294 -126q258 0 393 206q17 26 21 26t22 -21t16 -29q-90 -172 -100 -182q-30 -34 -156 -60t-254 -26q-238 0 -380 163
t-142 383q0 132 59 274t157 259t241 192t288 75z" />
    <glyph glyph-name="D" unicode="D" horiz-adv-x="1336" 
d="M827 1228q-197 0 -226 -36t-51 -154l-146 -760q-6 -28 -6 -85t4 -67q18 -40 232 -40q168 0 300 109t199 277t67 350t-88 294t-285 112zM1242 1172q134 -144 134 -364t-125 -428q-144 -240 -377 -333q-132 -53 -286 -53l-316 10l-222 -10q-2 2 -2 28t10 26q22 0 74 16
t60 34q28 58 52 186l144 744q26 142 22 186q-2 16 -46 32t-66 16q-4 0 -4 20t14 34q92 -4 214 -4l326 4q260 0 394 -144z" />
    <glyph glyph-name="E" unicode="E" horiz-adv-x="1038" 
d="M492 722q0 -16 74 -16h90q132 0 164 19t78 123q6 14 29 14t29 -10l-74 -384q-12 -8 -33 -8t-23 16q-3 90 -12 104q-8 14 -23 26t-168 12t-157 -18l-58 -296q-22 -106 -22 -155t16 -55t106 -6h90q174 0 242 34q32 16 75 71t81 131q6 12 35 12t37 -12q-140 -260 -164 -332
l-632 12l-222 -10q-2 2 -2 28t10 26q22 0 74 16t60 34q28 58 52 186l144 744q26 142 22 186q-2 16 -46 32t-66 16q-4 0 -4 20t14 34q92 -4 214 -4l586 16q-2 -28 -2 -78l4 -194q-10 -10 -35 -10t-25 14q-6 112 -52 142t-146 30h-108q-142 0 -152 -26q-22 -60 -36 -134z" />
    <glyph glyph-name="F" unicode="F" horiz-adv-x="1006" 
d="M488 722q0 -16 74 -16h90q132 0 164 19t78 123q6 14 29 14t29 -10l-74 -384q-12 -8 -33 -8t-23 16q-3 90 -12 104q-8 14 -23 26t-168 12t-157 -18l-68 -344q-16 -80 -16 -158q0 -16 34 -29t68 -17l34 -4q4 0 4 -21t-12 -33q-186 10 -234 10l-222 -10q-2 2 -2 28t10 26
q22 0 74 16t60 34q28 58 52 186l144 744q26 142 22 186q-2 16 -46 32t-66 16q-4 0 -4 20t14 34q92 -4 214 -4l582 16q-2 -28 -2 -78l4 -194q-10 -10 -35 -10t-25 14q-6 112 -52 142t-146 30h-108q-142 0 -152 -26q-22 -60 -36 -134z" />
    <glyph glyph-name="G" unicode="G" horiz-adv-x="1232" 
d="M598 -12q-212 0 -345 149t-133 357t102 399t280 316t376 125q136 0 426 -90q-30 -198 -42 -260q-2 -18 -33 -18t-35 10q0 127 -71 196q-31 30 -97 54t-158 24q-146 0 -277 -109t-206 -272t-75 -339t100 -316t270 -140t256 44q16 8 22 34l56 284q8 32 8 60q0 18 -56 35
t-82 17q-4 0 -4 19t16 35q216 -10 231 -10t205 10q0 -54 -12 -54q-34 0 -88 -19t-60 -57l-48 -278l-2 -14l4 -54q0 -25 -38 -41q-12 -5 -47 -18t-45 -17t-45 -15t-55 -15t-58 -12q-95 -20 -240 -20z" />
    <glyph glyph-name="H" unicode="H" horiz-adv-x="1254" 
d="M734 1310q0 -48 -15 -48t-66 -16t-57 -30q-32 -74 -52 -186l-50 -282v-2q0 -10 53 -13t280 -3t229 16l54 278q22 110 22 184q0 22 -43 38t-69 16q-4 0 -4 19t16 35q144 -12 216 -12l214 12v-6q0 -48 -15 -48t-65 -16t-56 -30q-30 -66 -52 -186l-146 -752
q-22 -110 -22 -180q0 -16 27 -29t55 -17l26 -4q4 0 4 -15t-12 -39q-186 10 -200 10t-228 -10q-4 4 -4 29t14 25q24 0 72 13t56 31q30 68 52 192l64 330v2q0 10 -47 13t-281 3t-238 -24l-64 -330q-22 -110 -22 -180q0 -16 27 -29t53 -17l28 -4q4 0 4 -15t-12 -39
q-184 10 -198 10t-230 -10q-4 4 -4 29t14 25q24 0 72 13t56 31q30 68 52 192l142 740q22 110 22 184q0 22 -43 38t-69 16q-4 0 -4 19t16 35q144 -12 216 -12l212 12v-6z" />
    <glyph glyph-name="I" unicode="I" horiz-adv-x="526" 
d="M734 1310q0 -48 -15 -48t-66 -16t-57 -30q-26 -56 -52 -186l-142 -752q-22 -110 -22 -180q0 -16 27 -29t53 -17l28 -4q4 0 4 -15t-12 -39q-184 10 -198 10t-230 -10q-4 4 -4 29t14 25q24 0 72 13t56 31q30 68 52 192l142 740q22 110 22 184q0 22 -43 38t-69 16
q-4 0 -4 19t16 35q144 -12 216 -12l212 12v-6z" />
    <glyph glyph-name="J" unicode="J" horiz-adv-x="508" 
d="M716 1310q0 -48 -15 -48t-59 -16t-50 -30q-32 -74 -52 -186l-150 -798q-77 -418 -309 -604q-117 -94 -229 -94q-12 14 -12 36l2 12q164 52 248 196t140 440l150 806q22 128 22 184q0 22 -50 38t-76 16q-4 0 -4 19t16 35q144 -12 216 -12l212 12v-6z" />
    <glyph glyph-name="K" unicode="K" horiz-adv-x="1284" 
d="M672 669q0 -15 12 -31l408 -494q34 -42 108 -65t102 -23q4 0 4 -17t-10 -37q-102 -6 -158 -6t-124 25t-100 67q-398 506 -440 564q92 56 255 210t322 332q25 28 25 44t-35 24t-61 8q-6 0 -6 15t10 31q144 -12 196 -12l214 12q0 -46 -12 -46q-140 -16 -212 -88l-488 -488
q-10 -10 -10 -25zM734 1310q0 -48 -15 -48t-66 -16t-57 -30q-26 -56 -52 -186l-142 -752q-22 -110 -22 -180q0 -16 27 -29t53 -17l28 -4q4 0 4 -15t-12 -39q-184 10 -198 10t-230 -10q-4 4 -4 29t14 25q24 0 72 13t56 31q30 68 52 192l142 740q22 110 22 184q0 22 -43 38
t-69 16q-4 0 -4 19t16 35q144 -12 216 -12l212 12v-6z" />
    <glyph glyph-name="L" unicode="L" horiz-adv-x="996" 
d="M736 1310q0 -48 -15 -48t-66 -16t-57 -30q-26 -56 -52 -186l-142 -752q-20 -116 -20 -147t17 -37t107 -6h90q174 0 242 34q32 16 75 71t81 131q6 12 35 12t37 -12q-140 -260 -164 -332l-632 12l-222 -10q-2 2 -2 33t14 31q26 0 74 12t56 28q28 58 52 186l142 740
q22 110 22 184q0 22 -43 38t-69 16q-4 0 -4 19t16 35q144 -12 216 -12l212 12v-6z" />
    <glyph glyph-name="M" unicode="M" horiz-adv-x="1628" 
d="M1535 1310q87 0 191 8q4 -10 0 -34t-10 -24q-26 0 -55 -14t-51 -44t-38 -168l-78 -764q-12 -104 -12 -141t8 -51q17 -30 108 -30q4 0 4 -21t-12 -33q-186 10 -205 10t-223 -10q-4 8 -4 15t5 23t9 16q26 0 72 10t53 25t13 30t9 26t7 30t5 28t3 34t4 33l80 780q6 60 6 75
t-12 15q-2 0 -6 -8l-522 -1064q-10 -18 -38 -42t-44 -24t-24 4l-170 1134q-2 4 -6 4t-4 -4l-234 -862q-38 -136 -38 -166q0 -14 34 -29t66 -22t36 -7t4 -17t-10 -37q-186 10 -200 10t-228 -10q-4 4 -4 29t14 25q24 0 85 16t69 32q36 68 66 178l218 782q4 22 15 68t11 84
q0 22 -57 38t-79 16q-4 0 -4 23t12 31q148 -4 225 -4t153 4q18 -164 85 -578t71 -414t4 4l356 718l126 270q54 -6 141 -6z" />
    <glyph glyph-name="N" unicode="N" horiz-adv-x="1326" 
d="M511 1308q39 0 191 8q30 -118 146 -393t238 -517q14 40 22 82l102 538q26 130 26 184q0 24 -55 38t-85 14q-4 0 -4 22t14 32q206 -10 222 -10t206 10q0 -54 -12 -54q-20 0 -85 -15t-71 -29q-26 -64 -50 -186l-150 -760q-12 -62 -28 -160t-20 -120q-8 -8 -20 -8
q-28 0 -52 46q-2 4 -492 1132l-178 -880q-20 -98 -20 -178q0 -16 32 -30t64 -20l34 -6q4 0 4 -17t-10 -37q-184 10 -198 10t-230 -10q-4 4 -4 29t14 25q24 0 85 16t69 32q22 44 54 192l154 744q18 88 18 180q0 24 -52 37t-84 13q-4 0 -4 22t14 32q156 -8 195 -8z" />
    <glyph glyph-name="O" unicode="O" horiz-adv-x="1248" 
d="M875 1334q191 0 328 -151t137 -366t-103 -409t-277 -311t-378 -117t-333 153t-129 373t110 411t282 304t363 113zM818 1250q-216 0 -366 -223t-150 -493q0 -204 89 -336t253 -132q208 0 360 227t152 497q0 200 -88 330t-250 130z" />
    <glyph glyph-name="P" unicode="P" horiz-adv-x="1010" 
d="M1130 1008q0 -172 -141 -295t-311 -123q-92 0 -140 18q-4 14 -4 27t12 25q28 -4 48 -4q136 0 251 100t115 276q0 210 -216 210q-94 0 -125 -9t-35 -31l-186 -946q-18 -90 -18 -158q0 -16 32 -29t64 -17l34 -4q4 0 4 -21t-12 -33q-186 10 -198 10t-252 -10q-4 4 -4 29
t14 25q22 0 71 14t57 30q20 40 52 192l164 824q10 50 10 104q0 24 -39 37t-67 13q-4 0 -4 22t14 32q86 -6 208 -6l262 6q116 0 228 -87t112 -221z" />
    <glyph glyph-name="Q" unicode="Q" horiz-adv-x="1248" 
d="M875 1334q191 0 328 -151t137 -362t-99 -401t-273 -317t-416 -173q60 -8 280 -102t354 -94q74 0 161 43t131 81q46 -22 46 -48q-36 -48 -159 -115t-253 -67t-251 41t-287 113t-328 114q0 8 13 27t23 23q30 2 212 44q-172 34 -273 180t-101 351t110 396t282 304t363 113z
M818 1250q-216 0 -366 -223t-150 -493q0 -204 89 -336t253 -132q208 0 360 227t152 497q0 200 -88 330t-250 130z" />
    <glyph glyph-name="R" unicode="R" horiz-adv-x="1186" 
d="M746 1242q-102 0 -129 -6t-31 -32l-96 -466v-4q0 -30 93 -30t177 35t145 118t61 197q0 188 -220 188zM1136 1051q0 -69 -27 -129q-70 -155 -295 -268q-18 -6 -10 -24q38 -132 98 -272t88 -183t38 -56t21 -22t20 -16t21 -11t20 -8t30 -4h40q14 -38 2 -56q-50 -10 -116 -10
q-132 0 -218 130t-196 472q-10 28 -81 28t-89 -5t-22 -29l-58 -310q-22 -110 -22 -180q0 -16 27 -29t53 -17l28 -4q4 0 4 -15t-12 -39q-186 10 -200 10t-228 -10q-4 4 -4 29t14 25q24 0 72 13t56 31q22 54 52 192l164 828q10 52 10 100q0 24 -40 37t-66 13q-4 0 -4 22t14 32
q86 -6 208 -6l250 6q121 0 229 -55q57 -29 93 -85t36 -125z" />
    <glyph glyph-name="S" unicode="S" horiz-adv-x="870" 
d="M130 366q28 0 48 -16q0 -91 43 -174q55 -106 227 -106q92 0 177 73t85 201q0 108 -164 221q-68 47 -137 96t-117 115t-48 140q0 180 131 298t317 118q52 0 134 -22t124 -26q-14 -110 -23 -195t-12 -95t-9 -10q-30 0 -40 7t-10 29q0 94 -61 160t-141 66q-114 0 -184 -69
t-70 -174t98 -183q38 -30 130 -94t133 -98t81 -97t40 -129t-30 -136t-86 -133t-148 -104t-201 -41t-319 48q8 128 8 162l-4 154q0 14 28 14z" />
    <glyph glyph-name="T" unicode="T" horiz-adv-x="1202" 
d="M1333 1042q-23 0 -23 10q0 108 -39 143t-133 35q-198 0 -212 -30q-28 -60 -56 -200l-140 -722q-22 -110 -22 -180q0 -16 27 -29t53 -17l28 -4q4 0 4 -15t-12 -39q-184 10 -198 10t-230 -10q-4 4 -4 29t14 25q24 0 72 13t56 31q30 68 52 192l138 710q26 138 26 173t-5 42
q-15 21 -157 21t-186 -33t-94 -145q-4 -10 -25 -10t-35 14l88 286q76 -22 126 -22l404 -12l412 12q44 0 132 22l-20 -286q-18 -14 -41 -14z" />
    <glyph glyph-name="U" unicode="U" horiz-adv-x="1262" 
d="M1261 1304q65 0 221 12q0 -54 -15 -54t-77 -16t-75 -33t-51 -193l-90 -468q-62 -318 -192 -435t-374 -117q-174 0 -271 106t-97 306q0 74 28 212l78 400q22 114 22 184q0 22 -43 38t-69 16q-4 0 -4 19t16 35q144 -12 216 -12l212 12v-6q0 -48 -15 -48t-66 -16t-57 -30
q-26 -56 -52 -186l-82 -434q-16 -88 -16 -170q0 -154 66 -241t196 -87q326 0 410 450l88 476q24 140 24 180q0 24 -58 41t-92 17q-4 0 -4 22t14 32q144 -12 209 -12z" />
    <glyph glyph-name="V" unicode="V" horiz-adv-x="1280" 
d="M474 1308q56 0 208 8v-6q0 -48 -14 -48q-70 0 -95 -17t-25 -50t8 -71l154 -838l480 822q24 42 24 96q0 26 -34 42t-74 16q-4 0 -4 22t14 32q144 -8 188 -8t196 8v-12q-4 -42 -16 -42q-38 0 -86 -26t-78 -78l-652 -1120q-38 -66 -76 -66q-10 0 -18 12l-198 1118
q-12 68 -30 110q-10 22 -45 36t-57 14q-4 0 -4 22t14 32q164 -8 220 -8z" />
    <glyph glyph-name="W" unicode="W" horiz-adv-x="1946" 
d="M458 1304q38 0 194 12v-6q0 -48 -14 -48q-48 0 -76 -22t-28 -46t14 -80l254 -890l242 366l-148 530q-16 56 -33 84t-50 43t-53 15q-4 0 -4 21t16 33q156 -12 224 -12t188 12v-6q0 -14 -5 -31t-11 -17q-48 0 -75 -22t-27 -50t12 -76l90 -322l170 276q50 82 50 119t-35 56
t-57 19q-4 0 -4 22t14 32q174 -12 190 -12l200 12q0 -54 -14 -54q-32 0 -81 -24t-76 -54t-129 -188l-200 -308l136 -476l486 856q50 88 50 122t-35 53t-57 19q-4 0 -4 22t14 32q174 -12 190 -12l200 12q0 -54 -14 -54q-32 0 -81 -24t-65 -42q-66 -76 -140 -200l-562 -958
q-38 -64 -86 -64q-12 0 -16 10l-140 506l-292 -452q-42 -64 -84 -64q-10 0 -16 10l-284 1036q-34 120 -70 192q-10 20 -43 35t-53 15q-4 0 -4 22t14 32q180 -12 218 -12z" />
    <glyph glyph-name="X" unicode="X" horiz-adv-x="1312" 
d="M542 1304q54 0 282 12v-8q0 -46 -14 -46t-40 -6t-56 -26t-30 -45t10 -51q148 -336 151 -336t87 90q254 272 254 312q0 26 -38 44t-78 18q-4 0 -4 22t14 32q204 -12 246 -12t198 12v-6q0 -48 -14 -48q-24 0 -96 -18t-96 -44q-438 -486 -438 -489t110 -263t138 -309t89 -70
t91 -21q4 0 4 -21t-6 -33q-186 10 -206 10t-284 -10q-4 4 -4 29t14 25q24 0 67 18t43 45t-4 37q-182 434 -184 434t-100 -111q-296 -335 -296 -363q0 -60 110 -60q8 0 8 -22t-10 -32q-34 2 -217 2t-221 -2q-2 2 -2 28t10 26q52 0 105 18t75 42q502 558 502 564l-156 368
q-36 86 -54 116t-46 54t-66 38t-56 14q-4 0 -4 22t14 32q144 -12 198 -12z" />
    <glyph glyph-name="Y" unicode="Y" horiz-adv-x="1186" 
d="M453 1304q55 0 283 12v-10q0 -44 -14 -44q-30 0 -78 -21t-48 -63q0 -20 8 -44l138 -424q26 34 91 118q264 341 262 375q-1 23 -42 41t-81 18q-4 0 -4 22t14 32l184 -12q10 0 238 12q2 -4 2 -29t-14 -25q-20 0 -79 -19t-83 -43t-241 -317t-221 -313l-56 -292
q-22 -110 -22 -180q0 -16 27 -29t55 -17l26 -4q4 0 4 -15t-12 -39q-186 10 -200 10t-230 -10q-2 2 -2 28t14 26q22 0 70 14t58 30q24 42 50 180l52 284q5 18 -126 404l-42 130q-30 92 -78 128q-20 14 -58 29t-54 15q-4 0 -4 22t14 32q144 -12 199 -12z" />
    <glyph glyph-name="Z" unicode="Z" horiz-adv-x="1092" 
d="M283 960q-25 0 -43 18q26 70 112 352q18 -6 160 -13t280 -7t186 2t74 4t83 7t109 9q4 -2 6 -31t0 -36q-5 -19 -686 -837l-226 -276q-16 -18 -16 -34t20 -16h420q74 0 104 15t48 23t34 26t26 28t22 31t15 28t13 28t10 23q6 16 40 16t42 -12q-70 -172 -114 -308h-922
q-8 14 -8 40t16 46l932 1130h-244l-134 -2h-24q-128 -2 -184 -54t-120 -192q-6 -8 -31 -8z" />
    <glyph glyph-name="bracketleft" unicode="[" horiz-adv-x="614" 
d="M8 -204q-26 0 -26 34v12l308 1592q0 13 15 30q15 16 31 16q90 0 196 8l104 10q10 0 10 -11t-3 -21q-10 -35 -41 -50l-4 -4q-92 -22 -192 -22q-14 0 -14 -12l-2 -4l-288 -1472q-2 -16 10 -16q84 0 156 -26l24 -8q18 -10 18 -38t-14 -42h-4q-132 24 -284 24z" />
    <glyph glyph-name="backslash" unicode="\" horiz-adv-x="424" 
d="M52 1522q78 0 82 -44l252 -1452q2 -6 2 -27t-17 -48t-41 -29l-46 4l-272 1584q24 12 40 12z" />
    <glyph glyph-name="bracketright" unicode="]" horiz-adv-x="598" 
d="M596 1480q26 0 26 -30q0 -10 -2 -16l-308 -1592q0 -15 -14 -31q-14 -15 -30 -15q-134 0 -254 -18l-40 -6q-8 6 -8 23t40 57q98 34 192 34q10 0 18 16l286 1472q2 16 -10 16q-96 0 -160 16l-24 6q-24 24 -24 55t16 31q144 -18 296 -18z" />
    <glyph glyph-name="asciicircum" unicode="^" horiz-adv-x="606" 
d="M380 1380q12 0 18 -13t25 -69t41 -102t52 -88t53 -73t23 -35q-4 -16 -14 -33t-20 -17q-28 0 -105 93t-109 151q-66 -78 -174 -161t-126 -83t-18 48q4 8 56 51t128 125t113 143t41 62t16 1z" />
    <glyph glyph-name="underscore" unicode="_" horiz-adv-x="970" 
d="M28 -86q-10 0 -10 11t19 56t29 45h828q12 0 12 -10t-36 -90l-12 -12h-830z" />
    <glyph glyph-name="grave" unicode="`" horiz-adv-x="324" 
d="M40 1318q0 26 26 41t67 15t51 -18q50 -79 102 -224l18 -48q0 -10 -9 -20t-19 -10q-22 0 -129 105t-107 159z" />
    <glyph glyph-name="a" unicode="a" horiz-adv-x="880" 
d="M620 778q-118 0 -229 -153t-111 -336t102 -183q72 0 161 146t119 296l40 204q-24 26 -82 26zM742 112q38 0 132 110q4 0 15 -19t11 -27q-26 -44 -108 -116t-144 -72q-32 0 -50 29t-18 69t9 87t12 60t3 17q-42 -75 -97 -139q-106 -121 -189 -121q-84 0 -135 79t-51 206
t85 270t219 234t268 91q76 0 146 -26l-122 -632q-6 -24 -6 -62t20 -38z" />
    <glyph glyph-name="b" unicode="b" horiz-adv-x="788" 
d="M594 760q-36 0 -101 -75t-121 -181t-75 -204t9 -164t101 -66t140 77t104 190t37 187t-2 100t-9 62t-27 55t-56 19zM658 870q88 0 133 -78t45 -184q0 -256 -156 -438t-328 -182q-76 0 -137 57t-61 163q0 30 6 66l166 844q18 82 18 106q0 38 -122 38q-6 0 -6 18t16 34
q130 12 252 56q12 -6 12 -34t-26 -154l-118 -576q64 106 134 170t108 79t64 15z" />
    <glyph glyph-name="c" unicode="c" horiz-adv-x="652" 
d="M580 870q94 0 174 -68q6 -24 6 -51t-19 -51t-51 -24t-66 56t-68 56q-86 0 -179 -139t-93 -325q0 -212 132 -212q34 0 68 17t46 27t23 18t20 17t14 15t15 16q4 0 15 -19t11 -27q-28 -48 -112 -118t-177 -70t-148 81t-55 223q0 192 146 385t298 193z" />
    <glyph glyph-name="d" unicode="d" horiz-adv-x="926" 
d="M638 778q-122 0 -233 -153t-111 -336t102 -183q74 0 162 147t118 299l24 130q8 38 -8 67t-54 29zM756 112q38 0 132 110q4 0 15 -19t11 -27q-26 -44 -108 -116t-144 -72q-32 0 -50 29t-18 68t9 84t11 56t4 16t2 11q-26 -46 -61 -96t-101 -108t-120 -58q-92 0 -142 79
t-50 191q0 216 184 413t384 197h26l56 298q6 28 6 56q0 38 -122 38q-6 0 -6 18t16 34q138 12 258 56q12 -8 12 -38l-218 -1120q-6 -24 -6 -62t20 -38z" />
    <glyph glyph-name="e" unicode="e" horiz-adv-x="718" 
d="M564 788q-94 0 -177 -135t-83 -209q0 -8 8 -8q72 0 187 96t115 196q0 60 -50 60zM584 870q92 0 133 -47t41 -103q0 -88 -90 -174t-197 -133t-173 -47q-8 0 -8 -80t35 -127t82 -47t81 17t46 27t23 18t20 17t14 15t15 16q4 0 15 -19t11 -27q-28 -48 -112 -118t-177 -70
t-148 81t-55 223q0 192 146 385t298 193z" />
    <glyph glyph-name="f" unicode="f" horiz-adv-x="608" 
d="M794 1398q140 0 176 -68q0 -130 -72 -130q-28 0 -53 30t-52 61t-59 31q-64 0 -136 -131t-112 -365v-4q0 -8 6 -8h230q10 0 10 -28t-22 -64h-234q-10 0 -12 -16l-110 -598q-48 -278 -169 -424t-263 -146q-70 0 -110 25t-52 57q-2 46 22 82t51 36t43 -19t28 -42t35 -42
t56 -19t71 47t80 158t58 209l120 678v4q0 10 -6 10h-130q-4 0 -4 12t32 46t64 34h58q8 0 12 18q40 246 172 406t272 160z" />
    <glyph glyph-name="g" unicode="g" horiz-adv-x="876" 
d="M944 818q12 0 12 -28t-22 -50h-112q-12 0 -12 -12q12 -72 12 -125t-21 -116t-68 -116t-80 -73t-94 -49q-129 -61 -129 -95q0 -18 39 -35t96 -36t113 -47t95 -78t39 -114q0 -142 -127 -226t-341 -84q-138 0 -225 52t-87 148t93 164q93 69 195 114l-36 24q-50 34 -50 70
t71 80t129 58q-102 0 -181 93q-45 53 -45 125q0 168 117 289t261 121q60 0 132 -27t140 -27h86zM554 796q-86 0 -141 -95t-55 -190t32 -147t90 -52q84 0 139 88t55 178t-32 154t-88 64zM684 -245q0 99 -98 154q-68 39 -182 75q-129 -54 -160 -83q-64 -61 -64 -121
q0 -160 262 -160q98 0 170 41t72 94z" />
    <glyph glyph-name="h" unicode="h" horiz-adv-x="922" 
d="M782 112q38 0 132 110q4 0 15 -19t11 -27q-26 -44 -108 -116t-144 -72q-32 0 -50 29t-18 68t14 113l70 330q14 66 14 108q0 86 -38 86q-66 0 -205 -181t-179 -385l-34 -156q-26 -8 -62 -8t-68 8l216 1118q18 88 18 106q0 38 -122 38q-6 0 -6 18t16 34q132 12 252 56
q12 -6 12 -30t-26 -158l-138 -706q20 36 87 124t164 179t157 91q100 0 100 -132q0 -90 -28 -218l-66 -308q-6 -24 -6 -62t20 -38z" />
    <glyph glyph-name="i" unicode="i" horiz-adv-x="548" 
d="M445 1092q-75 0 -75 91q0 41 30 75t67 34t58 -24t21 -64t-31 -76t-70 -36zM322 746q-32 0 -110 -94q-4 0 -15 19t-11 27q24 40 101 106t119 66q78 0 78 -104q0 -42 -12 -106l-88 -448q-6 -24 -6 -62t20 -38q38 0 132 110q4 0 15 -19t11 -27q-26 -44 -108 -116t-144 -72
q-32 0 -50 29t-18 68t14 113l82 418q10 62 10 96t-20 34z" />
    <glyph glyph-name="j" unicode="j" horiz-adv-x="580" 
d="M487 1092q-75 0 -75 91q0 41 30 75t67 34t58 -24t21 -64t-31 -76t-70 -36zM364 746q-32 0 -110 -94q-4 0 -15 19t-11 27q24 40 101 106t119 66q78 0 78 -104q0 -40 -12 -106l-110 -570q-42 -216 -132 -338q-56 -76 -136 -137t-142 -85q-18 14 -18 40q100 58 176 183
t108 291l114 572q10 72 10 80q0 50 -20 50z" />
    <glyph glyph-name="k" unicode="k" horiz-adv-x="970" 
d="M696 776q-64 0 -175 -134t-111 -178q0 -4 6 -4t19 2t50 9t72 17q87 25 153 75q66 51 66 132t-80 81zM774 870q54 0 99 -39t45 -97q0 -130 -115 -214t-295 -114q120 -180 183 -238t103 -58t73 30t49 58q6 0 19 -16t13 -24q-10 -34 -74 -100t-120 -66t-92 26t-57 42t-46 48
t-41 51t-41 59l-35 56q-10 16 -34 58t-30 50l-74 -382q-36 -10 -64 -10t-68 10l218 1118q18 82 18 106q0 38 -122 38q-6 0 -6 18t16 34q130 12 252 56q12 -6 12 -34t-26 -154l-104 -538l22 26q169 200 322 200z" />
    <glyph glyph-name="l" unicode="l" horiz-adv-x="496" 
d="M334 112q39 0 132 110q6 0 16 -19t10 -27q-26 -44 -108 -116t-144 -72q-30 0 -49 29t-19 69t14 112l188 970q6 30 6 56q0 38 -122 38q-6 0 -6 18t16 34q136 12 256 56q12 -6 12 -34t-26 -154l-190 -970q-6 -24 -6 -62t20 -38z" />
    <glyph glyph-name="m" unicode="m" horiz-adv-x="1432" 
d="M310 746q-32 0 -110 -94q-4 0 -15 19t-11 27q24 40 101 106t119 66q78 0 78 -104q0 -44 -12 -106l-36 -186q74 128 185 262t173 134t91 -32t35 -67t6 -80t-28 -189q66 114 185 241t187 127t92 -33t24 -111t-28 -206l-66 -308q-6 -24 -6 -62t20 -38q38 0 132 110
q4 0 15 -19t11 -27q-26 -44 -108 -116t-144 -72q-32 0 -50 29t-18 68t14 113l70 330q14 66 14 102t-2 52q-5 40 -36 40q-68 0 -201 -174t-167 -358l-36 -190l-70 -6q-16 0 -37 3t-27 3l112 568q8 42 8 76q0 78 -40 78q-70 0 -200 -190t-164 -356l-36 -176q-52 -8 -67 -8
t-67 8l120 616q10 72 10 80q0 50 -20 50z" />
    <glyph glyph-name="n" unicode="n" horiz-adv-x="984" 
d="M306 746q-32 0 -110 -94q-4 0 -15 19t-11 27q24 40 101 106t119 66q78 0 78 -104q0 -44 -12 -106l-36 -184q20 36 87 124t164 179t157 91q100 0 100 -132q0 -90 -28 -218l-66 -308q-6 -24 -6 -62t20 -38q38 0 132 110q4 0 15 -19t11 -27q-26 -44 -108 -116t-144 -72
q-32 0 -50 29t-18 68t14 113l70 330q14 66 14 108q0 86 -38 86q-66 0 -205 -181t-179 -385l-34 -156q-26 -8 -62 -8t-68 8l118 616q10 72 10 80q0 50 -20 50z" />
    <glyph glyph-name="o" unicode="o" horiz-adv-x="824" 
d="M576 870q118 0 183 -82t65 -226q0 -206 -145 -389t-297 -183q-120 0 -183 78t-63 222q0 208 144 394t296 186zM552 788q-100 0 -182 -157t-82 -294t37 -201t93 -64q100 0 177 157t77 296q0 263 -120 263z" />
    <glyph glyph-name="p" unicode="p" horiz-adv-x="880" 
d="M0 -446q0 22 8 34q54 0 78 30t34 88l158 816l-96 -96q-12 14 -12 31t6 23l118 126l52 260q30 8 66 8t64 -14q-18 -84 -22 -112q40 36 65 56t78 43t109 23q92 0 142 -79t50 -204t-88 -270t-208 -235t-214 -90q-50 0 -80 16l-56 -298q-6 -26 -6 -60t27 -41t95 -7q4 0 4 -21
t-10 -35l-70 2q-136 0 -286 -18q-6 2 -6 24zM626 754q-118 0 -192 -106l-86 -442q-8 -46 8 -84t70 -38q116 0 220 152t104 335t-124 183z" />
    <glyph glyph-name="q" unicode="q" horiz-adv-x="830" 
d="M400 -410q18 0 39 3t58 32t47 81l102 544q-70 -121 -178 -207q-66 -53 -118 -53q-88 0 -140 79t-52 206t86 270t220 234t268 91q90 0 160 -26l-122 -632l-90 -506q-4 -32 -4 -46t4 -25t26 -21t62 -10q4 0 4 -22t-10 -38l-80 2q-142 0 -290 -16l-2 24q0 36 10 36zM646 778
q-130 0 -235 -149t-105 -311q0 -212 104 -212q74 0 169 147t125 295l40 204q-24 26 -98 26z" />
    <glyph glyph-name="r" unicode="r" horiz-adv-x="744" 
d="M320 746q-32 0 -110 -94q-4 0 -15 19t-11 27q24 40 101 106t119 66q78 0 78 -104q0 -44 -12 -106l-32 -168q50 118 149 248t167 130t110 -64q0 -134 -74 -134q-16 0 -38 25t-46 25q-58 0 -173 -174t-145 -338l-38 -210q-34 -6 -69 -6t-71 6l120 616q10 72 10 80
q0 50 -20 50z" />
    <glyph glyph-name="s" unicode="s" horiz-adv-x="640" 
d="M520 876q116 0 182 -76q10 -24 10 -51t-19 -53t-48 -26t-51 29t-55 59t-81 30t-72 -28t-24 -72t39 -103t85 -105t85 -112t39 -134q0 -110 -80 -178t-200 -68t-186 76q-10 16 -10 45t19 57t48 28t51 -29t55 -59t82 -30t76 29t27 72t-39 102t-85 105t-85 112t-39 142
t80 157t196 81z" />
    <glyph glyph-name="t" unicode="t" horiz-adv-x="524" 
d="M370 112q38 0 132 110q4 0 15 -19t11 -27q-26 -44 -108 -116t-144 -72q-32 0 -50 29t-18 68t14 113l108 558h-142q-6 0 -6 24t24 60h140l48 244q6 20 98 20q24 0 36 -2l-50 -262h182q10 0 10 -25t-18 -59h-190l-106 -544q-6 -24 -6 -62t20 -38z" />
    <glyph glyph-name="u" unicode="u" horiz-adv-x="944" 
d="M286 746q-32 0 -110 -94q-4 0 -15 19t-11 27q24 40 101 106t119 66q78 0 78 -104q0 -54 -12 -106l-70 -330q-14 -58 -14 -108q0 -86 38 -86q28 0 80 47t109 122t108 183t71 214l34 156q26 8 62 8t68 -8l-124 -646q-6 -24 -6 -62t20 -38q38 0 132 110q4 0 15 -19t11 -27
q-26 -44 -108 -116t-144 -72q-32 0 -50 29t-18 68t14 113l36 184q-20 -38 -82 -124t-156 -178t-154 -92q-100 0 -100 132q0 92 28 218l60 278q10 72 10 80q0 50 -20 50z" />
    <glyph glyph-name="v" unicode="v" horiz-adv-x="832" 
d="M294 746q-32 0 -110 -94q-4 0 -15 19t-11 27q24 40 101 106t119 66q78 0 78 -104q0 -42 -12 -106l-60 -306q-16 -96 -16 -139t18 -67t64 -24q92 0 215 183t123 311q0 42 -29 90t-29 78t24 57t60 27t62 -16q28 -52 28 -116q0 -166 -97 -344t-221 -286t-202 -108t-118 49
t-40 116t8 99l68 352q12 42 12 86t-20 44z" />
    <glyph glyph-name="w" unicode="w" horiz-adv-x="1264" 
d="M294 746q-32 0 -110 -94q-4 0 -15 19t-11 27q24 40 101 106t119 66q78 0 78 -104q0 -42 -12 -106l-60 -306q-16 -96 -16 -139t18 -67t63 -24t104 52t113 132q48 394 66 462q26 100 80 100q76 0 76 -94q0 -130 -82 -354q-14 -100 -14 -162t17 -99t71 -37t129 89t126 206
t51 179t-29 110t-29 78t24 57t60 27t62 -16q28 -52 28 -116q0 -126 -54 -263t-132 -239t-166 -169t-155 -67t-106 49t-39 133q-158 -182 -276 -182q-68 0 -108 49t-40 116t8 99l68 352q12 42 12 86t-20 44z" />
    <glyph glyph-name="x" unicode="x" horiz-adv-x="952" 
d="M416 870q84 0 136 -174l42 -142l118 202q66 114 168 114q68 0 116 -40q16 -32 16 -57t-21 -46t-45 -21t-57 31t-59 31t-56 -52l-150 -256l86 -282q20 -68 52 -68t66 31t48 57q8 0 20 -16t12 -24q-6 -34 -74 -101t-130 -67q-84 0 -136 174l-46 156l-126 -218
q-66 -114 -168 -114q-68 0 -116 40q-16 28 -16 55t21 48t45 21t57 -31t59 -31t56 52l158 272l-82 268q-20 68 -52 68t-66 -31t-48 -57q-8 0 -20 16t-12 24q6 34 74 101t130 67z" />
    <glyph glyph-name="y" unicode="y" horiz-adv-x="958" 
d="M432 870q60 0 99 -102t57 -314t18 -398q78 96 156 245t78 268t-50 215q26 86 100 86q88 0 88 -158q0 -220 -172 -505t-389 -479t-351 -194q-52 0 -86 24t-34 58q0 64 46 88q44 -26 134 -26q166 0 288 178q46 68 46 268q0 405 -61 559q-25 63 -59 63q-18 0 -54 -34
t-56 -60q-4 0 -15 19t-11 27q12 30 95 101t133 71z" />
    <glyph glyph-name="z" unicode="z" horiz-adv-x="808" 
d="M696 714q-46 -38 -91 -38t-129 36t-106 36t-39 -12t-32 -31t-26 -37t-21 -36t-16 -24t-14 10t-10 34q16 52 77 135t121 83q20 0 128 -25t155 -25t85 25t64 25t26 -50q0 -18 -448 -502l-150 -160q0 -2 30 17t69 19t123 -36t106 -36t39 12t32 31t27 36t22 36t15 25t14 -10
t11 -32q-16 -52 -78 -136t-122 -84q-20 0 -128 26t-155 26t-85 -26t-64 -26t-26 52q0 24 448 502z" />
    <glyph glyph-name="braceleft" unicode="{" horiz-adv-x="550" 
d="M6 9q0 107 41 189t82 148t41 103t-7 52t-15 25q-15 18 -58 35t-64 23v12q0 38 16 62q90 25 130 51q70 44 70 141q0 38 -17 121t-17 127q0 132 102 267t266 135q6 0 6 -10t-10 -28t-23 -20t-46 -16t-77 -43t-76 -90t-32 -119t11 -130t11 -116q0 -140 -66 -225t-132 -87
q46 -2 82 -50t36 -126t-43 -154t-86 -147t-43 -143t50 -128t96 -60q14 -4 14 -31t-12 -27q-102 0 -166 76t-64 183z" />
    <glyph glyph-name="bar" unicode="|" horiz-adv-x="406" 
d="M404 1546q12 0 22 -4t8 -10l-336 -1744q-34 -34 -92 -34q-10 0 -20 5t-8 11l338 1744q32 32 88 32z" />
    <glyph glyph-name="braceright" unicode="}" horiz-adv-x="536" 
d="M550 1246q0 -76 -27 -148t-60 -117q-87 -119 -87 -201q0 -38 24 -63t48 -35t70 -24q2 -4 2 -25t-14 -49q-117 -29 -153 -65t-42 -63q-7 -28 -7 -62t17 -114t17 -122q0 -136 -110 -272t-256 -136q-6 0 -6 10t11 28t21 20q58 4 146 84t88 202q0 40 -20 110t-20 118
q0 124 70 208t138 86q-44 2 -76 48t-32 132t84 240t84 227t-50 124t-96 55q-14 4 -14 31t12 27q104 0 171 -67t67 -187z" />
    <glyph glyph-name="asciitilde" unicode="~" horiz-adv-x="946" 
d="M315 708q87 0 207 -53t196 -53t135 42q17 12 63 46q12 -12 12 -20q0 -50 -85 -110t-179 -60t-217 53t-199 53t-135 -42q-17 -12 -63 -46q-12 12 -12 20q0 56 95 113t182 57z" />
    <glyph glyph-name="uni00A0" unicode="&#xa0;" horiz-adv-x="206" 
 />
    <glyph glyph-name="exclamdown" unicode="&#xa1;" horiz-adv-x="394" 
d="M276 648q-92 0 -92 98q0 48 40 91t84 43t68 -27t24 -75t-40 -89t-84 -41zM44 -538q-38 0 -57 26t-19 62t77 335t121 473t54 188t18 10q34 -18 34 -42q-120 -912 -126 -945t-35 -70t-67 -37z" />
    <glyph glyph-name="cent" unicode="&#xa2;" horiz-adv-x="638" 
d="M657 676q-33 0 -75 64l-214 -621q18 -5 48 -5t91 45t85 95q4 0 11 -16t9 -28q0 -44 -85 -131t-171 -87q-16 0 -31 2l-29 -84q-64 0 -62 18l28 82q-30 13 -54 37q-58 55 -76 120t-18 137q0 208 148 384t297 182l27 78q64 0 62 -16l-24 -69q73 -20 108 -61q4 -16 4 -48
t-23 -55t-56 -23zM520 792q-82 0 -170 -141t-88 -327q0 -46 8 -87t42 -82l219 635q-6 2 -11 2z" />
    <glyph glyph-name="sterling" unicode="&#xa3;" horiz-adv-x="876" 
d="M397 186q73 0 170 -32t127 -32t58 19t42 35t39 52t27 40q18 0 18 -22t-4 -30q-126 -232 -264 -232q-64 0 -181 37t-170 37t-143 -76q-16 0 -23 13t-5 25q24 34 63 80t53 64q46 72 94 334q2 10 9 60h-107q-10 0 -4 29t22 51h100q2 12 13 93t17 115q36 188 154 306t268 118
q98 0 128 -74q-6 -40 -26 -79t-55 -39t-67 54t-73 54q-87 0 -131 -99q-34 -76 -55 -182q-21 -105 -42 -267h265q10 0 5 -30t-39 -50h-243q-37 -226 -159 -390q46 18 119 18z" />
    <glyph glyph-name="currency" unicode="&#xa4;" horiz-adv-x="894" 
d="M529 992q111 0 187 -82l132 110q2 2 8 2q16 0 33 -29t19 -61l-134 -112q22 -60 22 -126q0 -160 -112 -296l78 -116q0 -2 1 -2t1 -2q0 -16 -34 -43t-66 -35l-74 110q-102 -70 -217 -70t-191 80l-118 -100q-2 -2 -8 -2q-16 0 -33 29t-19 61l120 102q-24 58 -24 126
q0 174 124 310l-74 112q0 2 -1 2t-1 2q0 16 34 43t66 35l74 -110q96 62 207 62zM494 926q-100 0 -177 -119t-77 -243t46 -192t120 -68q100 0 176 118t76 242t-46 193t-118 69z" />
    <glyph glyph-name="yen" unicode="&#xa5;" horiz-adv-x="1222" 
d="M1410 1230q-24 0 -92 -17t-92 -41q-102 -130 -272 -356t-176 -252l-10 -56h170q10 0 4 -28t-20 -48h-170l-14 -80h170q10 0 4 -28t-20 -48h-170q-24 -126 -22 -184q2 -14 43 -29t57 -15q8 0 4 -22t-10 -32q-180 10 -193 10t-219 -10q-6 14 -3 34t13 20q22 0 68 14t56 30
q26 60 50 184h-172q-10 0 -5 27t23 49h168l16 80h-170q-10 0 -4 28t20 48h170q8 24 4 32q0 32 -160 524q-22 70 -56 124q-12 18 -50 30t-62 12q-6 0 -2 23t12 31q168 -12 198 -12t252 12q2 -10 -4 -32t-12 -22q-32 0 -73 -16t-47 -48q-4 -14 8 -58l122 -412q10 -12 20 4
q322 396 336 468q4 22 -27 42t-85 20q-4 2 -4 23t14 31q108 -12 157 -12t271 12q0 -54 -14 -54z" />
    <glyph glyph-name="brokenbar" unicode="&#xa6;" horiz-adv-x="406" 
d="M206 528q12 0 22 -4t8 -10l-138 -726q-34 -34 -92 -34q-10 0 -20 5t-8 11l140 726q32 32 88 32zM402 1540q12 0 22 -4t8 -10l-138 -726q-30 -34 -90 -34q-10 0 -21 5t-9 11l140 726q32 32 88 32z" />
    <glyph glyph-name="section" unicode="&#xa7;" horiz-adv-x="696" 
d="M152 695q0 -51 42 -103t95 -82t109 -81t78 -111q76 54 76 152q0 64 -42 115t-94 81t-108 81t-78 111q-52 -40 -65 -76t-13 -87zM544 1304q114 0 144 -74q-10 -120 -84 -120q-24 0 -40 29t-38 59t-71 30t-94 -53t-45 -120t35 -114t85 -81t100 -69t85 -89t35 -122
q0 -204 -166 -330l2 -28q0 -130 -80 -239t-248 -109q-118 0 -146 72q4 54 26 88t52 34t46 -31t37 -61t70 -30t94 55t45 121t-35 113t-85 81t-100 69t-85 89t-35 122q0 200 168 332l-2 28q0 138 86 243t244 105z" />
    <glyph glyph-name="dieresis" unicode="&#xa8;" horiz-adv-x="570" 
d="M113 954q-75 0 -75 93q0 41 29 74t66 33t59 -24t22 -64t-31 -76t-70 -36zM451 954q-75 0 -75 93q0 41 29 74t66 33t59 -24t22 -64t-31 -76t-70 -36z" />
    <glyph glyph-name="copyright" unicode="&#xa9;" horiz-adv-x="1094" 
d="M660 1168q-210 0 -381 -178t-171 -406q0 -166 102 -275t262 -109q210 0 382 177t172 405q0 166 -103 276t-263 110zM672 1230q182 0 297 -123t115 -311q0 -258 -193 -458t-433 -200q-182 0 -296 123t-114 311q0 258 192 458t432 200zM611 966q123 0 207 -38q6 -12 6 -116
q0 -24 -32 -24q-8 0 -12 4q0 28 -20 55q-38 51 -128 51t-160 -79t-70 -176t47 -143t99 -46t85 8t51 23t28 26t18 28t10 19q4 2 8 2l28 -8q-6 -16 -30 -68t-32 -56q-94 -38 -197 -38t-164 63t-61 161q0 134 98 243t221 109z" />
    <glyph glyph-name="ordfeminine" unicode="&#xaa;" horiz-adv-x="638" 
d="M456 1060q-90 0 -187 -136t-97 -240t60 -104q44 0 116 103t90 201l26 142l2 16q0 18 -10 18zM466 1112q94 0 114 -20l-76 -402q-6 -32 -6 -58q0 -52 30 -52q16 0 52 52l36 50q8 0 14 -30q-14 -38 -59 -95t-91 -57q-78 0 -78 102q0 22 6 58l4 34l-2 4q-2 0 -2 -1v-3
q-24 -52 -99 -124t-135 -72q-120 0 -120 153t143 307t269 154z" />
    <glyph glyph-name="guillemotleft" unicode="&#xab;" horiz-adv-x="832" 
d="M392 185q0 -28 -54 -39q-22 34 -118 130t-204 178q-8 6 -8 32t24 50q195 110 384 259q52 41 62 51q34 -10 34 -32q0 -10 -7 -21t-84 -76t-152 -136t-95 -87q107 -160 141 -201q35 -41 51 -61q26 -33 26 -47zM846 814q0 -10 -7 -21t-84 -76t-152 -136t-95 -87l126 -180
q16 -22 36 -47t30 -38t17 -26t7 -21t-7 -15t-15 -10t-18 -7t-12 -4q-22 34 -118 130t-204 178q-8 6 -8 32t24 50q200 113 373 251q49 39 71 59q36 -12 36 -32z" />
    <glyph glyph-name="logicalnot" unicode="&#xac;" horiz-adv-x="948" 
d="M80 840h828q22 0 18 -22l-94 -480q-18 -18 -57 -18t-48 4t-7 12l74 372v2q0 18 -20 18h-730q-6 24 -6 43t14 44t28 25z" />
    <glyph glyph-name="registered" unicode="&#xae;" horiz-adv-x="1094" 
d="M673 1296q-185 0 -344 -141t-198 -341t65 -342t289 -142t345 142t199 342t-66 341t-290 141zM683 1360q211 0 329 -160t75 -386t-224 -387t-392 -161t-328 161t-74 387t223 386t391 160zM776 986q0 -100 -116 -158q-2 -2 -2 -6v-2q13 -70 92 -205q25 -43 66 -43
q0 -14 -4 -22q-12 -6 -36 -6q-84 0 -121 44t-101 208q-6 18 -31 18t-29 -16l-34 -178v-22q0 -14 15 -21t23 -7t8 -5t-4 -21q-76 4 -101 4t-109 -4l-2 16l6 10l36 6q12 2 19 11q11 14 19 73l66 338q8 44 8 57t-15 20t-24 7t-9 4l6 20l86 -6l140 8q62 0 105 -32t43 -90z
M569 856q61 0 88 38t27 88q0 76 -76 76q-64 0 -68 -20l-28 -150q0 -2 -4 -8q0 -24 61 -24z" />
    <glyph glyph-name="macron" unicode="&#xaf;" horiz-adv-x="522" 
d="M482 1192q16 0 16 -27t-13 -54t-23 -33h-402q-10 0 -10 27t12 52t24 35h396z" />
    <glyph glyph-name="degree" unicode="&#xb0;" horiz-adv-x="402" 
d="M244 1268q74 0 116 -45t42 -125t-70 -152t-145 -72t-117 46t-42 127t71 151t145 70zM330 1088q0 106 -98 106q-48 0 -90 -43t-42 -94t25 -80t72 -29t90 45t43 95z" />
    <glyph glyph-name="plusminus" unicode="&#xb1;" horiz-adv-x="994" 
d="M500 778q8 0 8 8q12 58 32 181t34 195q4 18 48 27t60 9q28 0 24 -18q-46 -268 -70 -392q-4 -10 6 -10h362q8 0 8 -18q0 -48 -42 -94h-358q-8 0 -8 -8l-70 -376q-2 -16 -36 -26t-57 -10t-31 6t-6 12q50 280 72 392q0 10 -8 10h-358q-10 0 -10 28t44 84h356zM888 184
q8 0 8 -18q0 -48 -42 -94h-860q-10 0 -10 28t44 84h860z" />
    <glyph glyph-name="uni00B2" unicode="&#xb2;" horiz-adv-x="604" 
d="M606 1119q0 -79 -66 -171t-144 -154t-144 -112t-66 -60q0 -2 2 -2h254q47 0 82 55q12 19 16 19q18 0 30 -8q-25 -46 -45 -102q-21 -56 -29 -76l-224 2l-244 -2q-10 4 -10 28t8 38q32 30 93 89t92 88t78 77q169 173 169 254q0 46 -23 76t-59 30t-105 -43t-72 -43t-9 16
t-6 27t6 23q24 34 101 80t150 46t119 -48t46 -127z" />
    <glyph glyph-name="uni00B3" unicode="&#xb3;" horiz-adv-x="558" 
d="M432 1116q0 76 -88 76q-40 0 -91 -37t-55 -37q-16 0 -10 50v18q102 108 246 108q44 0 86 -35t42 -88q0 -123 -160 -203q44 0 95 -46t51 -118q0 -114 -114 -212t-276 -98q-54 0 -96 17t-48 35q2 34 24 61t48 27t58 -34t64 -34q80 0 142 63t62 153q0 50 -28 78t-72 28
q-8 0 -98 -12q-10 16 -10 35t22 25q114 24 160 83t46 97z" />
    <glyph glyph-name="acute" unicode="&#xb4;" horiz-adv-x="414" 
d="M342 1374q64 0 64 -42q0 -48 -159 -163t-183 -115q-6 0 -13 12t-7 23t85 116t117 137t96 32z" />
    <glyph glyph-name="uni00B5" unicode="&#xb5;" horiz-adv-x="856" 
d="M305 874q21 0 57 -28t32 -46q-12 -70 -108 -308l-18 -46q-28 -118 -23 -218t51 -100q150 0 324 316l108 406q4 24 26 24t58 -28t32 -46q-10 -62 -110 -308l-18 -46q-68 -312 42 -312q58 0 118 60q6 0 12 -16t2 -26q-32 -66 -91 -113t-115 -47q-60 2 -72 71t-2 193
q-168 -274 -334 -274q-28 0 -39 11l-17 17q-6 6 -11 20t-8 22q-4 12 -10 49q-5 37 -5 51q0 -2 -16 -84t-26 -154t-5 -163t35 -139q-2 -20 -31 -37t-51 -17t-38 16t-31 58t-15 102q0 150 166 674q6 28 19 106t23 125t38 195q30 40 51 40z" />
    <glyph glyph-name="paragraph" unicode="&#xb6;" horiz-adv-x="828" 
d="M438 672q0 -8 14 -8l72 12q8 0 11 10t27 140t46 249t22 126t-12 14t-26 7q-42 0 -46 -24q0 -4 -18 -87t-38 -176t-36 -174t-16 -89zM338 4q-88 0 -244 -12v4q0 14 5 32t11 18q16 0 66 15t56 29q25 53 63 264q39 212 39 220t-36 8q-126 0 -191 89t-65 205q0 160 126 294
t268 134l208 -8l210 10q2 -2 2 -30t-14 -28q-22 0 -66 -12t-53 -27t-56 -256t-47 -251t4 -10h4l82 16q2 -6 2 -16q0 -46 -46 -60l-50 -14q-14 -6 -15 -12t-17 -91q-70 -372 -70 -421q0 -20 47 -34t67 -14q4 0 4 -22t-14 -32q-192 12 -280 12zM332 94q0 -22 40 -22q14 0 27 9
t15 19q26 100 100 490q0 8 -3 8t-20 -4t-57 -8q-12 -2 -14 -14l-88 -474v-4z" />
    <glyph glyph-name="periodcentered" unicode="&#xb7;" horiz-adv-x="262" 
d="M20 511q0 47 42 90t86 43t68 -26t24 -74t-41 -91t-85 -43t-69 27t-25 74z" />
    <glyph glyph-name="cedilla" unicode="&#xb8;" horiz-adv-x="322" 
d="M216 -54q30 0 48 -22t18 -54q0 -62 -57 -118t-151 -56q-36 0 -58 18v18q0 20 11 29t20 9t28 -13t47 -13t56 23t28 54q0 57 -48 57q-14 0 -50 -14q-4 0 -9 8t-5 13t28 39t52 68h38l-40 -46h44z" />
    <glyph glyph-name="uni00B9" unicode="&#xb9;" horiz-adv-x="436" 
d="M14 532q0 24 16 24t58 10t53 23t25 91l66 346q12 84 12 88q0 24 -20 24q-12 0 -120 -36q-16 4 -16 27t14 29q58 26 181 86t136 60t13 -46q-34 -84 -48 -162l-80 -416q-8 -48 -8 -66t7 -28t40 -19t47 -9q4 0 4 -20t-8 -32l-182 6l-188 -6q-2 2 -2 26z" />
    <glyph glyph-name="ordmasculine" unicode="&#xba;" horiz-adv-x="624" 
d="M402 1108q98 0 160 -70t62 -174q0 -142 -100 -256t-242 -114q-98 0 -161 69t-63 171q0 142 100 258t244 116zM382 1058q-70 0 -115 -52q-77 -89 -77 -276q0 -188 116 -188q54 0 93 32q93 76 93 308q0 176 -110 176z" />
    <glyph glyph-name="guillemotright" unicode="&#xbb;" horiz-adv-x="850" 
d="M830 494q0 -32 -22 -40q-240 -141 -388 -266l-54 -42q-36 10 -36 30q0 12 12 25t58 52t70 61l196 180l-128 182q-88 108 -88 122t4 21q8 14 24 19l22 8q26 -40 127 -141t195 -169q8 -10 8 -42zM496 493q0 -31 -20 -39q-234 -138 -394 -266l-50 -42q-36 10 -36 30
q0 12 12 25t58 52t70 61l196 180l-128 182q-86 106 -86 123t6 25t13 11t17 6t12 5q30 -44 130 -144t194 -166q6 -12 6 -43z" />
    <glyph glyph-name="onequarter" unicode="&#xbc;" horiz-adv-x="1126" 
d="M690 316h182q10 0 12 10l52 258q0 8 -4 8h-2l-244 -260q-2 -2 -2 -9t6 -7zM1075 794q33 0 29 -14l-90 -456v-2q0 -6 8 -6h48q18 0 18 -14q0 -58 -22 -72h-64q-4 0 -8 -10l-44 -220q-20 -10 -50 -10q-85 0 -76 18l40 216v2q0 4 -6 4h-278q-14 24 -14 52l462 498
q14 14 47 14zM146 8q0 8 4 12l894 1264q62 -16 62 -38q0 -8 -2 -10l-892 -1264q-66 14 -66 36zM-2 532q0 24 16 24t58 10t53 23t25 91l66 346q12 84 12 88q0 24 -20 24q-12 0 -120 -36q-16 4 -16 27t14 29q58 26 181 86t136 60t13 -46q-34 -84 -48 -162l-80 -416
q-8 -48 -8 -64t8 -28t40 -21t46 -9q4 0 4 -20t-8 -32l-182 6l-188 -6q-2 2 -2 26z" />
    <glyph glyph-name="onehalf" unicode="&#xbd;" horiz-adv-x="1218" 
d="M0 528q0 22 14 22q20 0 58 10t44 20q22 36 32 96l60 322q10 50 10 81t-20 31q-4 0 -94 -30q-22 18 -22 26t2 12t7 6t11 6t18 9t27 12t39 18q89 41 196 107h8q12 0 12 -48q-36 -82 -50 -160l-76 -392q-8 -48 -8 -59t4 -35q2 -10 39 -20t51 -10q4 0 4 -19t-8 -31l-174 6
l-180 -6q-4 4 -4 26zM1028 112q65 0 73 36t43 36q12 0 14 -4q-4 -6 -74 -180h-468q-16 8 -16 30t12 36q268 247 336 336q69 89 82 121q14 33 14 66t-23 62t-63 29t-84 -23t-61 -42t-22 -19t-12 17t-7 29l2 16q48 52 119 90t139 38t114 -48t46 -127t-66 -171t-144 -153
t-144 -111t-66 -62q0 -2 2 -2h254zM118 8q0 8 4 12l894 1264q64 -16 64 -38q0 -6 -4 -10l-892 -1264q-66 14 -66 36z" />
    <glyph glyph-name="threequarters" unicode="&#xbe;" horiz-adv-x="1186" 
d="M746 328q0 -12 8 -12h182q10 0 12 10l50 258q0 10 -4 10q-10 -10 -129 -137t-119 -129zM948 -10q-62 0 -62 18l42 216q0 6 -6 6h-278q-14 24 -14 46v6l462 498q14 14 44 14t30 -12v-2l-88 -454v-2q0 -6 8 -6h50q16 0 16 -14q-2 -14 -5 -39t-9 -29t-10 -6l-64 -2
q-4 0 -8 -10l-42 -218q-4 -10 -66 -10zM420 1117q0 75 -84 75q-36 0 -90 -38t-58 -38q-16 0 -16 54q0 4 4 16q102 108 246 108q46 0 88 -35t42 -84t-11 -70t-18 -33t-21 -25t-21 -20q-20 -20 -69 -47l-20 -12q44 0 93 -45t49 -117q0 -120 -116 -216t-272 -96q-54 0 -96 17
t-48 35q2 34 23 61t48 27t59 -34t66 -34q80 0 140 63t60 161t-96 98q-8 0 -98 -12q-10 16 -10 35t22 25q112 24 158 83t46 98zM188 8q0 8 4 12l894 1264q62 -16 62 -38q0 -8 -2 -10l-892 -1264q-66 14 -66 36z" />
    <glyph glyph-name="questiondown" unicode="&#xbf;" horiz-adv-x="554" 
d="M456 874q90 0 90 -100q0 -48 -40 -90t-84 -42t-70 26t-26 73t43 90t87 43zM276 462q0 10 20 22q48 0 122 -61t74 -148t-84 -153l-238 -168q-104 -72 -104 -131t32 -95t83 -36t84 47t62 47t51 -26t28 -68q-12 -36 -48 -72t-98 -36q-120 0 -205 80t-85 178q0 131 72 194
q32 28 103 73t140 92t69 123q0 36 -39 82t-39 56z" />
    <glyph glyph-name="Agrave" unicode="&#xc0;" horiz-adv-x="1212" 
d="M928 1440q0 -20 -32 -20t-174 57t-142 91q0 18 31 33t69 15t50 -4q46 -30 122 -95t76 -77zM788 1052q-246 -446 -246 -451t123 -5t181 4q8 0 8 9t-26 177t-40 266zM973 4q-43 0 -193 -10q-2 2 -2 28t14 26q20 0 56 12t46 28q14 30 14 79t-18 182t-18 134q0 15 -82 15
h-120q-42 0 -186 -10q-6 0 -54 -80t-94 -174t-46 -120t35 -46t75 -20q4 0 4 -17t-10 -37q-186 10 -206 10t-180 -10q-4 4 -4 29t14 25q22 0 61 12t55 30q44 48 122 188l552 992q30 54 78 54q8 0 16 -4l166 -1056q20 -126 24 -144q6 -30 51 -51t65 -21q4 0 4 -17t-10 -37
q-186 10 -229 10z" />
    <glyph glyph-name="Aacute" unicode="&#xc1;" horiz-adv-x="1212" 
d="M848 1422q-32 0 -32 20q0 12 76 77t122 95q12 4 50 4t69 -15t31 -33q0 -34 -142 -91t-174 -57zM788 1052q-246 -446 -246 -451t123 -5t181 4q8 0 8 9t-26 177t-40 266zM973 4q-43 0 -193 -10q-2 2 -2 28t14 26q20 0 56 12t46 28q14 30 14 79t-18 182t-18 134q0 15 -82 15
h-120q-42 0 -186 -10q-6 0 -54 -80t-94 -174t-46 -120t35 -46t75 -20q4 0 4 -17t-10 -37q-186 10 -206 10t-180 -10q-4 4 -4 29t14 25q22 0 61 12t55 30q44 48 122 188l552 992q30 54 78 54q8 0 16 -4l166 -1056q20 -126 24 -144q6 -30 51 -51t65 -21q4 0 4 -17t-10 -37
q-186 10 -229 10z" />
    <glyph glyph-name="Acircumflex" unicode="&#xc2;" horiz-adv-x="1212" 
d="M1132 1456q-38 0 -198 116q-60 -36 -144 -76t-104 -40t-10 40q8 8 67 49t107 76t90 79q18 16 30 16t33 -40t46 -68t53 -55t44 -41t16 -16q-10 -40 -30 -40zM788 1052q-246 -446 -246 -451t123 -5t181 4q8 0 8 9t-26 177t-40 266zM973 4q-43 0 -193 -10q-2 2 -2 28t14 26
q20 0 56 12t46 28q14 30 14 79t-18 182t-18 134q0 15 -82 15h-120q-42 0 -186 -10q-6 0 -54 -80t-94 -174t-46 -120t35 -46t75 -20q4 0 4 -17t-10 -37q-186 10 -206 10t-180 -10q-4 4 -4 29t14 25q22 0 61 12t55 30q44 48 122 188l552 992q30 54 78 54q8 0 16 -4l166 -1056
q20 -126 24 -144q6 -30 51 -51t65 -21q4 0 4 -17t-10 -37q-186 10 -229 10z" />
    <glyph glyph-name="Atilde" unicode="&#xc3;" horiz-adv-x="1212" 
d="M590 1474q-14 0 -7 33t47 77q78 80 150 80t160 -53t139 -53t123 66q24 22 26 22q14 0 7 -33t-47 -79q-72 -78 -146 -78t-161 53t-151 53q-30 0 -84 -44t-56 -44zM788 1052q-246 -446 -246 -451t123 -5t181 4q8 0 8 9t-26 177t-40 266zM973 4q-43 0 -193 -10q-2 2 -2 28
t14 26q20 0 56 12t46 28q14 30 14 79t-18 182t-18 134q0 15 -82 15h-120q-42 0 -186 -10q-6 0 -54 -80t-94 -174t-46 -120t35 -46t75 -20q4 0 4 -17t-10 -37q-186 10 -206 10t-180 -10q-4 4 -4 29t14 25q22 0 61 12t55 30q44 48 122 188l552 992q30 54 78 54q8 0 16 -4
l166 -1056q20 -126 24 -144q6 -30 51 -51t65 -21q4 0 4 -17t-10 -37q-186 10 -229 10z" />
    <glyph glyph-name="Adieresis" unicode="&#xc4;" horiz-adv-x="1212" 
d="M745 1656q39 0 61 -29t14 -71t-41 -71t-72 -29t-60 29t-13 71t40 71t71 29zM1081 1656q39 0 61 -29t14 -71t-40 -71t-71 -29t-61 29t-14 71t40 71t71 29zM788 1052q-246 -446 -246 -451t123 -5t181 4q8 0 8 9t-26 177t-40 266zM973 4q-43 0 -193 -10q-2 2 -2 28t14 26
q20 0 56 12t46 28q14 30 14 79t-18 182t-18 134q0 15 -82 15h-120q-42 0 -186 -10q-6 0 -54 -80t-94 -174t-46 -120t35 -46t75 -20q4 0 4 -17t-10 -37q-186 10 -206 10t-180 -10q-4 4 -4 29t14 25q22 0 61 12t55 30q44 48 122 188l552 992q30 54 78 54q8 0 16 -4l166 -1056
q20 -126 24 -144q6 -30 51 -51t65 -21q4 0 4 -17t-10 -37q-186 10 -229 10z" />
    <glyph glyph-name="Aring" unicode="&#xc5;" horiz-adv-x="1212" 
d="M188 4q-20 0 -180 -10q-4 4 -4 29t14 25q22 0 61 12t55 30q44 48 122 188l552 992q20 36 48 48q-66 2 -104 54t-24 126t74 126t128 52t105 -52t21 -126t-65 -120t-94 -56q3 -1 5 -2l166 -1056q20 -126 24 -144q6 -30 51 -51t65 -21q4 0 4 -17t-10 -37q-186 10 -229 10
t-193 -10q-2 2 -2 28t14 26q20 0 56 12t46 28q14 30 14 79t-18 182t-18 134q0 15 -82 15h-120q-42 0 -186 -10q-6 0 -54 -80t-94 -174t-46 -120t35 -46t75 -20q4 0 4 -17t-10 -37q-186 10 -206 10zM872 1386q42 0 77 33t45 79t-13 78t-65 32t-80 -32t-46 -78t16 -79t66 -33z
M788 1052q-246 -446 -246 -451t123 -5t181 4q8 0 8 9t-26 177t-40 266z" />
    <glyph glyph-name="AE" unicode="&#xc6;" horiz-adv-x="1694" 
d="M913 678q73 0 113 4l12 10l42 402l-280 -406q-8 -8 16 -9t97 -1zM790 9q0 13 6 33t12 20q22 0 80 13t66 25t16 34t14 55t10 63t9 76t8 78t7 85t5 74t-11 21l-136 2q-138 0 -146 -8l-218 -318q-90 -128 -90 -155t40 -43t52 -16t12 -4q0 -20 -18 -50q-184 10 -202 10
t-178 -10q-2 2 -2 13t6 26t19 15t54 12t59 30q78 70 158 188l624 894q10 14 10 30q0 48 -60 48q-6 0 -6 21t20 41h174l600 16q-2 -40 -9 -130t-9 -138q-10 -10 -34 -10t-24 14q-4 111 -55 140q-51 28 -109 28h-118q-156 0 -164 -26q-14 -50 -30 -196l-30 -316v-2
q0 -12 62 -12h66q120 0 149 17q36 21 79 129q4 10 28 10t30 -10q-32 -124 -52 -384q-12 -8 -33 -8t-23 14q-4 93 -19 114q-3 4 -19 17t-196 13q-80 0 -82 -20l-32 -350q-10 -86 -10 -97t7 -19q16 -18 115 -18h30q156 0 219 32t145 204q6 12 35 12t37 -12
q-102 -196 -148 -332l-546 12l-252 -10q-2 2 -2 15z" />
    <glyph glyph-name="Ccedilla" unicode="&#xc7;" horiz-adv-x="1160" 
d="M608 -54q42 0 63 -34t11 -82q-16 -80 -85 -129t-136 -49t-91 20v34q4 12 15 22t22 10t33 -15t54 -15t62 23t36 58t-11 56t-41 21t-62 -16q-4 0 -12 12t-4 17q60 75 90 115q-176 26 -290 157q-142 163 -142 383q0 132 59 274t157 259t241 192t288 75t435 -90
q-36 -228 -41 -253t-34 -25t-35 6q0 131 -71 200q-31 30 -97 54t-158 24q-206 0 -384 -220t-178 -512q0 -192 104 -318t294 -126q258 0 393 206q17 26 21 26t22 -21t16 -29q-90 -172 -100 -182q-30 -34 -156 -60t-202 -26t-101 2l-41 -44h56z" />
    <glyph glyph-name="Egrave" unicode="&#xc8;" horiz-adv-x="1038" 
d="M884 1440q0 -20 -32 -20t-174 57t-142 91q0 18 31 33t69 15t50 -4q46 -30 122 -95t76 -77zM492 722q0 -16 74 -16h90q132 0 164 19t78 123q6 14 29 14t29 -10l-74 -384q-12 -8 -33 -8t-23 16q-3 90 -12 104q-8 14 -23 26t-168 12t-157 -18l-58 -296q-22 -106 -22 -155
t16 -55t106 -6h90q174 0 242 34q32 16 75 71t81 131q6 12 35 12t37 -12q-140 -260 -164 -332l-632 12l-222 -10q-2 2 -2 28t10 26q22 0 74 16t60 34q28 58 52 186l144 744q26 142 22 186q-2 16 -46 32t-66 16q-4 0 -4 20t14 34q92 -4 214 -4l586 16q-2 -28 -2 -78l4 -194
q-10 -10 -35 -10t-25 14q-6 112 -52 142t-146 30h-108q-142 0 -152 -26q-22 -60 -36 -134z" />
    <glyph glyph-name="Eacute" unicode="&#xc9;" horiz-adv-x="1038" 
d="M672 1422q-32 0 -32 20q0 12 76 77t122 95q12 4 50 4t69 -15t31 -33q0 -34 -142 -91t-174 -57zM492 722q0 -16 74 -16h90q132 0 164 19t78 123q6 14 29 14t29 -10l-74 -384q-12 -8 -33 -8t-23 16q-3 90 -12 104q-8 14 -23 26t-168 12t-157 -18l-58 -296
q-22 -106 -22 -155t16 -55t106 -6h90q174 0 242 34q32 16 75 71t81 131q6 12 35 12t37 -12q-140 -260 -164 -332l-632 12l-222 -10q-2 2 -2 28t10 26q22 0 74 16t60 34q28 58 52 186l144 744q26 142 22 186q-2 16 -46 32t-66 16q-4 0 -4 20t14 34q92 -4 214 -4l586 16
q-2 -28 -2 -78l4 -194q-10 -10 -35 -10t-25 14q-6 112 -52 142t-146 30h-108q-142 0 -152 -26q-22 -60 -36 -134z" />
    <glyph glyph-name="Ecircumflex" unicode="&#xca;" horiz-adv-x="1038" 
d="M994 1456q-38 0 -198 116q-60 -36 -144 -76t-104 -40t-10 40q8 8 67 49t107 76t90 79q18 16 30 16t33 -40t46 -68t53 -55t44 -41t16 -16q-10 -40 -30 -40zM492 722q0 -16 74 -16h90q132 0 164 19t78 123q6 14 29 14t29 -10l-74 -384q-12 -8 -33 -8t-23 16q-3 90 -12 104
q-8 14 -23 26t-168 12t-157 -18l-58 -296q-22 -106 -22 -155t16 -55t106 -6h90q174 0 242 34q32 16 75 71t81 131q6 12 35 12t37 -12q-140 -260 -164 -332l-632 12l-222 -10q-2 2 -2 28t10 26q22 0 74 16t60 34q28 58 52 186l144 744q26 142 22 186q-2 16 -46 32t-66 16
q-4 0 -4 20t14 34q92 -4 214 -4l586 16q-2 -28 -2 -78l4 -194q-10 -10 -35 -10t-25 14q-6 112 -52 142t-146 30h-108q-142 0 -152 -26q-22 -60 -36 -134z" />
    <glyph glyph-name="Edieresis" unicode="&#xcb;" horiz-adv-x="1038" 
d="M607 1656q39 0 61 -29t14 -71t-41 -71t-72 -29t-60 29t-13 71t40 71t71 29zM943 1656q39 0 61 -29t14 -71t-40 -71t-71 -29t-61 29t-14 71t40 71t71 29zM492 722q0 -16 74 -16h90q132 0 164 19t78 123q6 14 29 14t29 -10l-74 -384q-12 -8 -33 -8t-23 16q-3 90 -12 104
q-8 14 -23 26t-168 12t-157 -18l-58 -296q-22 -106 -22 -155t16 -55t106 -6h90q174 0 242 34q32 16 75 71t81 131q6 12 35 12t37 -12q-140 -260 -164 -332l-632 12l-222 -10q-2 2 -2 28t10 26q22 0 74 16t60 34q28 58 52 186l144 744q26 142 22 186q-2 16 -46 32t-66 16
q-4 0 -4 20t14 34q92 -4 214 -4l586 16q-2 -28 -2 -78l4 -194q-10 -10 -35 -10t-25 14q-6 112 -52 142t-146 30h-108q-142 0 -152 -26q-22 -60 -36 -134z" />
    <glyph glyph-name="Igrave" unicode="&#xcc;" horiz-adv-x="526" 
d="M564 1440q0 -20 -32 -20t-174 57t-142 91q0 18 31 33t69 15t50 -4q46 -30 122 -95t76 -77zM734 1310q0 -48 -15 -48t-66 -16t-57 -30q-26 -56 -52 -186l-142 -752q-22 -110 -22 -180q0 -16 27 -29t53 -17l28 -4q4 0 4 -15t-12 -39q-184 10 -198 10t-230 -10q-4 4 -4 29
t14 25q24 0 72 13t56 31q30 68 52 192l142 740q22 110 22 184q0 22 -43 38t-69 16q-4 0 -4 19t16 35q144 -12 216 -12l212 12v-6z" />
    <glyph glyph-name="Iacute" unicode="&#xcd;" horiz-adv-x="526" 
d="M460 1422q-32 0 -32 20q0 12 76 77t122 95q12 4 50 4t69 -15t31 -33q0 -34 -142 -91t-174 -57zM734 1310q0 -48 -15 -48t-66 -16t-57 -30q-26 -56 -52 -186l-142 -752q-22 -110 -22 -180q0 -16 27 -29t53 -17l28 -4q4 0 4 -15t-12 -39q-184 10 -198 10t-230 -10
q-4 4 -4 29t14 25q24 0 72 13t56 31q30 68 52 192l142 740q22 110 22 184q0 22 -43 38t-69 16q-4 0 -4 19t16 35q144 -12 216 -12l212 12v-6z" />
    <glyph glyph-name="Icircumflex" unicode="&#xce;" horiz-adv-x="526" 
d="M768 1456q-38 0 -198 116q-60 -36 -144 -76t-104 -40t-10 40q8 8 67 49t107 76t90 79q18 16 30 16t33 -40t46 -68t53 -55t44 -41t16 -16q-10 -40 -30 -40zM734 1310q0 -48 -15 -48t-66 -16t-57 -30q-26 -56 -52 -186l-142 -752q-22 -110 -22 -180q0 -16 27 -29t53 -17
l28 -4q4 0 4 -15t-12 -39q-184 10 -198 10t-230 -10q-4 4 -4 29t14 25q24 0 72 13t56 31q30 68 52 192l142 740q22 110 22 184q0 22 -43 38t-69 16q-4 0 -4 19t16 35q144 -12 216 -12l212 12v-6z" />
    <glyph glyph-name="Idieresis" unicode="&#xcf;" horiz-adv-x="526" 
d="M379 1474q-75 0 -75 93q0 41 29 74t66 33t59 -24t22 -64t-31 -76t-70 -36zM717 1474q-75 0 -75 93q0 41 29 74t66 33t59 -24t22 -64t-31 -76t-70 -36zM734 1310q0 -48 -15 -48t-66 -16t-57 -30q-26 -56 -52 -186l-142 -752q-22 -110 -22 -180q0 -16 27 -29t53 -17l28 -4
q4 0 4 -15t-12 -39q-184 10 -198 10t-230 -10q-4 4 -4 29t14 25q24 0 72 13t56 31q30 68 52 192l142 740q22 110 22 184q0 22 -43 38t-69 16q-4 0 -4 19t16 35q144 -12 216 -12l212 12v-6z" />
    <glyph glyph-name="Eth" unicode="&#xd0;" horiz-adv-x="1318" 
d="M593 1203q-13 -17 -25 -47t-14 -43t-12 -65l-66 -342h416q12 0 12 -26t-12 -54h-431l-65 -338q-6 -28 -6 -85t6 -70t72 -25t158 -12q168 0 300 109t199 277t67 350t-88 294t-286 112t-225 -35zM840 1326q267 0 398 -147q130 -147 130 -364t-125 -425q-144 -240 -377 -333
q-132 -53 -286 -53l-316 10q-138 0 -194 -8l-28 -2q-2 2 -2 28t10 26q22 0 74 17t60 33q28 58 52 186l64 332h-100q-10 0 -10 31t12 49h114l64 332q26 144 22 186q-2 16 -46 32t-66 16q-4 0 -4 20t14 34q92 -4 214 -4z" />
    <glyph glyph-name="Ntilde" unicode="&#xd1;" horiz-adv-x="1326" 
d="M654 1474q-14 0 -7 33t47 77q78 80 150 80t160 -53t139 -53t123 66q24 22 26 22q14 0 7 -33t-47 -79q-72 -78 -146 -78t-161 53t-151 53q-30 0 -84 -44t-56 -44zM511 1308q39 0 191 8q30 -118 146 -393t238 -517q14 40 22 82l102 538q26 130 26 184q0 24 -55 38t-85 14
q-4 0 -4 22t14 32q206 -10 222 -10t206 10q0 -54 -12 -54q-20 0 -85 -15t-71 -29q-26 -64 -50 -186l-150 -760q-12 -62 -28 -160t-20 -120q-8 -8 -20 -8q-28 0 -52 46q-2 4 -492 1132l-178 -880q-20 -98 -20 -178q0 -16 32 -30t64 -20l34 -6q4 0 4 -17t-10 -37
q-184 10 -198 10t-230 -10q-4 4 -4 29t14 25q24 0 85 16t69 32q22 44 54 192l154 744q18 88 18 180q0 24 -52 37t-84 13q-4 0 -4 22t14 32q156 -8 195 -8z" />
    <glyph glyph-name="Ograve" unicode="&#xd2;" horiz-adv-x="1248" 
d="M934 1440q0 -20 -32 -20t-174 57t-142 91q0 18 31 33t69 15t50 -4q46 -30 122 -95t76 -77zM875 1334q191 0 328 -151t137 -366t-103 -409t-277 -311t-378 -117t-333 153t-129 373t110 411t282 304t363 113zM818 1250q-216 0 -366 -223t-150 -493q0 -204 89 -336t253 -132
q208 0 360 227t152 497q0 200 -88 330t-250 130z" />
    <glyph glyph-name="Oacute" unicode="&#xd3;" horiz-adv-x="1248" 
d="M782 1422q-32 0 -32 20q0 12 76 77t122 95q12 4 50 4t69 -15t31 -33q0 -34 -142 -91t-174 -57zM875 1334q191 0 328 -151t137 -366t-103 -409t-277 -311t-378 -117t-333 153t-129 373t110 411t282 304t363 113zM818 1250q-216 0 -366 -223t-150 -493q0 -204 89 -336
t253 -132q208 0 360 227t152 497q0 200 -88 330t-250 130z" />
    <glyph glyph-name="Ocircumflex" unicode="&#xd4;" horiz-adv-x="1248" 
d="M1108 1456q-38 0 -198 116q-60 -36 -144 -76t-104 -40t-10 40q8 8 67 49t107 76t90 79q18 16 30 16t33 -40t46 -68t53 -55t44 -41t16 -16q-10 -40 -30 -40zM875 1334q191 0 328 -151t137 -366t-103 -409t-277 -311t-378 -117t-333 153t-129 373t110 411t282 304t363 113z
M818 1250q-216 0 -366 -223t-150 -493q0 -204 89 -336t253 -132q208 0 360 227t152 497q0 200 -88 330t-250 130z" />
    <glyph glyph-name="Otilde" unicode="&#xd5;" horiz-adv-x="1248" 
d="M590 1474q-14 0 -7 33t47 77q78 80 150 80t160 -53t139 -53t123 66q24 22 26 22q14 0 7 -33t-47 -79q-72 -78 -146 -78t-161 53t-151 53q-30 0 -84 -44t-56 -44zM875 1334q191 0 328 -151t137 -366t-103 -409t-277 -311t-378 -117t-333 153t-129 373t110 411t282 304
t363 113zM818 1250q-216 0 -366 -223t-150 -493q0 -204 89 -336t253 -132q208 0 360 227t152 497q0 200 -88 330t-250 130z" />
    <glyph glyph-name="Odieresis" unicode="&#xd6;" horiz-adv-x="1248" 
d="M757 1656q39 0 61 -29t14 -71t-41 -71t-72 -29t-60 29t-13 71t40 71t71 29zM1093 1656q39 0 61 -29t14 -71t-40 -71t-71 -29t-61 29t-14 71t40 71t71 29zM875 1334q191 0 328 -151t137 -366t-103 -409t-277 -311t-378 -117t-333 153t-129 373t110 411t282 304t363 113z
M818 1250q-216 0 -366 -223t-150 -493q0 -204 89 -336t253 -132q208 0 360 227t152 497q0 200 -88 330t-250 130z" />
    <glyph glyph-name="multiply" unicode="&#xd7;" horiz-adv-x="788" 
d="M46 120q-6 0 -19 36t-13 60l308 270q4 4 4 9t-2 7l-202 274q0 18 33 56t43 38l216 -290q4 -4 7 -4t5 2l316 282q6 6 14 6t20 -35t12 -63l-306 -272l-4 -4q0 -2 2 -4l200 -272q0 -20 -27 -58t-38 -38t-15 6l-206 280q-4 4 -7 4t-7 -4l-322 -280q-6 -6 -12 -6z" />
    <glyph glyph-name="Oslash" unicode="&#xd8;" horiz-adv-x="1292" 
d="M904 1334q168 0 285 -93l73 93q14 -4 33 -20t13 -24l-72 -92q27 -28 50 -63q136 -199 82 -479t-268 -478t-460 -198q-170 0 -287 95l-79 -101q-14 6 -32 22t-12 24l77 98q-193 208 -129 538q54 280 267 479t459 199zM1103 1132q-89 118 -254 118t-300 -166t-177 -384
q-50 -224 27 -434l8 -20zM697 66q167 0 302 166t177 386q50 225 -28 432l-10 24l-697 -887q89 -121 256 -121z" />
    <glyph glyph-name="Ugrave" unicode="&#xd9;" horiz-adv-x="1262" 
d="M900 1440q0 -20 -32 -20t-174 57t-142 91q0 18 31 33t69 15t50 -4q46 -30 122 -95t76 -77zM1261 1304q65 0 221 12q0 -54 -15 -54t-77 -16t-75 -33t-51 -193l-90 -468q-62 -318 -192 -435t-374 -117q-174 0 -271 106t-97 306q0 74 28 212l78 400q22 114 22 184
q0 22 -43 38t-69 16q-4 0 -4 19t16 35q144 -12 216 -12l212 12v-6q0 -48 -15 -48t-66 -16t-57 -30q-26 -56 -52 -186l-82 -434q-16 -88 -16 -170q0 -154 66 -241t196 -87q326 0 410 450l88 476q24 140 24 180q0 24 -58 41t-92 17q-4 0 -4 22t14 32q144 -12 209 -12z" />
    <glyph glyph-name="Uacute" unicode="&#xda;" horiz-adv-x="1262" 
d="M830 1422q-32 0 -32 20q0 12 76 77t122 95q12 4 50 4t69 -15t31 -33q0 -34 -142 -91t-174 -57zM1261 1304q65 0 221 12q0 -54 -15 -54t-77 -16t-75 -33t-51 -193l-90 -468q-62 -318 -192 -435t-374 -117q-174 0 -271 106t-97 306q0 74 28 212l78 400q22 114 22 184
q0 22 -43 38t-69 16q-4 0 -4 19t16 35q144 -12 216 -12l212 12v-6q0 -48 -15 -48t-66 -16t-57 -30q-26 -56 -52 -186l-82 -434q-16 -88 -16 -170q0 -154 66 -241t196 -87q326 0 410 450l88 476q24 140 24 180q0 24 -58 41t-92 17q-4 0 -4 22t14 32q144 -12 209 -12z" />
    <glyph glyph-name="Ucircumflex" unicode="&#xdb;" horiz-adv-x="1262" 
d="M1136 1456q-38 0 -198 116q-60 -36 -144 -76t-104 -40t-10 40q8 8 67 49t107 76t90 79q18 16 30 16t33 -40t46 -68t53 -55t44 -41t16 -16q-10 -40 -30 -40zM1261 1304q65 0 221 12q0 -54 -15 -54t-77 -16t-75 -33t-51 -193l-90 -468q-62 -318 -192 -435t-374 -117
q-174 0 -271 106t-97 306q0 74 28 212l78 400q22 114 22 184q0 22 -43 38t-69 16q-4 0 -4 19t16 35q144 -12 216 -12l212 12v-6q0 -48 -15 -48t-66 -16t-57 -30q-26 -56 -52 -186l-82 -434q-16 -88 -16 -170q0 -154 66 -241t196 -87q326 0 410 450l88 476q24 140 24 180
q0 24 -58 41t-92 17q-4 0 -4 22t14 32q144 -12 209 -12z" />
    <glyph glyph-name="Udieresis" unicode="&#xdc;" horiz-adv-x="1262" 
d="M755 1656q39 0 61 -29t14 -71t-41 -71t-72 -29t-60 29t-13 71t40 71t71 29zM1091 1656q39 0 61 -29t14 -71t-40 -71t-71 -29t-61 29t-14 71t40 71t71 29zM1261 1304q65 0 221 12q0 -54 -15 -54t-77 -16t-75 -33t-51 -193l-90 -468q-62 -318 -192 -435t-374 -117
q-174 0 -271 106t-97 306q0 74 28 212l78 400q22 114 22 184q0 22 -43 38t-69 16q-4 0 -4 19t16 35q144 -12 216 -12l212 12v-6q0 -48 -15 -48t-66 -16t-57 -30q-26 -56 -52 -186l-82 -434q-16 -88 -16 -170q0 -154 66 -241t196 -87q326 0 410 450l88 476q24 140 24 180
q0 24 -58 41t-92 17q-4 0 -4 22t14 32q144 -12 209 -12z" />
    <glyph glyph-name="Yacute" unicode="&#xdd;" horiz-adv-x="1186" 
d="M860 1422q-32 0 -32 20q0 12 76 77t122 95q12 4 50 4t69 -15t31 -33q0 -34 -142 -91t-174 -57zM453 1304q55 0 283 12v-10q0 -44 -14 -44q-30 0 -78 -21t-48 -63q0 -20 8 -44l138 -424q26 34 91 118q264 341 262 375q-1 23 -42 41t-81 18q-4 0 -4 22t14 32l184 -12
q10 0 238 12q2 -4 2 -29t-14 -25q-20 0 -79 -19t-83 -43t-241 -317t-221 -313l-56 -292q-22 -110 -22 -180q0 -16 27 -29t55 -17l26 -4q4 0 4 -15t-12 -39q-186 10 -200 10t-230 -10q-2 2 -2 28t14 26q22 0 70 14t58 30q24 42 50 180l52 284q5 18 -126 404l-42 130
q-30 92 -78 128q-20 14 -58 29t-54 15q-4 0 -4 22t14 32q144 -12 199 -12z" />
    <glyph glyph-name="Thorn" unicode="&#xde;" horiz-adv-x="1030" 
d="M778 1266q-16 0 -68 -14t-58 -28q-28 -66 -40 -126t-17 -82t1 -22t50 14t119 14t134 -20t110 -60t74 -114t3 -172q-26 -134 -154 -267t-304 -133q-106 0 -132 56q-8 14 4 46q2 8 6 6q52 -22 132 -22t164 84t106 200q58 308 -176 308q-92 0 -132 -14q-26 -8 -38 -74
l-110 -568q-22 -116 -20 -186q2 -14 48 -27t64 -13q8 0 3 -24t-11 -34q-184 10 -204 10t-234 -10q-6 10 -2 34t12 24q24 0 73 12t59 28q30 68 48 178l152 776q22 132 20 178q-2 16 -47 29t-69 13q-6 0 -2 24t14 34q210 -10 229 -10t209 10q0 -58 -16 -58z" />
    <glyph glyph-name="germandbls" unicode="&#xdf;" horiz-adv-x="990" 
d="M328 814q8 0 20 59t35 143t60 169t112 144t186 59t205 -58t94 -175t-89 -198t-161 -123t-87 -52q-45 -30 -45 -67t11 -52t17 -23t20 -21t21 -19t24 -20t26 -22t47 -40t48 -42q55 -55 72 -95q16 -40 16 -87q0 -120 -81 -207t-199 -87q-84 0 -150 28t-74 56q18 116 88 116
q35 0 59 -68t95 -68q42 0 87 50t45 122t-29 105t-41 46t-43 39t-39 33t-37 31q-33 27 -65 65q-32 37 -32 96t33 97t147 122q164 124 164 308q0 66 -47 100t-120 34t-128 -91t-77 -181l-22 -92l-164 -856q-56 -298 -138 -429t-206 -131q-72 0 -113 27t-53 59q14 116 78 116
q33 0 51 -62q7 -24 26 -43t48 -19t55 36t51 123t39 164t16 85l130 690v4q0 10 -6 10h-130q-4 0 -4 12t32 46t64 34h58z" />
    <glyph glyph-name="agrave" unicode="&#xe0;" horiz-adv-x="880" 
d="M704 992q-32 0 -180 95t-148 137q0 30 33 43t64 13t38 -7t34 -35q185 -192 185 -213q0 -9 -9 -21t-17 -12zM620 778q-118 0 -229 -153t-111 -336t102 -183q72 0 161 146t119 296l40 204q-24 26 -82 26zM742 112q38 0 132 110q4 0 15 -19t11 -27q-26 -44 -108 -116
t-144 -72q-32 0 -50 29t-18 69t9 87t12 60t3 17q-42 -75 -97 -139q-106 -121 -189 -121q-84 0 -135 79t-51 206t85 270t219 234t268 91q76 0 146 -26l-122 -632q-6 -24 -6 -62t20 -38z" />
    <glyph glyph-name="aacute" unicode="&#xe1;" horiz-adv-x="880" 
d="M536 992q-4 0 -9 8t-5 19t85 107t145 142q16 10 52 10q78 0 78 -46t-161 -143t-185 -97zM620 778q-118 0 -229 -153t-111 -336t102 -183q72 0 161 146t119 296l40 204q-24 26 -82 26zM742 112q38 0 132 110q4 0 15 -19t11 -27q-26 -44 -108 -116t-144 -72q-32 0 -50 29
t-18 69t9 87t12 60t3 17q-42 -75 -97 -139q-106 -121 -189 -121q-84 0 -135 79t-51 206t85 270t219 234t268 91q76 0 146 -26l-122 -632q-6 -24 -6 -62t20 -38z" />
    <glyph glyph-name="acircumflex" unicode="&#xe2;" horiz-adv-x="880" 
d="M826 992q-34 0 -172 116q-52 -36 -125 -76t-91 -40t-10 40l124 102q74 60 108 102q18 18 23 18t35 -48t43 -65t38 -46t39 -45t14 -18q-10 -40 -26 -40zM620 778q-118 0 -229 -153t-111 -336t102 -183q72 0 161 146t119 296l40 204q-24 26 -82 26zM742 112q38 0 132 110
q4 0 15 -19t11 -27q-26 -44 -108 -116t-144 -72q-32 0 -50 29t-18 69t9 87t12 60t3 17q-42 -75 -97 -139q-106 -121 -189 -121q-84 0 -135 79t-51 206t85 270t219 234t268 91q76 0 146 -26l-122 -632q-6 -24 -6 -62t20 -38z" />
    <glyph glyph-name="atilde" unicode="&#xe3;" horiz-adv-x="880" 
d="M520 1200q64 0 140 -53t132 -53q34 0 97 66q21 22 26 22t5 -18q0 -46 -53 -109t-118 -63t-142 53t-133 53q-28 0 -74 -44t-48 -44q-10 0 -10 12q0 50 57 114t121 64zM620 778q-118 0 -229 -153t-111 -336t102 -183q72 0 161 146t119 296l40 204q-24 26 -82 26zM742 112
q38 0 132 110q4 0 15 -19t11 -27q-26 -44 -108 -116t-144 -72q-32 0 -50 29t-18 69t9 87t12 60t3 17q-42 -75 -97 -139q-106 -121 -189 -121q-84 0 -135 79t-51 206t85 270t219 234t268 91q76 0 146 -26l-122 -632q-6 -24 -6 -62t20 -38z" />
    <glyph glyph-name="adieresis" unicode="&#xe4;" horiz-adv-x="880" 
d="M437 1014q-75 0 -75 93q0 41 29 74t66 33t59 -24t22 -64t-31 -76t-70 -36zM775 1014q-75 0 -75 93q0 41 29 74t66 33t59 -24t22 -64t-31 -76t-70 -36zM620 778q-118 0 -229 -153t-111 -336t102 -183q72 0 161 146t119 296l40 204q-24 26 -82 26zM742 112q38 0 132 110
q4 0 15 -19t11 -27q-26 -44 -108 -116t-144 -72q-32 0 -50 29t-18 69t9 87t12 60t3 17q-42 -75 -97 -139q-106 -121 -189 -121q-84 0 -135 79t-51 206t85 270t219 234t268 91q76 0 146 -26l-122 -632q-6 -24 -6 -62t20 -38z" />
    <glyph glyph-name="aring" unicode="&#xe5;" horiz-adv-x="880" 
d="M686 1350q68 0 105 -52t21 -126t-73 -127t-124 -53t-105 53t-24 127t73 126t127 52zM628 1060q42 0 79 33t45 79t-15 78t-65 32t-79 -32t-45 -78t15 -79t65 -33zM620 778q-118 0 -229 -153t-111 -336t102 -183q72 0 161 146t119 296l40 204q-24 26 -82 26zM742 112
q38 0 132 110q4 0 15 -19t11 -27q-26 -44 -108 -116t-144 -72q-32 0 -50 29t-18 69t9 87t12 60t3 17q-42 -75 -97 -139q-106 -121 -189 -121q-84 0 -135 79t-51 206t85 270t219 234t268 91q76 0 146 -26l-122 -632q-6 -24 -6 -62t20 -38z" />
    <glyph glyph-name="ae" unicode="&#xe6;" horiz-adv-x="1120" 
d="M920 788q-84 0 -168 -100t-84 -178q0 -12 14 -12q46 0 110 21t121 71t57 124t-50 74zM238 170q0 -32 24 -61t62 -29q70 0 114 67t58 143l16 92q-178 -32 -234 -106q-24 -32 -32 -53t-8 -53zM968 870q140 0 140 -158q0 -114 -161 -210t-273 -96q-22 0 -22 -38
q0 -130 44 -193t110 -63q40 0 84 34t72 68t30 34t11 -16t9 -28q-16 -48 -100 -130t-155 -82t-132 46t-87 112q-34 -66 -99 -115t-150 -49t-147 38t-62 113t47 142t121 107q131 71 266 96q16 4 22 32l34 166q2 6 2 37t-28 55t-73 24t-89 -46t-58 -118q-12 -68 -98 -68
q-52 0 -52 26q0 76 127 179t261 103t146 -110q114 108 260 108z" />
    <glyph glyph-name="ccedilla" unicode="&#xe7;" horiz-adv-x="652" 
d="M580 870q94 0 174 -68q6 -24 6 -51t-19 -51t-51 -24t-66 56t-68 56q-86 0 -179 -139t-93 -325q0 -212 132 -212q34 0 68 17t46 27t23 18t20 17t14 15t15 16q4 0 15 -19t11 -27q-28 -48 -104 -112t-144 -74l-30 -34h44q30 0 48 -22t18 -54q0 -62 -57 -118t-151 -56
q-36 0 -58 18v18q0 20 11 29t20 9t28 -13t47 -13t56 23t28 54q0 57 -48 57q-14 0 -50 -14q-4 0 -9 8t-5 13t24 34t46 59q-98 2 -152 82t-54 222q0 192 146 385t298 193z" />
    <glyph glyph-name="egrave" unicode="&#xe8;" horiz-adv-x="718" 
d="M618 992q-32 0 -180 95t-148 137q0 30 33 43t64 13t38 -7t34 -35q185 -192 185 -213q0 -9 -9 -21t-17 -12zM564 788q-94 0 -177 -135t-83 -209q0 -8 8 -8q72 0 187 96t115 196q0 60 -50 60zM584 870q92 0 133 -47t41 -103q0 -88 -90 -174t-197 -133t-173 -47q-8 0 -8 -80
t35 -127t82 -47t81 17t46 27t23 18t20 17t14 15t15 16q4 0 15 -19t11 -27q-28 -48 -112 -118t-177 -70t-148 81t-55 223q0 192 146 385t298 193z" />
    <glyph glyph-name="eacute" unicode="&#xe9;" horiz-adv-x="718" 
d="M618 992q-4 0 -9 8t-5 19t85 107t145 142q16 10 52 10q78 0 78 -46t-161 -143t-185 -97zM564 788q-94 0 -177 -135t-83 -209q0 -8 8 -8q72 0 187 96t115 196q0 60 -50 60zM584 870q92 0 133 -47t41 -103q0 -88 -90 -174t-197 -133t-173 -47q-8 0 -8 -80t35 -127t82 -47
t81 17t46 27t23 18t20 17t14 15t15 16q4 0 15 -19t11 -27q-28 -48 -112 -118t-177 -70t-148 81t-55 223q0 192 146 385t298 193z" />
    <glyph glyph-name="ecircumflex" unicode="&#xea;" horiz-adv-x="718" 
d="M812 992q-34 0 -172 116q-52 -36 -125 -76t-91 -40t-10 40l124 102q74 60 108 102q18 18 23 18t35 -48t43 -65t38 -46t39 -45t14 -18q-10 -40 -26 -40zM564 788q-94 0 -177 -135t-83 -209q0 -8 8 -8q72 0 187 96t115 196q0 60 -50 60zM584 870q92 0 133 -47t41 -103
q0 -88 -90 -174t-197 -133t-173 -47q-8 0 -8 -80t35 -127t82 -47t81 17t46 27t23 18t20 17t14 15t15 16q4 0 15 -19t11 -27q-28 -48 -112 -118t-177 -70t-148 81t-55 223q0 192 146 385t298 193z" />
    <glyph glyph-name="edieresis" unicode="&#xeb;" horiz-adv-x="718" 
d="M359 1014q-75 0 -75 93q0 41 29 74t66 33t59 -24t22 -64t-31 -76t-70 -36zM697 1014q-75 0 -75 93q0 41 29 74t66 33t59 -24t22 -64t-31 -76t-70 -36zM564 788q-94 0 -177 -135t-83 -209q0 -8 8 -8q72 0 187 96t115 196q0 60 -50 60zM584 870q92 0 133 -47t41 -103
q0 -88 -90 -174t-197 -133t-173 -47q-8 0 -8 -80t35 -127t82 -47t81 17t46 27t23 18t20 17t14 15t15 16q4 0 15 -19t11 -27q-28 -48 -112 -118t-177 -70t-148 81t-55 223q0 192 146 385t298 193z" />
    <glyph glyph-name="igrave" unicode="&#xec;" horiz-adv-x="432" 
d="M344 992q-32 0 -180 95t-148 137q0 30 33 43t64 13t38 -7t34 -35q185 -192 185 -213q0 -9 -9 -21t-17 -12zM330 726q0 -50 -46 -287t-46 -261q0 -74 44 -74q33 0 104 109q24 37 26 37t11 -16t9 -28q-18 -52 -86 -135t-134 -83q-112 0 -112 146q0 58 14 122l72 360
q6 42 6 56q0 82 -56 82q-20 0 -68 -74l-50 -72q-2 0 -12 18t-10 26q18 52 86 135t134 83q114 0 114 -144z" />
    <glyph glyph-name="iacute" unicode="&#xed;" horiz-adv-x="432" 
d="M148 992q-4 0 -9 8t-5 19t85 107t145 142q16 10 52 10q78 0 78 -46t-161 -143t-185 -97zM330 726q0 -50 -46 -287t-46 -261q0 -74 44 -74q33 0 104 109q24 37 26 37t11 -16t9 -28q-18 -52 -86 -135t-134 -83q-112 0 -112 146q0 58 14 122l72 360q6 42 6 56q0 82 -56 82
q-20 0 -68 -74l-50 -72q-2 0 -12 18t-10 26q18 52 86 135t134 83q114 0 114 -144z" />
    <glyph glyph-name="icircumflex" unicode="&#xee;" horiz-adv-x="432" 
d="M454 992q-34 0 -172 116q-52 -36 -125 -76t-91 -40t-10 40l124 102q74 60 108 102q18 18 23 18t35 -48t43 -65t38 -46t39 -45t14 -18q-10 -40 -26 -40zM330 726q0 -50 -46 -287t-46 -261q0 -74 44 -74q33 0 104 109q24 37 26 37t11 -16t9 -28q-18 -52 -86 -135t-134 -83
q-112 0 -112 146q0 58 14 122l72 360q6 42 6 56q0 82 -56 82q-20 0 -68 -74l-50 -72q-2 0 -12 18t-10 26q18 52 86 135t134 83q114 0 114 -144z" />
    <glyph glyph-name="idieresis" unicode="&#xef;" horiz-adv-x="432" 
d="M161 1014q-75 0 -75 93q0 41 29 74t66 33t59 -24t22 -64t-31 -76t-70 -36zM427 1014q-75 0 -75 93q0 41 29 74t66 33t59 -24t22 -64t-31 -76t-70 -36zM330 726q0 -50 -46 -287t-46 -261q0 -74 44 -74q33 0 104 109q24 37 26 37t11 -16t9 -28q-18 -52 -86 -135t-134 -83
q-112 0 -112 146q0 58 14 122l72 360q6 42 6 56q0 82 -56 82q-20 0 -68 -74l-50 -72q-2 0 -12 18t-10 26q18 52 86 135t134 83q114 0 114 -144z" />
    <glyph glyph-name="eth" unicode="&#xf0;" horiz-adv-x="768" 
d="M534 796q-84 0 -144 -98t-89 -248t7 -268t114 -118q174 0 246 370q30 148 4 230q-42 132 -138 132zM420 -14q-172 0 -241 134t-35 310t154 311t272 135q100 0 136 -62q5 194 -115 338l-203 -134q-30 52 -18 64l178 117q-75 71 -184 129q2 12 14 30t22 18
q129 -36 227 -125l243 159q32 -50 20 -62l-217 -143q239 -268 153 -705q-44 -224 -158 -369t-248 -145z" />
    <glyph glyph-name="ntilde" unicode="&#xf1;" horiz-adv-x="984" 
d="M556 1200q64 0 140 -53t132 -53q34 0 97 66q21 22 26 22t5 -18q0 -46 -53 -109t-118 -63t-142 53t-133 53q-28 0 -74 -44t-48 -44q-10 0 -10 12q0 50 57 114t121 64zM306 746q-32 0 -110 -94q-4 0 -15 19t-11 27q24 40 101 106t119 66q78 0 78 -104q0 -44 -12 -106
l-36 -184q20 36 87 124t164 179t157 91q100 0 100 -132q0 -90 -28 -218l-66 -308q-6 -24 -6 -62t20 -38q38 0 132 110q4 0 15 -19t11 -27q-26 -44 -108 -116t-144 -72q-32 0 -50 29t-18 68t14 113l70 330q14 66 14 108q0 86 -38 86q-66 0 -205 -181t-179 -385l-34 -156
q-26 -8 -62 -8t-68 8l118 616q10 72 10 80q0 50 -20 50z" />
    <glyph glyph-name="ograve" unicode="&#xf2;" horiz-adv-x="824" 
d="M592 992q-32 0 -180 95t-148 137q0 30 33 43t64 13t38 -7t34 -35q185 -192 185 -213q0 -9 -9 -21t-17 -12zM576 870q118 0 183 -82t65 -226q0 -206 -145 -389t-297 -183q-120 0 -183 78t-63 222q0 208 144 394t296 186zM552 788q-100 0 -182 -157t-82 -294t37 -201
t93 -64q100 0 177 157t77 296q0 263 -120 263z" />
    <glyph glyph-name="oacute" unicode="&#xf3;" horiz-adv-x="824" 
d="M476 992q-4 0 -9 8t-5 19t85 107t145 142q16 10 52 10q78 0 78 -46t-161 -143t-185 -97zM576 870q118 0 183 -82t65 -226q0 -206 -145 -389t-297 -183q-120 0 -183 78t-63 222q0 208 144 394t296 186zM552 788q-100 0 -182 -157t-82 -294t37 -201t93 -64q100 0 177 157
t77 296q0 263 -120 263z" />
    <glyph glyph-name="ocircumflex" unicode="&#xf4;" horiz-adv-x="824" 
d="M786 992q-34 0 -172 116q-52 -36 -125 -76t-91 -40t-10 40l124 102q74 60 108 102q18 18 23 18t35 -48t43 -65t38 -46t39 -45t14 -18q-10 -40 -26 -40zM576 870q118 0 183 -82t65 -226q0 -206 -145 -389t-297 -183q-120 0 -183 78t-63 222q0 208 144 394t296 186z
M552 788q-100 0 -182 -157t-82 -294t37 -201t93 -64q100 0 177 157t77 296q0 263 -120 263z" />
    <glyph glyph-name="otilde" unicode="&#xf5;" horiz-adv-x="824" 
d="M456 1200q64 0 140 -53t132 -53q34 0 97 66q21 22 26 22t5 -18q0 -46 -53 -109t-118 -63t-142 53t-133 53q-28 0 -74 -44t-48 -44q-10 0 -10 12q0 50 57 114t121 64zM576 870q118 0 183 -82t65 -226q0 -206 -145 -389t-297 -183q-120 0 -183 78t-63 222q0 208 144 394
t296 186zM552 788q-100 0 -182 -157t-82 -294t37 -201t93 -64q100 0 177 157t77 296q0 263 -120 263z" />
    <glyph glyph-name="odieresis" unicode="&#xf6;" horiz-adv-x="824" 
d="M405 1014q-75 0 -75 93q0 41 29 74t66 33t59 -24t22 -64t-31 -76t-70 -36zM743 1014q-75 0 -75 93q0 41 29 74t66 33t59 -24t22 -64t-31 -76t-70 -36zM576 870q118 0 183 -82t65 -226q0 -206 -145 -389t-297 -183q-120 0 -183 78t-63 222q0 208 144 394t296 186zM552 788
q-100 0 -182 -157t-82 -294t37 -201t93 -64q100 0 177 157t77 296q0 263 -120 263z" />
    <glyph glyph-name="divide" unicode="&#xf7;" horiz-adv-x="916" 
d="M904 556q8 0 8 -18q0 -62 -42 -108h-860q-10 0 -10 18q0 52 44 108h860zM371 8q-75 0 -75 93q0 41 29 74t66 33t58 -24t21 -64t-30 -76t-69 -36zM519 780q-75 0 -75 93q0 41 29 74t66 33t59 -24t22 -64t-31 -76t-70 -36z" />
    <glyph glyph-name="oslash" unicode="&#xf8;" horiz-adv-x="782" 
d="M138 326q0 212 131 378t287 166q108 0 177 -82l39 50q48 -24 38 -38l-45 -58q49 -86 49 -208q0 -212 -130 -378t-286 -166q-96 0 -162 65l-42 -55q-48 24 -38 40l44 57q-62 91 -62 229zM430 68q100 0 168 147t68 303q0 47 -6 87l-342 -444q3 -8 7 -16q39 -77 105 -77z
M286 344q0 -67 12 -120l346 448q-42 122 -122 122q-100 0 -168 -147t-68 -303z" />
    <glyph glyph-name="ugrave" unicode="&#xf9;" horiz-adv-x="944" 
d="M622 992q-32 0 -180 95t-148 137q0 30 33 43t64 13t38 -7t34 -35q185 -192 185 -213q0 -9 -9 -21t-17 -12zM286 746q-32 0 -110 -94q-4 0 -15 19t-11 27q24 40 101 106t119 66q78 0 78 -104q0 -54 -12 -106l-70 -330q-14 -58 -14 -108q0 -86 38 -86q28 0 80 47t109 122
t108 183t71 214l34 156q26 8 62 8t68 -8l-124 -646q-6 -24 -6 -62t20 -38q38 0 132 110q4 0 15 -19t11 -27q-26 -44 -108 -116t-144 -72q-32 0 -50 29t-18 68t14 113l36 184q-20 -38 -82 -124t-156 -178t-154 -92q-100 0 -100 132q0 92 28 218l60 278q10 72 10 80
q0 50 -20 50z" />
    <glyph glyph-name="uacute" unicode="&#xfa;" horiz-adv-x="944" 
d="M526 992q-4 0 -9 8t-5 19t85 107t145 142q16 10 52 10q78 0 78 -46t-161 -143t-185 -97zM286 746q-32 0 -110 -94q-4 0 -15 19t-11 27q24 40 101 106t119 66q78 0 78 -104q0 -54 -12 -106l-70 -330q-14 -58 -14 -108q0 -86 38 -86q28 0 80 47t109 122t108 183t71 214
l34 156q26 8 62 8t68 -8l-124 -646q-6 -24 -6 -62t20 -38q38 0 132 110q4 0 15 -19t11 -27q-26 -44 -108 -116t-144 -72q-32 0 -50 29t-18 68t14 113l36 184q-20 -38 -82 -124t-156 -178t-154 -92q-100 0 -100 132q0 92 28 218l60 278q10 72 10 80q0 50 -20 50z" />
    <glyph glyph-name="ucircumflex" unicode="&#xfb;" horiz-adv-x="944" 
d="M732 992q-34 0 -172 116q-52 -36 -125 -76t-91 -40t-10 40l124 102q74 60 108 102q18 18 23 18t35 -48t43 -65t38 -46t39 -45t14 -18q-10 -40 -26 -40zM286 746q-32 0 -110 -94q-4 0 -15 19t-11 27q24 40 101 106t119 66q78 0 78 -104q0 -54 -12 -106l-70 -330
q-14 -58 -14 -108q0 -86 38 -86q28 0 80 47t109 122t108 183t71 214l34 156q26 8 62 8t68 -8l-124 -646q-6 -24 -6 -62t20 -38q38 0 132 110q4 0 15 -19t11 -27q-26 -44 -108 -116t-144 -72q-32 0 -50 29t-18 68t14 113l36 184q-20 -38 -82 -124t-156 -178t-154 -92
q-100 0 -100 132q0 92 28 218l60 278q10 72 10 80q0 50 -20 50z" />
    <glyph glyph-name="udieresis" unicode="&#xfc;" horiz-adv-x="944" 
d="M443 1014q-75 0 -75 93q0 41 29 74t66 33t59 -24t22 -64t-31 -76t-70 -36zM781 1014q-75 0 -75 93q0 41 29 74t66 33t59 -24t22 -64t-31 -76t-70 -36zM286 746q-32 0 -110 -94q-4 0 -15 19t-11 27q24 40 101 106t119 66q78 0 78 -104q0 -54 -12 -106l-70 -330
q-14 -58 -14 -108q0 -86 38 -86q28 0 80 47t109 122t108 183t71 214l34 156q26 8 62 8t68 -8l-124 -646q-6 -24 -6 -62t20 -38q38 0 132 110q4 0 15 -19t11 -27q-26 -44 -108 -116t-144 -72q-32 0 -50 29t-18 68t14 113l36 184q-20 -38 -82 -124t-156 -178t-154 -92
q-100 0 -100 132q0 92 28 218l60 278q10 72 10 80q0 50 -20 50z" />
    <glyph glyph-name="yacute" unicode="&#xfd;" horiz-adv-x="958" 
d="M652 992q-4 0 -9 8t-5 19t85 107t145 142q16 10 52 10q78 0 78 -46t-161 -143t-185 -97zM432 870q60 0 99 -102t57 -314t18 -398q78 96 156 245t78 268t-50 215q26 86 100 86q88 0 88 -158q0 -220 -172 -505t-389 -479t-351 -194q-52 0 -86 24t-34 58q0 64 46 88
q44 -26 134 -26q166 0 288 178q46 68 46 268q0 405 -61 559q-25 63 -59 63q-18 0 -54 -34t-56 -60q-4 0 -15 19t-11 27q12 30 95 101t133 71z" />
    <glyph glyph-name="thorn" unicode="&#xfe;" horiz-adv-x="946" 
d="M512 54q74 0 138 86t93 193t29 197q0 232 -216 232q-44 0 -83 -31t-47 -79l-92 -478q-2 -6 -2 -16q0 -48 53 -76t127 -28zM316 -454q-132 12 -176 12t-176 -12l10 56q18 0 58 15t46 29q30 72 52 180l242 1252q20 110 20 154q-2 24 -55 29t-53 8t7 23t15 20q166 18 256 76
h4q6 0 12 -12t6 -20q-36 -64 -56 -174l-74 -384l-2 -4v-6q0 -2 2 -2q130 88 204 90q142 0 212 -83t70 -215q0 -212 -147 -410t-347 -198q-86 0 -142 30q-4 -8 -8 -24l-30 -150q-26 -134 -26 -170v-10q0 -14 34 -29t50 -15q2 0 2 -18t-10 -38z" />
    <glyph glyph-name="ydieresis" unicode="&#xff;" horiz-adv-x="958" 
d="M441 1014q-75 0 -75 93q0 41 29 74t66 33t59 -24t22 -64t-31 -76t-70 -36zM779 1014q-75 0 -75 93q0 41 29 74t66 33t59 -24t22 -64t-31 -76t-70 -36zM432 870q60 0 99 -102t57 -314t18 -398q78 96 156 245t78 268t-50 215q26 86 100 86q88 0 88 -158q0 -220 -172 -505
t-389 -479t-351 -194q-52 0 -86 24t-34 58q0 64 46 88q44 -26 134 -26q166 0 288 178q46 68 46 268q0 405 -61 559q-25 63 -59 63q-18 0 -54 -34t-56 -60q-4 0 -15 19t-11 27q12 30 95 101t133 71z" />
    <glyph glyph-name="Amacron" unicode="&#x100;" horiz-adv-x="1212" 
d="M708 1552h464q21 0 -18 -82q-2 -6 -7 -9t-7 -5h-464l-10 4q-4 13 11 52q15 40 31 40zM788 1052q-246 -446 -246 -451t123 -5t181 4q8 0 8 9t-26 177t-40 266zM973 4q-43 0 -193 -10q-2 2 -2 28t14 26q20 0 56 12t46 28q14 30 14 79t-18 182t-18 134q0 15 -82 15h-120
q-42 0 -186 -10q-6 0 -54 -80t-94 -174t-46 -120t35 -46t75 -20q4 0 4 -17t-10 -37q-186 10 -206 10t-180 -10q-4 4 -4 29t14 25q22 0 61 12t55 30q44 48 122 188l552 992q30 54 78 54q8 0 16 -4l166 -1056q20 -126 24 -144q6 -30 51 -51t65 -21q4 0 4 -17t-10 -37
q-186 10 -229 10z" />
    <glyph glyph-name="amacron" unicode="&#x101;" horiz-adv-x="880" 
d="M536 1084h386q18 0 -16 -78l-16 -14h-384l-8 4q-2 6 0 14q0 8 13 41t25 33zM620 778q-118 0 -229 -153t-111 -336t102 -183q72 0 161 146t119 296l40 204q-24 26 -82 26zM742 112q38 0 132 110q4 0 15 -19t11 -27q-26 -44 -108 -116t-144 -72q-32 0 -50 29t-18 69t9 87
t12 60t3 17q-42 -75 -97 -139q-106 -121 -189 -121q-84 0 -135 79t-51 206t85 270t219 234t268 91q76 0 146 -26l-122 -632q-6 -24 -6 -62t20 -38z" />
    <glyph glyph-name="Abreve" unicode="&#x102;" horiz-adv-x="1212" 
d="M930 1548q58 0 110 40t80 104q0 6 9 6t19 -9t7 -20t-3 -13q-30 -82 -98 -141t-142 -59t-120 58t-42 144v8q5 15 17 23q13 9 21 9t8 -6q2 -64 39 -104t95 -40zM788 1052q-246 -446 -246 -451t123 -5t181 4q8 0 8 9t-26 177t-40 266zM973 4q-43 0 -193 -10q-2 2 -2 28
t14 26q20 0 56 12t46 28q14 30 14 79t-18 182t-18 134q0 15 -82 15h-120q-42 0 -186 -10q-6 0 -54 -80t-94 -174t-46 -120t35 -46t75 -20q4 0 4 -17t-10 -37q-186 10 -206 10t-180 -10q-4 4 -4 29t14 25q22 0 61 12t55 30q44 48 122 188l552 992q30 54 78 54q8 0 16 -4
l166 -1056q20 -126 24 -144q6 -30 51 -51t65 -21q4 0 4 -17t-10 -37q-186 10 -229 10z" />
    <glyph glyph-name="abreve" unicode="&#x103;" horiz-adv-x="880" 
d="M722 1084q58 0 110 40t80 104q0 6 9 6t19 -9t7 -20t-3 -13q-30 -82 -98 -141t-142 -59t-120 58t-42 144v8q5 15 17 23q13 9 21 9t8 -6q2 -64 39 -104t95 -40zM620 778q-118 0 -229 -153t-111 -336t102 -183q72 0 161 146t119 296l40 204q-24 26 -82 26zM742 112
q38 0 132 110q4 0 15 -19t11 -27q-26 -44 -108 -116t-144 -72q-32 0 -50 29t-18 69t9 87t12 60t3 17q-42 -75 -97 -139q-106 -121 -189 -121q-84 0 -135 79t-51 206t85 270t219 234t268 91q76 0 146 -26l-122 -632q-6 -24 -6 -62t20 -38z" />
    <glyph glyph-name="Aogonek" unicode="&#x104;" horiz-adv-x="1284" 
d="M179 4q-21 0 -181 -10q-4 4 -4 29t14 25q22 0 61 12t55 30q44 48 122 188l552 992q30 54 78 54q8 0 16 -4l166 -1056q20 -126 24 -144q6 -30 51 -51t65 -21q4 0 4 -17t-10 -37l-154 8q-100 0 -222 -101t-122 -172t62 -71q72 0 141 57q23 19 29 18t-2 -27t-14 -32
q-120 -134 -222 -134q-44 0 -73 31t-29 73q0 76 66 170t140 156t95 89t21 56t-46 363q0 4 -8 12t-137 8t-237 -6q-9 -6 -56 -85q-144 -238 -144 -297q0 -22 35 -42t75 -20q4 0 4 -17t-10 -37q-184 10 -205 10zM778 1052q-246 -446 -246 -451t123 -5t181 4q8 0 8 9t-26 177
t-40 266z" />
    <glyph glyph-name="aogonek" unicode="&#x105;" horiz-adv-x="888" 
d="M694 870q120 0 148 -28l-120 -630q-2 -10 -2 -34q0 -74 44 -74q33 0 104 109q24 37 26 37t11 -16t9 -28q-28 -72 -124 -178q-6 -6 -83 -79q-153 -145 -153 -227q0 -64 67 -64t136 57q23 19 29 18t-2 -27t-14 -32q-120 -134 -222 -134q-44 0 -73 29t-29 85t67 156t153 186
q-40 6 -62 44t-22 81t6 95l8 52l-2 4l-4 -4q-40 -84 -131 -183t-180 -99t-127 53t-38 161t63 233t152 219t190 156t175 62zM680 794q-132 0 -273 -195t-141 -357q0 -38 2 -60t23 -50t63 -28q64 0 166 149t130 287l40 206l2 24q0 24 -12 24z" />
    <glyph glyph-name="Cacute" unicode="&#x106;" horiz-adv-x="1160" 
d="M900 1422q-32 0 -32 20q0 12 76 77t122 95q12 4 50 4t69 -15t31 -33q0 -34 -142 -91t-174 -57zM865 1334q145 0 435 -90q-36 -228 -41 -253t-34 -25t-35 6q0 131 -71 200q-31 30 -97 54t-158 24q-206 0 -384 -220t-178 -512q0 -192 104 -318t294 -126q258 0 393 206
q17 26 21 26t22 -21t16 -29q-90 -172 -100 -182q-30 -34 -156 -60t-254 -26q-238 0 -380 163t-142 383q0 132 59 274t157 259t241 192t288 75z" />
    <glyph glyph-name="cacute" unicode="&#x107;" horiz-adv-x="652" 
d="M620 992q-4 0 -9 8t-5 19t85 107t145 142q16 10 52 10q78 0 78 -46t-161 -143t-185 -97zM580 870q94 0 174 -68q6 -24 6 -51t-19 -51t-51 -24t-66 56t-68 56q-86 0 -179 -139t-93 -325q0 -212 132 -212q34 0 68 17t46 27t23 18t20 17t14 15t15 16q4 0 15 -19t11 -27
q-28 -48 -112 -118t-177 -70t-148 81t-55 223q0 192 146 385t298 193z" />
    <glyph glyph-name="Ccircumflex" unicode="&#x108;" horiz-adv-x="1160" 
d="M1148 1456q-38 0 -198 116q-60 -36 -144 -76t-104 -40t-10 40q8 8 67 49t107 76t90 79q18 16 30 16t33 -40t46 -68t53 -55t44 -41t16 -16q-10 -40 -30 -40zM865 1334q145 0 435 -90q-36 -228 -41 -253t-34 -25t-35 6q0 131 -71 200q-31 30 -97 54t-158 24
q-206 0 -384 -220t-178 -512q0 -192 104 -318t294 -126q258 0 393 206q17 26 21 26t22 -21t16 -29q-90 -172 -100 -182q-30 -34 -156 -60t-254 -26q-238 0 -380 163t-142 383q0 132 59 274t157 259t241 192t288 75z" />
    <glyph glyph-name="ccircumflex" unicode="&#x109;" horiz-adv-x="652" 
d="M814 992q-34 0 -172 116q-52 -36 -125 -76t-91 -40t-10 40l124 102q74 60 108 102q18 18 23 18t35 -48t43 -65t38 -46t39 -45t14 -18q-10 -40 -26 -40zM580 870q94 0 174 -68q6 -24 6 -51t-19 -51t-51 -24t-66 56t-68 56q-86 0 -179 -139t-93 -325q0 -212 132 -212
q34 0 68 17t46 27t23 18t20 17t14 15t15 16q4 0 15 -19t11 -27q-28 -48 -112 -118t-177 -70t-148 81t-55 223q0 192 146 385t298 193z" />
    <glyph glyph-name="Cdotaccent" unicode="&#x10a;" horiz-adv-x="1160" 
d="M937 1656q39 0 60 -29t13 -71t-40 -71t-71 -29t-61 29t-14 71t41 71t72 29zM865 1334q145 0 435 -90q-36 -228 -41 -253t-34 -25t-35 6q0 131 -71 200q-31 30 -97 54t-158 24q-206 0 -384 -220t-178 -512q0 -192 104 -318t294 -126q258 0 393 206q17 26 21 26t22 -21
t16 -29q-90 -172 -100 -182q-30 -34 -156 -60t-254 -26q-238 0 -380 163t-142 383q0 132 59 274t157 259t241 192t288 75z" />
    <glyph glyph-name="cdotaccent" unicode="&#x10b;" horiz-adv-x="652" 
d="M613 1292q39 0 60 -29t13 -71t-40 -71t-71 -29t-61 29t-14 71t41 71t72 29zM580 870q94 0 174 -68q6 -24 6 -51t-19 -51t-51 -24t-66 56t-68 56q-86 0 -179 -139t-93 -325q0 -212 132 -212q34 0 68 17t46 27t23 18t20 17t14 15t15 16q4 0 15 -19t11 -27
q-28 -48 -112 -118t-177 -70t-148 81t-55 223q0 192 146 385t298 193z" />
    <glyph glyph-name="Ccaron" unicode="&#x10c;" horiz-adv-x="1160" 
d="M1144 1716q18 0 8 -40q-2 -2 -21 -16t-88 -71t-102 -95t-42 -38t-22 27t-45 68t-64 79t-38 46q10 40 26 40t74 -40t96 -76q182 116 218 116zM865 1334q145 0 435 -90q-36 -228 -41 -253t-34 -25t-35 6q0 131 -71 200q-31 30 -97 54t-158 24q-206 0 -384 -220t-178 -512
q0 -192 104 -318t294 -126q258 0 393 206q17 26 21 26t22 -21t16 -29q-90 -172 -100 -182q-30 -34 -156 -60t-254 -26q-238 0 -380 163t-142 383q0 132 59 274t157 259t241 192t288 75z" />
    <glyph glyph-name="ccaron" unicode="&#x10d;" horiz-adv-x="652" 
d="M772 1288q16 0 6 -46q-2 -2 -20 -18t-48 -46l-58 -58q-20 -24 -60 -76t-48 -52t-21 36t-36 78t-50 85t-31 51q10 46 25 46t63 -45t80 -87q166 132 198 132zM580 870q94 0 174 -68q6 -24 6 -51t-19 -51t-51 -24t-66 56t-68 56q-86 0 -179 -139t-93 -325q0 -212 132 -212
q34 0 68 17t46 27t23 18t20 17t14 15t15 16q4 0 15 -19t11 -27q-28 -48 -112 -118t-177 -70t-148 81t-55 223q0 192 146 385t298 193z" />
    <glyph glyph-name="Dcaron" unicode="&#x10e;" horiz-adv-x="1336" 
d="M1160 1716q18 0 8 -40q-2 -2 -21 -16t-88 -71t-102 -95t-42 -38t-22 27t-45 68t-64 79t-38 46q10 40 26 40t74 -40t96 -76q182 116 218 116zM827 1228q-197 0 -226 -36t-51 -154l-146 -760q-6 -28 -6 -85t4 -67q18 -40 232 -40q168 0 300 109t199 277t67 350t-88 294
t-285 112zM1242 1172q134 -144 134 -364t-125 -428q-144 -240 -377 -333q-132 -53 -286 -53l-316 10l-222 -10q-2 2 -2 28t10 26q22 0 74 16t60 34q28 58 52 186l144 744q26 142 22 186q-2 16 -46 32t-66 16q-4 0 -4 20t14 34q92 -4 214 -4l326 4q260 0 394 -144z" />
    <glyph glyph-name="dcaron" unicode="&#x10f;" horiz-adv-x="926" 
d="M1110 1268q0 56 43 88t105 32q10 -18 10 -51t-9 -84t-86 -145t-113 -94q-8 0 -14 8t-6 16l22 18q24 18 47 53t23 61t-11 52t-11 46zM638 778q-122 0 -233 -153t-111 -336t102 -183q74 0 162 147t118 299l24 130q8 38 -8 67t-54 29zM756 112q38 0 132 110q4 0 15 -19
t11 -27q-26 -44 -108 -116t-144 -72q-32 0 -50 29t-18 68t9 84t11 56t4 16t2 11q-26 -46 -61 -96t-101 -108t-120 -58q-92 0 -142 79t-50 191q0 216 184 413t384 197h26l56 298q6 28 6 56q0 38 -122 38q-6 0 -6 18t16 34q138 12 258 56q12 -8 12 -38l-218 -1120
q-6 -24 -6 -62t20 -38z" />
    <glyph glyph-name="Dcroat" unicode="&#x110;" horiz-adv-x="1318" 
d="M593 1203q-13 -17 -25 -47t-14 -43t-12 -65l-66 -342h416q12 0 12 -26t-12 -54h-431l-65 -338q-6 -28 -6 -85t6 -70t72 -25t158 -12q168 0 300 109t199 277t67 350t-88 294t-286 112t-225 -35zM840 1326q267 0 398 -147q130 -147 130 -364t-125 -425q-144 -240 -377 -333
q-132 -53 -286 -53l-316 10q-138 0 -194 -8l-28 -2q-2 2 -2 28t10 26q22 0 74 17t60 33q28 58 52 186l64 332h-100q-10 0 -10 31t12 49h114l64 332q26 144 22 186q-2 16 -46 32t-66 16q-4 0 -4 20t14 34q92 -4 214 -4z" />
    <glyph glyph-name="dcroat" unicode="&#x111;" horiz-adv-x="848" 
d="M624 798q-108 0 -230 -189t-122 -371q0 -56 27 -95t88 -39t165 153t130 295l38 202v2q0 16 -30 29t-66 13zM718 1312q93 0 264 76q10 0 10 -32q-40 -64 -60 -174l-8 -44h76q10 0 6 -25t-22 -55h-75l-153 -810q-8 -32 -8 -60q0 -84 52 -84q24 0 71 73t50 73t11 -16t10 -26
q-24 -66 -90 -143t-130 -77q-112 0 -112 144q0 50 8 90t8 44t-4 4l-18 -30q-163 -254 -294 -254q-190 0 -190 208q0 138 90 300t213 269t215 107q50 0 86 -18h4l4 -2q4 0 4 8l40 200h-252q-10 0 -4 29t22 51h250q14 64 14 78q0 48 -96 48q-12 0 -12 6q0 12 8 27t12 15z" />
    <glyph glyph-name="Emacron" unicode="&#x112;" horiz-adv-x="1038" 
d="M568 1552h464q21 0 -18 -82q-2 -6 -7 -9t-7 -5h-464l-10 4q-4 13 11 52q15 40 31 40zM492 722q0 -16 74 -16h90q132 0 164 19t78 123q6 14 29 14t29 -10l-74 -384q-12 -8 -33 -8t-23 16q-3 90 -12 104q-8 14 -23 26t-168 12t-157 -18l-58 -296q-22 -106 -22 -155t16 -55
t106 -6h90q174 0 242 34q32 16 75 71t81 131q6 12 35 12t37 -12q-140 -260 -164 -332l-632 12l-222 -10q-2 2 -2 28t10 26q22 0 74 16t60 34q28 58 52 186l144 744q26 142 22 186q-2 16 -46 32t-66 16q-4 0 -4 20t14 34q92 -4 214 -4l586 16q-2 -28 -2 -78l4 -194
q-10 -10 -35 -10t-25 14q-6 112 -52 142t-146 30h-108q-142 0 -152 -26q-22 -60 -36 -134z" />
    <glyph glyph-name="emacron" unicode="&#x113;" horiz-adv-x="718" 
d="M390 1084h386q18 0 -16 -78l-16 -14h-384l-8 4q-2 6 0 14q0 8 13 41t25 33zM564 788q-94 0 -177 -135t-83 -209q0 -8 8 -8q72 0 187 96t115 196q0 60 -50 60zM584 870q92 0 133 -47t41 -103q0 -88 -90 -174t-197 -133t-173 -47q-8 0 -8 -80t35 -127t82 -47t81 17t46 27
t23 18t20 17t14 15t15 16q4 0 15 -19t11 -27q-28 -48 -112 -118t-177 -70t-148 81t-55 223q0 192 146 385t298 193z" />
    <glyph glyph-name="Ebreve" unicode="&#x114;" horiz-adv-x="1038" 
d="M774 1552q60 0 110 31t74 85q0 4 10 4t20 -8t7 -17t-3 -11q-26 -72 -95 -126t-142 -54t-120 53t-45 129v12q2 6 16 14t22 8t8 -4q2 -54 40 -85t98 -31zM492 722q0 -16 74 -16h90q132 0 164 19t78 123q6 14 29 14t29 -10l-74 -384q-12 -8 -33 -8t-23 16q-3 90 -12 104
q-8 14 -23 26t-168 12t-157 -18l-58 -296q-22 -106 -22 -155t16 -55t106 -6h90q174 0 242 34q32 16 75 71t81 131q6 12 35 12t37 -12q-140 -260 -164 -332l-632 12l-222 -10q-2 2 -2 28t10 26q22 0 74 16t60 34q28 58 52 186l144 744q26 142 22 186q-2 16 -46 32t-66 16
q-4 0 -4 20t14 34q92 -4 214 -4l586 16q-2 -28 -2 -78l4 -194q-10 -10 -35 -10t-25 14q-6 112 -52 142t-146 30h-108q-142 0 -152 -26q-22 -60 -36 -134z" />
    <glyph glyph-name="ebreve" unicode="&#x115;" horiz-adv-x="718" 
d="M576 1084q58 0 110 40t80 104q0 6 9 6t19 -9t7 -20t-3 -13q-30 -82 -98 -141t-142 -59t-120 58t-42 144v8q5 15 17 23q13 9 21 9t8 -6q2 -64 39 -104t95 -40zM564 788q-94 0 -177 -135t-83 -209q0 -8 8 -8q72 0 187 96t115 196q0 60 -50 60zM584 870q92 0 133 -47
t41 -103q0 -88 -90 -174t-197 -133t-173 -47q-8 0 -8 -80t35 -127t82 -47t81 17t46 27t23 18t20 17t14 15t15 16q4 0 15 -19t11 -27q-28 -48 -112 -118t-177 -70t-148 81t-55 223q0 192 146 385t298 193z" />
    <glyph glyph-name="Edotaccent" unicode="&#x116;" horiz-adv-x="1038" 
d="M831 1656q39 0 60 -29t13 -71t-40 -71t-71 -29t-61 29t-14 71t41 71t72 29zM492 722q0 -16 74 -16h90q132 0 164 19t78 123q6 14 29 14t29 -10l-74 -384q-12 -8 -33 -8t-23 16q-3 90 -12 104q-8 14 -23 26t-168 12t-157 -18l-58 -296q-22 -106 -22 -155t16 -55t106 -6h90
q174 0 242 34q32 16 75 71t81 131q6 12 35 12t37 -12q-140 -260 -164 -332l-632 12l-222 -10q-2 2 -2 28t10 26q22 0 74 16t60 34q28 58 52 186l144 744q26 142 22 186q-2 16 -46 32t-66 16q-4 0 -4 20t14 34q92 -4 214 -4l586 16q-2 -28 -2 -78l4 -194q-10 -10 -35 -10
t-25 14q-6 112 -52 142t-146 30h-108q-142 0 -152 -26q-22 -60 -36 -134z" />
    <glyph glyph-name="edotaccent" unicode="&#x117;" horiz-adv-x="718" 
d="M635 1292q39 0 60 -29t13 -71t-40 -71t-71 -29t-61 29t-14 71t41 71t72 29zM564 788q-94 0 -177 -135t-83 -209q0 -8 8 -8q72 0 187 96t115 196q0 60 -50 60zM584 870q92 0 133 -47t41 -103q0 -88 -90 -174t-197 -133t-173 -47q-8 0 -8 -80t35 -127t82 -47t81 17t46 27
t23 18t20 17t14 15t15 16q4 0 15 -19t11 -27q-28 -48 -112 -118t-177 -70t-148 81t-55 223q0 192 146 385t298 193z" />
    <glyph glyph-name="Eogonek" unicode="&#x118;" horiz-adv-x="1072" 
d="M440 722q0 -16 74 -16h90q132 0 164 19t78 123q6 14 29 14t29 -10l-74 -384q-12 -8 -33 -8t-23 16q-3 90 -12 104q-8 14 -23 26t-168 12t-157 -18l-58 -296q-22 -106 -22 -155t16 -55t106 -6h90q174 0 242 34q32 16 75 71t81 131q6 12 35 12t37 -12q-140 -260 -164 -332
q-132 0 -238 -93t-106 -177q0 -64 67 -64t136 57q23 19 29 18t-2 -27t-14 -32q-120 -134 -222 -134q-44 0 -73 29t-29 71q0 80 79 197t163 157q-380 10 -422 10l-222 -10q-2 2 -2 28t10 26q22 0 74 16t60 34q28 58 52 186l144 744q26 142 22 186q-2 16 -46 32t-66 16
q-4 0 -4 20t14 34q92 -4 214 -4l586 16q-2 -28 -2 -78l4 -194q-10 -10 -35 -10t-25 14q-6 112 -52 142t-146 30h-108q-142 0 -152 -26q-22 -60 -36 -134z" />
    <glyph glyph-name="eogonek" unicode="&#x119;" horiz-adv-x="698" 
d="M512 870q140 0 140 -158q0 -78 -86 -162t-191 -134t-169 -50q-8 0 -8 -18q0 -236 152 -236q40 0 84 34t72 68t30 34t11 -16t8 -28t-33 -59t-131 -142t-169 -168t-70 -113q0 -64 67 -64t136 57q23 19 29 18t-2 -27t-14 -32q-120 -134 -222 -134q-44 0 -72 29t-28 71
q-2 64 90 180t156 172q-96 0 -168 88t-72 219t65 263t174 220t221 88zM472 792q-88 0 -174 -136t-86 -208q0 -12 14 -12q70 0 179 87t109 178t-42 91z" />
    <glyph glyph-name="Ecaron" unicode="&#x11a;" horiz-adv-x="1038" 
d="M1044 1716q18 0 8 -40q-2 -2 -21 -16t-88 -71t-102 -95t-42 -38t-22 27t-45 68t-64 79t-38 46q10 40 26 40t74 -40t96 -76q182 116 218 116zM492 722q0 -16 74 -16h90q132 0 164 19t78 123q6 14 29 14t29 -10l-74 -384q-12 -8 -33 -8t-23 16q-3 90 -12 104q-8 14 -23 26
t-168 12t-157 -18l-58 -296q-22 -106 -22 -155t16 -55t106 -6h90q174 0 242 34q32 16 75 71t81 131q6 12 35 12t37 -12q-140 -260 -164 -332l-632 12l-222 -10q-2 2 -2 28t10 26q22 0 74 16t60 34q28 58 52 186l144 744q26 142 22 186q-2 16 -46 32t-66 16q-4 0 -4 20t14 34
q92 -4 214 -4l586 16q-2 -28 -2 -78l4 -194q-10 -10 -35 -10t-25 14q-6 112 -52 142t-146 30h-108q-142 0 -152 -26q-22 -60 -36 -134z" />
    <glyph glyph-name="ecaron" unicode="&#x11b;" horiz-adv-x="718" 
d="M794 1288q16 0 6 -46q-2 -2 -20 -18t-48 -46l-58 -58q-20 -24 -60 -76t-48 -52t-21 36t-36 78t-50 85t-31 51q10 46 25 46t63 -45t80 -87q166 132 198 132zM564 788q-94 0 -177 -135t-83 -209q0 -8 8 -8q72 0 187 96t115 196q0 60 -50 60zM584 870q92 0 133 -47t41 -103
q0 -88 -90 -174t-197 -133t-173 -47q-8 0 -8 -80t35 -127t82 -47t81 17t46 27t23 18t20 17t14 15t15 16q4 0 15 -19t11 -27q-28 -48 -112 -118t-177 -70t-148 81t-55 223q0 192 146 385t298 193z" />
    <glyph glyph-name="Gcircumflex" unicode="&#x11c;" horiz-adv-x="1232" 
d="M1152 1456q-38 0 -198 116q-60 -36 -144 -76t-104 -40t-10 40q8 8 67 49t107 76t90 79q18 16 30 16t33 -40t46 -68t53 -55t44 -41t16 -16q-10 -40 -30 -40zM598 -12q-212 0 -345 149t-133 357t102 399t280 316t376 125q136 0 426 -90q-30 -198 -42 -260q-2 -18 -33 -18
t-35 10q0 127 -71 196q-31 30 -97 54t-158 24q-146 0 -277 -109t-206 -272t-75 -339t100 -316t270 -140t256 44q16 8 22 34l56 284q8 32 8 60q0 18 -56 35t-82 17q-4 0 -4 19t16 35q216 -10 231 -10t205 10q0 -54 -12 -54q-34 0 -88 -19t-60 -57l-48 -278l-2 -14l4 -54
q0 -25 -38 -41q-12 -5 -47 -18t-45 -17t-45 -15t-55 -15t-58 -12q-95 -20 -240 -20z" />
    <glyph glyph-name="gcircumflex" unicode="&#x11d;" horiz-adv-x="876" 
d="M804 994q-34 0 -172 116q-52 -36 -125 -76t-91 -40t-10 40l124 102q74 60 108 102q18 18 23 18t35 -48t43 -65t38 -46t39 -45t14 -18q-10 -40 -26 -40zM944 818q12 0 12 -28t-22 -50h-112q-12 0 -12 -12q12 -72 12 -125t-21 -116t-68 -116t-80 -73t-94 -49
q-129 -61 -129 -95q0 -18 39 -35t96 -36t113 -47t95 -78t39 -114q0 -142 -127 -226t-341 -84q-138 0 -225 52t-87 148t93 164q93 69 195 114l-36 24q-50 34 -50 70t71 80t129 58q-102 0 -181 93q-45 53 -45 125q0 168 117 289t261 121q60 0 132 -27t140 -27h86zM554 796
q-86 0 -141 -95t-55 -190t32 -147t90 -52q84 0 139 88t55 178t-32 154t-88 64zM684 -245q0 99 -98 154q-68 39 -182 75q-129 -54 -160 -83q-64 -61 -64 -121q0 -160 262 -160q98 0 170 41t72 94z" />
    <glyph glyph-name="Gbreve" unicode="&#x11e;" horiz-adv-x="1232" 
d="M920 1552q60 0 110 31t74 85q0 4 10 4t20 -8t7 -17t-3 -11q-26 -72 -95 -126t-142 -54t-120 53t-45 129v12q2 6 16 14t22 8t8 -4q2 -54 40 -85t98 -31zM598 -12q-212 0 -345 149t-133 357t102 399t280 316t376 125q136 0 426 -90q-30 -198 -42 -260q-2 -18 -33 -18
t-35 10q0 127 -71 196q-31 30 -97 54t-158 24q-146 0 -277 -109t-206 -272t-75 -339t100 -316t270 -140t256 44q16 8 22 34l56 284q8 32 8 60q0 18 -56 35t-82 17q-4 0 -4 19t16 35q216 -10 231 -10t205 10q0 -54 -12 -54q-34 0 -88 -19t-60 -57l-48 -278l-2 -14l4 -54
q0 -25 -38 -41q-12 -5 -47 -18t-45 -17t-45 -15t-55 -15t-58 -12q-95 -20 -240 -20z" />
    <glyph glyph-name="gbreve" unicode="&#x11f;" horiz-adv-x="876" 
d="M628 1086q58 0 110 40t80 104q0 6 9 6t19 -9t7 -20t-3 -13q-30 -82 -98 -141t-142 -59t-120 58t-42 144v8q5 15 17 23q13 9 21 9t8 -6q2 -64 39 -104t95 -40zM944 818q12 0 12 -28t-22 -50h-112q-12 0 -12 -12q12 -72 12 -125t-21 -116t-68 -116t-80 -73t-94 -49
q-129 -61 -129 -95q0 -18 39 -35t96 -36t113 -47t95 -78t39 -114q0 -142 -127 -226t-341 -84q-138 0 -225 52t-87 148t93 164q93 69 195 114l-36 24q-50 34 -50 70t71 80t129 58q-102 0 -181 93q-45 53 -45 125q0 168 117 289t261 121q60 0 132 -27t140 -27h86zM554 796
q-86 0 -141 -95t-55 -190t32 -147t90 -52q84 0 139 88t55 178t-32 154t-88 64zM684 -245q0 99 -98 154q-68 39 -182 75q-129 -54 -160 -83q-64 -61 -64 -121q0 -160 262 -160q98 0 170 41t72 94z" />
    <glyph glyph-name="Gdotaccent" unicode="&#x120;" horiz-adv-x="1232" 
d="M941 1656q39 0 60 -29t13 -71t-40 -71t-71 -29t-61 29t-14 71t41 71t72 29zM598 -12q-212 0 -345 149t-133 357t102 399t280 316t376 125q136 0 426 -90q-30 -198 -42 -260q-2 -18 -33 -18t-35 10q0 127 -71 196q-31 30 -97 54t-158 24q-146 0 -277 -109t-206 -272
t-75 -339t100 -316t270 -140t256 44q16 8 22 34l56 284q8 32 8 60q0 18 -56 35t-82 17q-4 0 -4 19t16 35q216 -10 231 -10t205 10q0 -54 -12 -54q-34 0 -88 -19t-60 -57l-48 -278l-2 -14l4 -54q0 -25 -38 -41q-12 -5 -47 -18t-45 -17t-45 -15t-55 -15t-58 -12
q-95 -20 -240 -20z" />
    <glyph glyph-name="gdotaccent" unicode="&#x121;" horiz-adv-x="876" 
d="M633 1292q39 0 60 -29t13 -71t-40 -71t-71 -29t-61 29t-14 71t41 71t72 29zM944 818q12 0 12 -28t-22 -50h-112q-12 0 -12 -12q12 -72 12 -125t-21 -116t-68 -116t-80 -73t-94 -49q-129 -61 -129 -95q0 -18 39 -35t96 -36t113 -47t95 -78t39 -114q0 -142 -127 -226
t-341 -84q-138 0 -225 52t-87 148t93 164q93 69 195 114l-36 24q-50 34 -50 70t71 80t129 58q-102 0 -181 93q-45 53 -45 125q0 168 117 289t261 121q60 0 132 -27t140 -27h86zM554 796q-86 0 -141 -95t-55 -190t32 -147t90 -52q84 0 139 88t55 178t-32 154t-88 64z
M684 -245q0 99 -98 154q-68 39 -182 75q-129 -54 -160 -83q-64 -61 -64 -121q0 -160 262 -160q98 0 170 41t72 94z" />
    <glyph glyph-name="Gcommaaccent" unicode="&#x122;" horiz-adv-x="1232" 
d="M484 -216q0 46 55 78t117 32q26 -20 26 -88t-64 -152t-124 -116q-4 -4 -28 -4t-24 14q0 4 22 17t47 41t32 62t-26 63t-33 53zM598 -12q-212 0 -345 149t-133 357t102 399t280 316t376 125q136 0 426 -90q-30 -198 -42 -260q-2 -18 -33 -18t-35 10q0 127 -71 196
q-31 30 -97 54t-158 24q-146 0 -277 -109t-206 -272t-75 -339t100 -316t270 -140t256 44q16 8 22 34l56 284q8 32 8 60q0 18 -56 35t-82 17q-4 0 -4 19t16 35q216 -10 231 -10t205 10q0 -54 -12 -54q-34 0 -88 -19t-60 -57l-48 -278l-2 -14l4 -54q0 -25 -38 -41
q-12 -5 -47 -18t-45 -17t-45 -15t-55 -15t-58 -12q-95 -20 -240 -20z" />
    <glyph glyph-name="gcommaaccent" unicode="&#x123;" horiz-adv-x="876" 
d="M714 1090q0 -46 -55 -78t-117 -32q-26 20 -26 88t64 152t124 116q4 4 28 4t24 -14q0 -4 -22 -17t-47 -41t-32 -62t26 -63t33 -53zM944 818q12 0 12 -28t-22 -50h-112q-12 0 -12 -12q12 -72 12 -125t-21 -116t-68 -116t-80 -73t-94 -49q-129 -61 -129 -95q0 -18 39 -35
t96 -36t113 -47t95 -78t39 -114q0 -142 -127 -226t-341 -84q-138 0 -225 52t-87 148t93 164q93 69 195 114l-36 24q-50 34 -50 70t71 80t129 58q-102 0 -181 93q-45 53 -45 125q0 168 117 289t261 121q60 0 132 -27t140 -27h86zM554 796q-86 0 -141 -95t-55 -190t32 -147
t90 -52q84 0 139 88t55 178t-32 154t-88 64zM684 -245q0 99 -98 154q-68 39 -182 75q-129 -54 -160 -83q-64 -61 -64 -121q0 -160 262 -160q98 0 170 41t72 94z" />
    <glyph glyph-name="Hcircumflex" unicode="&#x124;" horiz-adv-x="1254" 
d="M1220 1456q-38 0 -198 116q-60 -36 -144 -76t-104 -40t-10 40q8 8 67 49t107 76t90 79q18 16 30 16t33 -40t46 -68t53 -55t44 -41t16 -16q-10 -40 -30 -40zM734 1310q0 -48 -15 -48t-66 -16t-57 -30q-32 -74 -52 -186l-50 -282v-2q0 -10 53 -13t280 -3t229 16l54 278
q22 110 22 184q0 22 -43 38t-69 16q-4 0 -4 19t16 35q144 -12 216 -12l214 12v-6q0 -48 -15 -48t-65 -16t-56 -30q-30 -66 -52 -186l-146 -752q-22 -110 -22 -180q0 -16 27 -29t55 -17l26 -4q4 0 4 -15t-12 -39q-186 10 -200 10t-228 -10q-4 4 -4 29t14 25q24 0 72 13t56 31
q30 68 52 192l64 330v2q0 10 -47 13t-281 3t-238 -24l-64 -330q-22 -110 -22 -180q0 -16 27 -29t53 -17l28 -4q4 0 4 -15t-12 -39q-184 10 -198 10t-230 -10q-4 4 -4 29t14 25q24 0 72 13t56 31q30 68 52 192l142 740q22 110 22 184q0 22 -43 38t-69 16q-4 0 -4 19t16 35
q144 -12 216 -12l212 12v-6z" />
    <glyph glyph-name="hcircumflex" unicode="&#x125;" horiz-adv-x="922" 
d="M622 1456q-38 0 -198 116q-60 -36 -144 -76t-104 -40t-10 40q8 8 67 49t107 76t90 79q18 16 30 16t33 -40t46 -68t53 -55t44 -41t16 -16q-10 -40 -30 -40zM782 112q38 0 132 110q4 0 15 -19t11 -27q-26 -44 -108 -116t-144 -72q-32 0 -50 29t-18 68t14 113l70 330
q14 66 14 108q0 86 -38 86q-66 0 -205 -181t-179 -385l-34 -156q-26 -8 -62 -8t-68 8l216 1118q18 88 18 106q0 38 -122 38q-6 0 -6 18t16 34q132 12 252 56q12 -6 12 -30t-26 -158l-138 -706q20 36 87 124t164 179t157 91q100 0 100 -132q0 -90 -28 -218l-66 -308
q-6 -24 -6 -62t20 -38z" />
    <glyph glyph-name="Hbar" unicode="&#x126;" horiz-adv-x="1368" 
d="M867 942q-203 0 -287 -2l-46 -236q0 -6 4 -6q180 -4 285 -4t273 4q4 4 4 8l46 234q-76 2 -279 2zM1504 1266q-16 0 -68 -14t-58 -28q-26 -58 -56 -208h76q12 0 7 -27t-23 -49h-74l-128 -662q-24 -124 -22 -186q2 -14 48 -27t64 -13q6 0 1 -26t-9 -32q-186 10 -204 10
t-234 -10q-6 8 -1 33t13 25q24 0 73 12t59 28q30 68 48 178l62 316l-2 8q-176 4 -369 4t-195 -10l-60 -310q-22 -116 -20 -186q2 -14 48 -27t64 -13q6 -2 2 -24t-10 -34q-184 10 -204 10t-234 -10q-6 10 -2 34t12 24q24 0 73 12t59 28q30 68 48 178l130 670h-62q-10 0 -4 28
t20 48h62q28 142 26 208q-2 16 -47 29t-69 13q-6 0 -2 24t14 34q132 -12 207 -12t231 12q2 -10 -3 -34t-11 -24q-18 0 -70 -14t-58 -28q-28 -64 -56 -208q22 -2 256 -2t308 2q30 156 28 208q-2 16 -47 29t-69 13q-4 2 -4 25t16 33q132 -12 222 -12l214 12q0 -58 -16 -58z
" />
    <glyph glyph-name="hbar" unicode="&#x127;" horiz-adv-x="848" 
d="M522 1388q16 0 16 -32q-35 -74 -61 -218h235q10 0 6 -25t-22 -55h-235q-115 -571 -115 -576l2 -2l2 2q44 82 172 235t212 153q100 0 100 -132q0 -82 -32 -236l-60 -290q-4 -20 -4 -34q0 -74 46 -74q33 0 104 109q24 37 26 37t11 -16t9 -28q-18 -52 -86 -135t-134 -83
q-112 0 -112 146q0 52 44 252t44 250q0 86 -38 86q-62 0 -195 -188t-173 -378l-34 -156q-26 -8 -62 -8t-68 8l206 1058h-90q-10 0 -4 29t22 51h87q7 48 7 88q-2 32 -82 32h-14q-15 0 -6 27q10 27 16 27q161 18 258 76h2z" />
    <glyph glyph-name="Itilde" unicode="&#x128;" horiz-adv-x="526" 
d="M248 1474q-14 0 -7 33t47 77q78 80 150 80t160 -53t139 -53t123 66q24 22 26 22q14 0 7 -33t-47 -79q-72 -78 -146 -78t-161 53t-151 53q-30 0 -84 -44t-56 -44zM734 1310q0 -48 -15 -48t-66 -16t-57 -30q-26 -56 -52 -186l-142 -752q-22 -110 -22 -180q0 -16 27 -29
t53 -17l28 -4q4 0 4 -15t-12 -39q-184 10 -198 10t-230 -10q-4 4 -4 29t14 25q24 0 72 13t56 31q30 68 52 192l142 740q22 110 22 184q0 22 -43 38t-69 16q-4 0 -4 19t16 35q144 -12 216 -12l212 12v-6z" />
    <glyph glyph-name="itilde" unicode="&#x129;" horiz-adv-x="432" 
d="M148 1200q64 0 140 -53t132 -53q34 0 97 66q21 22 26 22t5 -18q0 -46 -53 -109t-118 -63t-142 53t-133 53q-28 0 -74 -44t-48 -44q-10 0 -10 12q0 50 57 114t121 64zM330 726q0 -50 -46 -287t-46 -261q0 -74 44 -74q33 0 104 109q24 37 26 37t11 -16t9 -28
q-18 -52 -86 -135t-134 -83q-112 0 -112 146q0 58 14 122l72 360q6 42 6 56q0 82 -56 82q-20 0 -68 -74l-50 -72q-2 0 -12 18t-10 26q18 52 86 135t134 83q114 0 114 -144z" />
    <glyph glyph-name="Imacron" unicode="&#x12a;" horiz-adv-x="526" 
d="M342 1552h464q21 0 -18 -82q-2 -6 -7 -9t-7 -5h-464l-10 4q-4 13 11 52q15 40 31 40zM734 1310q0 -48 -15 -48t-66 -16t-57 -30q-26 -56 -52 -186l-142 -752q-22 -110 -22 -180q0 -16 27 -29t53 -17l28 -4q4 0 4 -15t-12 -39q-184 10 -198 10t-230 -10q-4 4 -4 29t14 25
q24 0 72 13t56 31q30 68 52 192l142 740q22 110 22 184q0 22 -43 38t-69 16q-4 0 -4 19t16 35q144 -12 216 -12l212 12v-6z" />
    <glyph glyph-name="imacron" unicode="&#x12b;" horiz-adv-x="432" 
d="M92 1084h386q18 0 -16 -78l-16 -14h-384l-8 4q-2 6 0 14q0 8 13 41t25 33zM330 726q0 -50 -46 -287t-46 -261q0 -74 44 -74q33 0 104 109q24 37 26 37t11 -16t9 -28q-18 -52 -86 -135t-134 -83q-112 0 -112 146q0 58 14 122l72 360q6 42 6 56q0 82 -56 82q-20 0 -68 -74
l-50 -72q-2 0 -12 18t-10 26q18 52 86 135t134 83q114 0 114 -144z" />
    <glyph glyph-name="Ibreve" unicode="&#x12c;" horiz-adv-x="526" 
d="M566 1552q60 0 110 31t74 85q0 4 10 4t20 -8t7 -17t-3 -11q-26 -72 -95 -126t-142 -54t-120 53t-45 129v12q2 6 16 14t22 8t8 -4q2 -54 40 -85t98 -31zM734 1310q0 -48 -15 -48t-66 -16t-57 -30q-26 -56 -52 -186l-142 -752q-22 -110 -22 -180q0 -16 27 -29t53 -17l28 -4
q4 0 4 -15t-12 -39q-184 10 -198 10t-230 -10q-4 4 -4 29t14 25q24 0 72 13t56 31q30 68 52 192l142 740q22 110 22 184q0 22 -43 38t-69 16q-4 0 -4 19t16 35q144 -12 216 -12l212 12v-6z" />
    <glyph glyph-name="ibreve" unicode="&#x12d;" horiz-adv-x="432" 
d="M302 1084q58 0 110 40t80 104q0 6 9 6t19 -9t7 -20t-3 -13q-30 -82 -98 -141t-142 -59t-120 58t-42 144v8q5 15 17 23q13 9 21 9t8 -6q2 -64 39 -104t95 -40zM330 726q0 -50 -46 -287t-46 -261q0 -74 44 -74q33 0 104 109q24 37 26 37t11 -16t9 -28q-18 -52 -86 -135
t-134 -83q-112 0 -112 146q0 58 14 122l72 360q6 42 6 56q0 82 -56 82q-20 0 -68 -74l-50 -72q-2 0 -12 18t-10 26q18 52 86 135t134 83q114 0 114 -144z" />
    <glyph glyph-name="Iogonek" unicode="&#x12e;" horiz-adv-x="682" 
d="M680 1310q0 -48 -15 -48t-66 -16t-57 -30q-26 -56 -52 -186l-142 -752q-22 -110 -22 -180q0 -16 27 -29t55 -17l26 -4q4 0 4 -15t-12 -39q-42 0 -94 -14q-104 -30 -178 -111t-74 -146t67 -65t136 57q23 19 29 18t-2 -27t-14 -32q-120 -134 -222 -134q-44 0 -72 29t-28 71
q0 92 79 207t165 157q-6 0 -220 -10q-4 4 -4 29t14 25q24 0 72 13t56 31q30 68 52 192l142 740q22 110 22 184q0 22 -43 38t-69 16q-4 0 -4 19t16 35q144 -12 216 -12l212 12v-6z" />
    <glyph glyph-name="iogonek" unicode="&#x12f;" horiz-adv-x="546" 
d="M353 1092q-75 0 -75 91q0 41 30 75t67 34t58 -24t21 -64t-31 -76t-70 -36zM168 -278q0 -64 67 -64t136 57q23 19 29 18t-2 -27t-14 -32q-120 -134 -222 -134q-44 0 -73 29t-29 85t62 166t120 174q-92 12 -92 140q0 58 14 122l72 360q6 42 6 56q0 82 -56 82q-20 0 -70 -74
l-48 -72q-2 0 -12 18t-10 26q18 52 86 135t134 83q114 0 114 -144q0 -47 -46 -283t-46 -265q0 -74 44 -74q33 0 104 109q24 37 26 37t11 -16t9 -28q-30 -76 -116 -166q-198 -206 -198 -318z" />
    <glyph glyph-name="Idotaccent" unicode="&#x130;" horiz-adv-x="526" 
d="M587 1656q39 0 60 -29t13 -71t-40 -71t-71 -29t-61 29t-14 71t41 71t72 29zM734 1310q0 -48 -15 -48t-66 -16t-57 -30q-26 -56 -52 -186l-142 -752q-22 -110 -22 -180q0 -16 27 -29t53 -17l28 -4q4 0 4 -15t-12 -39q-184 10 -198 10t-230 -10q-4 4 -4 29t14 25
q24 0 72 13t56 31q30 68 52 192l142 740q22 110 22 184q0 22 -43 38t-69 16q-4 0 -4 19t16 35q144 -12 216 -12l212 12v-6z" />
    <glyph glyph-name="dotlessi" unicode="&#x131;" horiz-adv-x="432" 
d="M330 726q0 -50 -46 -287t-46 -261q0 -74 44 -74q33 0 104 109q24 37 26 37t11 -16t9 -28q-18 -52 -86 -135t-134 -83q-112 0 -112 146q0 58 14 122l72 360q6 42 6 56q0 82 -56 82q-20 0 -68 -74l-50 -72q-2 0 -12 18t-10 26q18 52 86 135t134 83q114 0 114 -144z" />
    <glyph glyph-name="IJ" unicode="&#x132;" horiz-adv-x="1042" 
d="M1290 1310q0 -48 -15 -48t-59 -16t-50 -30q-32 -74 -52 -186l-150 -798q-77 -418 -309 -604q-118 -94 -229 -94q-12 14 -12 36l2 12q164 52 248 196t140 440l150 806q22 128 22 184q0 22 -50 38t-76 16q-4 0 -4 19t16 35q144 -12 216 -12l212 12v-6zM782 1310
q0 -48 -15 -48t-66 -16t-57 -30q-26 -56 -52 -186l-142 -752q-22 -110 -22 -180q0 -16 27 -29t53 -17l28 -4q4 0 4 -15t-12 -39q-184 10 -198 10t-230 -10q-4 4 -4 29t14 25q24 0 72 13t56 31q30 68 52 192l142 740q22 110 22 184q0 22 -43 38t-69 16q-4 0 -4 19t16 35
q144 -12 216 -12l212 12v-6z" />
    <glyph glyph-name="ij" unicode="&#x133;" horiz-adv-x="906" 
d="M481 1092q-75 0 -75 91q0 41 30 75t67 34t58 -24t21 -64t-31 -76t-70 -36zM358 746q-32 0 -110 -94q-4 0 -15 19t-11 27q24 40 101 106t119 66q78 0 78 -104q0 -42 -12 -106l-88 -448q-6 -24 -6 -62t20 -38q38 0 132 110q4 0 15 -19t11 -27q-26 -44 -108 -116t-144 -72
q-32 0 -50 29t-18 68t14 113l82 418q10 62 10 96t-20 34zM935 1092q-75 0 -75 91q0 41 30 75t67 34t58 -24t21 -64t-31 -76t-70 -36zM812 746q-32 0 -110 -94q-4 0 -15 19t-11 27q24 40 101 106t119 66q78 0 78 -104q0 -40 -12 -106l-110 -570q-42 -216 -132 -338
q-56 -76 -136 -137t-142 -85q-18 14 -18 40q100 58 176 183t108 291l114 572q10 72 10 80q0 50 -20 50z" />
    <glyph glyph-name="Jcircumflex" unicode="&#x134;" horiz-adv-x="508" 
d="M764 1456q-38 0 -198 116q-60 -36 -144 -76t-104 -40t-10 40q8 8 67 49t107 76t90 79q18 16 30 16t33 -40t46 -68t53 -55t44 -41t16 -16q-10 -40 -30 -40zM716 1310q0 -48 -15 -48t-59 -16t-50 -30q-32 -74 -52 -186l-150 -798q-77 -418 -309 -604q-117 -94 -229 -94
q-12 14 -12 36l2 12q164 52 248 196t140 440l150 806q22 128 22 184q0 22 -50 38t-76 16q-4 0 -4 19t16 35q144 -12 216 -12l212 12v-6z" />
    <glyph glyph-name="jcircumflex" unicode="&#x135;" horiz-adv-x="630" 
d="M674 992q-34 0 -172 116q-52 -36 -125 -76t-91 -40t-10 40l124 102q74 60 108 102q18 18 23 18t35 -48t43 -65t38 -46t39 -45t14 -18q-10 -40 -26 -40zM412 870q114 0 114 -144q0 -66 -114 -636q-42 -216 -132 -338q-56 -76 -136 -137t-142 -85q-18 18 -18 40q0 2 18 14
q112 84 172 189t94 271l114 572q6 42 6 56q0 82 -56 82q-20 0 -68 -74l-50 -72q-2 0 -12 18t-10 26q18 52 86 135t134 83z" />
    <glyph glyph-name="Kcommaaccent" unicode="&#x136;" horiz-adv-x="1284" 
d="M506 -216q0 46 55 78t117 32q26 -20 26 -88t-64 -152t-124 -116q-4 -4 -28 -4t-24 14q0 4 22 17t47 41t32 62t-26 63t-33 53zM672 669q0 -15 12 -31l408 -494q34 -42 108 -65t102 -23q4 0 4 -17t-10 -37q-102 -6 -158 -6t-124 25t-100 67q-398 506 -440 564
q92 56 255 210t322 332q25 28 25 44t-35 24t-61 8q-6 0 -6 15t10 31q144 -12 196 -12l214 12q0 -46 -12 -46q-140 -16 -212 -88l-488 -488q-10 -10 -10 -25zM734 1310q0 -48 -15 -48t-66 -16t-57 -30q-26 -56 -52 -186l-142 -752q-22 -110 -22 -180q0 -16 27 -29t53 -17
l28 -4q4 0 4 -15t-12 -39q-184 10 -198 10t-230 -10q-4 4 -4 29t14 25q24 0 72 13t56 31q30 68 52 192l142 740q22 110 22 184q0 22 -43 38t-69 16q-4 0 -4 19t16 35q144 -12 216 -12l212 12v-6z" />
    <glyph glyph-name="kcommaaccent" unicode="&#x137;" horiz-adv-x="970" 
d="M436 -220q0 46 55 78t117 32q26 -20 26 -88t-64 -152t-124 -116q-4 -4 -28 -4t-24 14q0 4 22 17t47 41t32 62t-26 63t-33 53zM696 776q-64 0 -175 -134t-111 -178q0 -4 6 -4t19 2t50 9t72 17q87 25 153 75q66 51 66 132t-80 81zM774 870q54 0 99 -39t45 -97
q0 -130 -115 -214t-295 -114q120 -180 183 -238t103 -58t73 30t49 58q6 0 19 -16t13 -24q-10 -34 -74 -100t-120 -66t-92 26t-57 42t-46 48t-41 51t-41 59l-35 56q-10 16 -34 58t-30 50l-74 -382q-36 -10 -64 -10t-68 10l218 1118q18 82 18 106q0 38 -122 38q-6 0 -6 18
t16 34q130 12 252 56q12 -6 12 -34t-26 -154l-104 -538l22 26q169 200 322 200z" />
    <glyph glyph-name="kgreenlandic" unicode="&#x138;" horiz-adv-x="894" 
d="M642 666q0 48 -20 79t-60 31q-64 0 -175 -134t-111 -178q0 -14 96 11t144 45t87 59t39 87zM90 802q93 0 264 76q10 0 10 -32q-38 -64 -60 -174q-13 -30 -8 -30q6 0 26 23q69 79 120 125q89 80 167 80q77 0 126 -47t49 -116q0 -141 -111 -204q-111 -62 -291 -93
q128 -190 191 -245t112 -55t97 71q14 21 14 23q2 2 8 2q24 0 28 -24q-14 -48 -70 -115t-109 -67t-98 23t-91 74q-81 90 -149 188t-69 101q-2 0 -2 -4l-74 -382q-36 -10 -64 -10t-68 10l122 620q18 80 18 86q0 48 -96 48q-12 0 -12 6q0 12 8 27t12 15z" />
    <glyph glyph-name="Lacute" unicode="&#x139;" horiz-adv-x="996" 
d="M502 1422q-32 0 -32 20q0 12 76 77t122 95q12 4 50 4t69 -15t31 -33q0 -34 -142 -91t-174 -57zM736 1310q0 -48 -15 -48t-66 -16t-57 -30q-26 -56 -52 -186l-142 -752q-20 -116 -20 -147t17 -37t107 -6h90q174 0 242 34q32 16 75 71t81 131q6 12 35 12t37 -12
q-140 -260 -164 -332l-632 12l-222 -10q-2 2 -2 33t14 31q26 0 74 12t56 28q28 58 52 186l142 740q22 110 22 184q0 22 -43 38t-69 16q-4 0 -4 19t16 35q144 -12 216 -12l212 12v-6z" />
    <glyph glyph-name="lacute" unicode="&#x13a;" horiz-adv-x="496" 
d="M376 1422q-32 0 -32 20q0 12 76 77t122 95q12 4 50 4t69 -15t31 -33q0 -34 -142 -91t-174 -57zM334 112q39 0 132 110q6 0 16 -19t10 -27q-26 -44 -108 -116t-144 -72q-30 0 -49 29t-19 69t14 112l188 970q6 30 6 56q0 38 -122 38q-6 0 -6 18t16 34q136 12 256 56
q12 -6 12 -34t-26 -154l-190 -970q-6 -24 -6 -62t20 -38z" />
    <glyph glyph-name="Lcommaaccent" unicode="&#x13b;" horiz-adv-x="996" 
d="M382 -218q0 46 55 78t117 32q26 -20 26 -88t-64 -152t-124 -116q-4 -4 -28 -4t-24 14q0 4 22 17t47 41t32 62t-26 63t-33 53zM736 1310q0 -48 -15 -48t-66 -16t-57 -30q-26 -56 -52 -186l-142 -752q-20 -116 -20 -147t17 -37t107 -6h90q174 0 242 34q32 16 75 71t81 131
q6 12 35 12t37 -12q-140 -260 -164 -332l-632 12l-222 -10q-2 2 -2 33t14 31q26 0 74 12t56 28q28 58 52 186l142 740q22 110 22 184q0 22 -43 38t-69 16q-4 0 -4 19t16 35q144 -12 216 -12l212 12v-6z" />
    <glyph glyph-name="lcommaaccent" unicode="&#x13c;" horiz-adv-x="496" 
d="M152 -216q0 46 55 78t117 32q26 -20 26 -88t-64 -152t-124 -116q-4 -4 -28 -4t-24 14q0 4 22 17t47 41t32 62t-26 63t-33 53zM334 112q39 0 132 110q6 0 16 -19t10 -27q-26 -44 -108 -116t-144 -72q-30 0 -49 29t-19 69t14 112l188 970q6 30 6 56q0 38 -122 38
q-6 0 -6 18t16 34q136 12 256 56q12 -6 12 -34t-26 -154l-190 -970q-6 -24 -6 -62t20 -38z" />
    <glyph glyph-name="Lcaron" unicode="&#x13d;" horiz-adv-x="996" 
d="M1110 1268q0 56 43 88t105 32q10 -18 10 -51t-9 -84t-86 -145t-113 -94q-8 0 -14 8t-6 16l22 18q24 18 47 53t23 61t-11 52t-11 46zM736 1310q0 -48 -15 -48t-66 -16t-57 -30q-26 -56 -52 -186l-142 -752q-20 -116 -20 -147t17 -37t107 -6h90q174 0 242 34q32 16 75 71
t81 131q6 12 35 12t37 -12q-140 -260 -164 -332l-632 12l-222 -10q-2 2 -2 33t14 31q26 0 74 12t56 28q28 58 52 186l142 740q22 110 22 184q0 22 -43 38t-69 16q-4 0 -4 19t16 35q144 -12 216 -12l212 12v-6z" />
    <glyph glyph-name="lcaron" unicode="&#x13e;" horiz-adv-x="496" 
d="M682 1268q0 56 43 88t105 32q10 -18 10 -51t-9 -84t-86 -145t-113 -94q-8 0 -14 8t-6 16l22 18q24 18 47 53t23 61t-11 52t-11 46zM334 112q39 0 132 110q6 0 16 -19t10 -27q-26 -44 -108 -116t-144 -72q-30 0 -49 29t-19 69t14 112l188 970q6 30 6 56q0 38 -122 38
q-6 0 -6 18t16 34q136 12 256 56q12 -6 12 -34t-26 -154l-190 -970q-6 -24 -6 -62t20 -38z" />
    <glyph glyph-name="Ldot" unicode="&#x13f;" horiz-adv-x="996" 
d="M917 766q39 0 60 -29t13 -71t-40 -71t-71 -29t-61 29t-14 71t41 71t72 29zM736 1310q0 -48 -15 -48t-66 -16t-57 -30q-26 -56 -52 -186l-142 -752q-20 -116 -20 -147t17 -37t107 -6h90q174 0 242 34q32 16 75 71t81 131q6 12 35 12t37 -12q-140 -260 -164 -332l-632 12
l-222 -10q-2 2 -2 33t14 31q26 0 74 12t56 28q28 58 52 186l142 740q22 110 22 184q0 22 -43 38t-69 16q-4 0 -4 19t16 35q144 -12 216 -12l212 12v-6z" />
    <glyph glyph-name="ldot" unicode="&#x140;" horiz-adv-x="708" 
d="M643 698q39 0 60 -29t13 -71t-40 -71t-71 -29t-61 29t-14 71t41 71t72 29zM334 112q39 0 132 110q6 0 16 -19t10 -27q-26 -44 -108 -116t-144 -72q-30 0 -49 29t-19 69t14 112l188 970q6 30 6 56q0 38 -122 38q-6 0 -6 18t16 34q136 12 256 56q12 -6 12 -34t-26 -154
l-190 -970q-6 -24 -6 -62t20 -38z" />
    <glyph glyph-name="Lslash" unicode="&#x141;" horiz-adv-x="1140" 
d="M112 56q26 0 74 12t65 34t47 184l30 154l-128 -84q-32 48 -20 58l162 106l102 522q24 142 22 182q-2 16 -47 29t-69 13q-6 0 -2 24t14 34q132 -12 207 -12t231 12q0 -58 -16 -58t-68 -14t-58 -28q-28 -64 -52 -186l-78 -398l398 254q8 -10 17 -34t3 -28l-434 -272
l-54 -276q-18 -98 -16 -176q2 -20 122 -20h90q172 0 240 34q32 16 76 71t80 131q6 12 35 12t37 -12q-140 -260 -164 -332l-632 12l-226 -6q-6 6 0 32q4 26 12 26z" />
    <glyph glyph-name="lslash" unicode="&#x142;" horiz-adv-x="498" 
d="M574 1388q16 0 16 -32q-30 -64 -52 -174l-78 -406l102 70q26 -44 16 -54l-134 -92l-82 -430q-24 -130 -22 -178q0 -14 38 -27t56 -13q6 -2 3 -25t-9 -33q-170 10 -182 10t-192 -10l12 58q20 0 63 13t49 27q18 44 38 140l72 362l-108 -74q-28 42 -14 56l136 94l84 428
q14 80 14 128q-2 32 -82 32h-14q-15 0 -6 27q10 27 16 27q161 18 258 76h2z" />
    <glyph glyph-name="Nacute" unicode="&#x143;" horiz-adv-x="1326" 
d="M954 1422q-32 0 -32 20q0 12 76 77t122 95q12 4 50 4t69 -15t31 -33q0 -34 -142 -91t-174 -57zM511 1308q39 0 191 8q30 -118 146 -393t238 -517q14 40 22 82l102 538q26 130 26 184q0 24 -55 38t-85 14q-4 0 -4 22t14 32q206 -10 222 -10t206 10q0 -54 -12 -54
q-20 0 -85 -15t-71 -29q-26 -64 -50 -186l-150 -760q-12 -62 -28 -160t-20 -120q-8 -8 -20 -8q-28 0 -52 46q-2 4 -492 1132l-178 -880q-20 -98 -20 -178q0 -16 32 -30t64 -20l34 -6q4 0 4 -17t-10 -37q-184 10 -198 10t-230 -10q-4 4 -4 29t14 25q24 0 85 16t69 32
q22 44 54 192l154 744q18 88 18 180q0 24 -52 37t-84 13q-4 0 -4 22t14 32q156 -8 195 -8z" />
    <glyph glyph-name="nacute" unicode="&#x144;" horiz-adv-x="984" 
d="M692 992q-4 0 -9 8t-5 19t85 107t145 142q16 10 52 10q78 0 78 -46t-161 -143t-185 -97zM306 746q-32 0 -110 -94q-4 0 -15 19t-11 27q24 40 101 106t119 66q78 0 78 -104q0 -44 -12 -106l-36 -184q20 36 87 124t164 179t157 91q100 0 100 -132q0 -90 -28 -218l-66 -308
q-6 -24 -6 -62t20 -38q38 0 132 110q4 0 15 -19t11 -27q-26 -44 -108 -116t-144 -72q-32 0 -50 29t-18 68t14 113l70 330q14 66 14 108q0 86 -38 86q-66 0 -205 -181t-179 -385l-34 -156q-26 -8 -62 -8t-68 8l118 616q10 72 10 80q0 50 -20 50z" />
    <glyph glyph-name="Ncommaaccent" unicode="&#x145;" horiz-adv-x="1326" 
d="M558 -216q0 46 55 78t117 32q26 -20 26 -88t-64 -152t-124 -116q-4 -4 -28 -4t-24 14q0 4 22 17t47 41t32 62t-26 63t-33 53zM511 1308q39 0 191 8q30 -118 146 -393t238 -517q14 40 22 82l102 538q26 130 26 184q0 24 -55 38t-85 14q-4 0 -4 22t14 32q206 -10 222 -10
t206 10q0 -54 -12 -54q-20 0 -85 -15t-71 -29q-26 -64 -50 -186l-150 -760q-12 -62 -28 -160t-20 -120q-8 -8 -20 -8q-28 0 -52 46q-2 4 -492 1132l-178 -880q-20 -98 -20 -178q0 -16 32 -30t64 -20l34 -6q4 0 4 -17t-10 -37q-184 10 -198 10t-230 -10q-4 4 -4 29t14 25
q24 0 85 16t69 32q22 44 54 192l154 744q18 88 18 180q0 24 -52 37t-84 13q-4 0 -4 22t14 32q156 -8 195 -8z" />
    <glyph glyph-name="ncommaaccent" unicode="&#x146;" horiz-adv-x="984" 
d="M424 -216q0 46 55 78t117 32q26 -20 26 -88t-64 -152t-124 -116q-4 -4 -28 -4t-24 14q0 4 22 17t47 41t32 62t-26 63t-33 53zM306 746q-32 0 -110 -94q-4 0 -15 19t-11 27q24 40 101 106t119 66q78 0 78 -104q0 -44 -12 -106l-36 -184q20 36 87 124t164 179t157 91
q100 0 100 -132q0 -90 -28 -218l-66 -308q-6 -24 -6 -62t20 -38q38 0 132 110q4 0 15 -19t11 -27q-26 -44 -108 -116t-144 -72q-32 0 -50 29t-18 68t14 113l70 330q14 66 14 108q0 86 -38 86q-66 0 -205 -181t-179 -385l-34 -156q-26 -8 -62 -8t-68 8l118 616q10 72 10 80
q0 50 -20 50z" />
    <glyph glyph-name="Ncaron" unicode="&#x147;" horiz-adv-x="1326" 
d="M1198 1716q18 0 8 -40q-2 -2 -21 -16t-88 -71t-102 -95t-42 -38t-22 27t-45 68t-64 79t-38 46q10 40 26 40t74 -40t96 -76q182 116 218 116zM511 1308q39 0 191 8q30 -118 146 -393t238 -517q14 40 22 82l102 538q26 130 26 184q0 24 -55 38t-85 14q-4 0 -4 22t14 32
q206 -10 222 -10t206 10q0 -54 -12 -54q-20 0 -85 -15t-71 -29q-26 -64 -50 -186l-150 -760q-12 -62 -28 -160t-20 -120q-8 -8 -20 -8q-28 0 -52 46q-2 4 -492 1132l-178 -880q-20 -98 -20 -178q0 -16 32 -30t64 -20l34 -6q4 0 4 -17t-10 -37q-184 10 -198 10t-230 -10
q-4 4 -4 29t14 25q24 0 85 16t69 32q22 44 54 192l154 744q18 88 18 180q0 24 -52 37t-84 13q-4 0 -4 22t14 32q156 -8 195 -8z" />
    <glyph glyph-name="ncaron" unicode="&#x148;" horiz-adv-x="984" 
d="M872 1288q16 0 6 -46q-2 -2 -20 -18t-48 -46l-58 -58q-20 -24 -60 -76t-48 -52t-21 36t-36 78t-50 85t-31 51q10 46 25 46t63 -45t80 -87q166 132 198 132zM306 746q-32 0 -110 -94q-4 0 -15 19t-11 27q24 40 101 106t119 66q78 0 78 -104q0 -44 -12 -106l-36 -184
q20 36 87 124t164 179t157 91q100 0 100 -132q0 -90 -28 -218l-66 -308q-6 -24 -6 -62t20 -38q38 0 132 110q4 0 15 -19t11 -27q-26 -44 -108 -116t-144 -72q-32 0 -50 29t-18 68t14 113l70 330q14 66 14 108q0 86 -38 86q-66 0 -205 -181t-179 -385l-34 -156q-26 -8 -62 -8
t-68 8l118 616q10 72 10 80q0 50 -20 50z" />
    <glyph glyph-name="napostrophe" unicode="&#x149;" horiz-adv-x="1248" 
d="M466 746q-32 0 -110 -94q-4 0 -15 19t-11 27q24 40 101 106t119 66q78 0 78 -104q0 -44 -12 -106l-36 -184q20 36 87 124t164 179t157 91q100 0 100 -132q0 -90 -28 -218l-66 -308q-6 -24 -6 -62t20 -38q38 0 132 110q4 0 15 -19t11 -27q-26 -44 -108 -116t-144 -72
q-32 0 -50 29t-18 68t14 113l70 330q14 66 14 108q0 86 -38 86q-66 0 -205 -181t-179 -385l-34 -156q-26 -8 -62 -8t-68 8l118 616q10 72 10 80q0 50 -20 50zM244 1184q0 56 43 88t105 32q10 -18 10 -51t-9 -84t-86 -145t-113 -94q-8 0 -14 8t-6 16l22 18q24 18 47 53t23 61
t-11 52t-11 46z" />
    <glyph glyph-name="Eng" unicode="&#x14a;" horiz-adv-x="1364" 
d="M262 1285q0 21 14 31q156 -8 195 -8t191 8q30 -118 146 -393t238 -517q14 40 22 82l102 538q26 130 26 184q0 24 -55 38t-85 14q-4 0 -4 22t14 32q206 -10 222 -10t206 10q0 -54 -12 -54q-20 0 -85 -15t-71 -29q-26 -64 -50 -186l-170 -872q-24 -128 -87 -239t-134 -179
q-149 -142 -249 -188l-46 -20q-6 0 -16 11t-10 21l4 26q79 49 167 133q181 170 241 373l-462 1064l-178 -880q-20 -98 -20 -178q0 -16 32 -30t64 -20l34 -6q4 0 4 -17t-10 -37q-184 10 -198 10t-230 -10q-4 4 -4 29t14 25q24 0 85 16t69 32q22 44 54 192l154 744
q18 88 18 180q0 24 -52 37t-84 13q-4 2 -4 23z" />
    <glyph glyph-name="eng" unicode="&#x14b;" horiz-adv-x="1016" 
d="M674 870q76 0 118 -65t42 -150t-20 -189l-74 -376q-42 -220 -130 -338q-56 -76 -136 -137t-142 -85q-18 18 -18 40q0 2 18 14q112 84 172 189t94 271q98 478 98 556t-17 100t-57 22q-58 0 -177 -174t-151 -338l-42 -210q-34 -10 -63 -10t-69 10l124 642q2 8 2 30
q0 82 -54 82q-20 0 -70 -74l-50 -72q-4 0 -12 18t-8 26q18 52 86 135t134 83q112 0 112 -146q0 -60 -34 -218v-4q2 -2 4 -2l10 20q163 272 253 330q31 20 57 20z" />
    <glyph glyph-name="Omacron" unicode="&#x14c;" horiz-adv-x="1248" 
d="M684 1552h464q21 0 -18 -82q-2 -6 -7 -9t-7 -5h-464l-10 4q-4 13 11 52q15 40 31 40zM875 1334q191 0 328 -151t137 -366t-103 -409t-277 -311t-378 -117t-333 153t-129 373t110 411t282 304t363 113zM818 1250q-216 0 -366 -223t-150 -493q0 -204 89 -336t253 -132
q208 0 360 227t152 497q0 200 -88 330t-250 130z" />
    <glyph glyph-name="omacron" unicode="&#x14d;" horiz-adv-x="824" 
d="M424 1084h386q18 0 -16 -78l-16 -14h-384l-8 4q-2 6 0 14q0 8 13 41t25 33zM576 870q118 0 183 -82t65 -226q0 -206 -145 -389t-297 -183q-120 0 -183 78t-63 222q0 208 144 394t296 186zM552 788q-100 0 -182 -157t-82 -294t37 -201t93 -64q100 0 177 157t77 296
q0 263 -120 263z" />
    <glyph glyph-name="Obreve" unicode="&#x14e;" horiz-adv-x="1248" 
d="M906 1552q60 0 110 31t74 85q0 4 10 4t20 -8t7 -17t-3 -11q-26 -72 -95 -126t-142 -54t-120 53t-45 129v12q2 6 16 14t22 8t8 -4q2 -54 40 -85t98 -31zM875 1334q191 0 328 -151t137 -366t-103 -409t-277 -311t-378 -117t-333 153t-129 373t110 411t282 304t363 113z
M818 1250q-216 0 -366 -223t-150 -493q0 -204 89 -336t253 -132q208 0 360 227t152 497q0 200 -88 330t-250 130z" />
    <glyph glyph-name="obreve" unicode="&#x14f;" horiz-adv-x="824" 
d="M610 1084q58 0 110 40t80 104q0 6 9 6t19 -9t7 -20t-3 -13q-30 -82 -98 -141t-142 -59t-120 58t-42 144v8q5 15 17 23q13 9 21 9t8 -6q2 -64 39 -104t95 -40zM576 870q118 0 183 -82t65 -226q0 -206 -145 -389t-297 -183q-120 0 -183 78t-63 222q0 208 144 394t296 186z
M552 788q-100 0 -182 -157t-82 -294t37 -201t93 -64q100 0 177 157t77 296q0 263 -120 263z" />
    <glyph glyph-name="Ohungarumlaut" unicode="&#x150;" horiz-adv-x="1248" 
d="M1003 1722q35 0 55 -19t16 -41q-10 -46 -173 -126t-199 -80q-20 0 -16 20t108 110t162 130q12 6 47 6zM1281 1722q35 0 56 -19t17 -41q-10 -46 -174 -126t-200 -80q-18 0 -14 20t107 110t161 130q12 6 47 6zM875 1334q191 0 328 -151t137 -366t-103 -409t-277 -311
t-378 -117t-333 153t-129 373t110 411t282 304t363 113zM818 1250q-216 0 -366 -223t-150 -493q0 -204 89 -336t253 -132q208 0 360 227t152 497q0 200 -88 330t-250 130z" />
    <glyph glyph-name="ohungarumlaut" unicode="&#x151;" horiz-adv-x="824" 
d="M444 992q-4 0 -9 8t-5 19t85 107t145 142q16 10 52 10q78 0 78 -46t-161 -143t-185 -97zM700 992q-4 0 -9 8t-5 19t85 107t145 142q16 10 52 10q78 0 78 -46t-161 -143t-185 -97zM576 870q118 0 183 -82t65 -226q0 -206 -145 -389t-297 -183q-120 0 -183 78t-63 222
q0 208 144 394t296 186zM552 788q-100 0 -182 -157t-82 -294t37 -201t93 -64q100 0 177 157t77 296q0 263 -120 263z" />
    <glyph glyph-name="OE" unicode="&#x152;" horiz-adv-x="1870" 
d="M762 1250q-216 0 -366 -223t-150 -493q0 -204 89 -336t253 -132q128 0 204 20t156 94q30 25 47 70q17 44 27 70t21 70t18 71q17 67 38 177t29 150t10 51t8 49t7 55t4 50t0 52t-7 54t-23 59t-33 37t-34 21t-38 14t-44 10t-43 6q-34 4 -83 4h-90zM1280 722q0 -16 74 -16h90
q132 0 164 19t78 123q6 14 29 14t29 -10l-74 -384q-12 -8 -33 -8t-23 16q-3 90 -12 104q-8 14 -23 26t-168 12t-157 -18l-58 -296q-22 -106 -22 -155t16 -55t106 -6h90q174 0 242 34q32 16 75 71t81 131q6 12 35 12t37 -12q-140 -260 -164 -332l-634 14q-190 0 -337 -13
t-185 -13q-214 0 -343 153t-129 373t110 411t282 304t352 113l502 -22l586 16q-2 -28 -2 -78l4 -194q-10 -10 -35 -10t-25 14q-6 112 -52 142t-146 30h-108q-142 0 -152 -26q-22 -60 -36 -134z" />
    <glyph glyph-name="oe" unicode="&#x153;" horiz-adv-x="1174" 
d="M1024 870q140 0 140 -158q0 -78 -86 -162t-191 -134t-169 -50q-8 0 -8 -18q0 -236 152 -236q40 0 84 34t72 68t30 34t11 -16t9 -28q-16 -48 -100 -130t-157 -82t-131 44t-90 122q-136 -168 -308 -168q-112 0 -170 96t-58 230q0 204 139 379t301 175t218 -180
q146 180 312 180zM984 792q-88 0 -174 -136t-86 -208q0 -12 14 -12q70 0 179 87t109 178t-42 91zM464 792q-102 0 -181 -149t-79 -303q0 -270 130 -270q94 0 172 151t78 326t-54 222q-26 23 -66 23z" />
    <glyph glyph-name="Racute" unicode="&#x154;" horiz-adv-x="1186" 
d="M578 1422q-32 0 -32 20q0 12 76 77t122 95q12 4 50 4t69 -15t31 -33q0 -34 -142 -91t-174 -57zM746 1242q-102 0 -129 -6t-31 -32l-96 -466v-4q0 -30 93 -30t177 35t145 118t61 197q0 188 -220 188zM1136 1051q0 -69 -27 -129q-70 -155 -295 -268q-18 -6 -10 -24
q38 -132 98 -272t88 -183t38 -56t21 -22t20 -16t21 -11t20 -8t30 -4h40q14 -38 2 -56q-50 -10 -116 -10q-132 0 -218 130t-196 472q-10 28 -81 28t-89 -5t-22 -29l-58 -310q-22 -110 -22 -180q0 -16 27 -29t53 -17l28 -4q4 0 4 -15t-12 -39q-186 10 -200 10t-228 -10
q-4 4 -4 29t14 25q24 0 72 13t56 31q22 54 52 192l164 828q10 52 10 100q0 24 -40 37t-66 13q-4 0 -4 22t14 32q86 -6 208 -6l250 6q121 0 229 -55q57 -29 93 -85t36 -125z" />
    <glyph glyph-name="racute" unicode="&#x155;" horiz-adv-x="744" 
d="M546 992q-4 0 -9 8t-5 19t85 107t145 142q16 10 52 10q78 0 78 -46t-161 -143t-185 -97zM320 746q-32 0 -110 -94q-4 0 -15 19t-11 27q24 40 101 106t119 66q78 0 78 -104q0 -44 -12 -106l-32 -168q50 118 149 248t167 130t110 -64q0 -134 -74 -134q-16 0 -38 25t-46 25
q-58 0 -173 -174t-145 -338l-38 -210q-34 -6 -69 -6t-71 6l120 616q10 72 10 80q0 50 -20 50z" />
    <glyph glyph-name="Rcommaaccent" unicode="&#x156;" horiz-adv-x="1186" 
d="M518 -216q0 46 55 78t117 32q26 -20 26 -88t-64 -152t-124 -116q-4 -4 -28 -4t-24 14q0 4 22 17t47 41t32 62t-26 63t-33 53zM746 1242q-102 0 -129 -6t-31 -32l-96 -466v-4q0 -30 93 -30t177 35t145 118t61 197q0 188 -220 188zM1136 1051q0 -69 -27 -129
q-70 -155 -295 -268q-18 -6 -10 -24q38 -132 98 -272t88 -183t38 -56t21 -22t20 -16t21 -11t20 -8t30 -4h40q14 -38 2 -56q-50 -10 -116 -10q-132 0 -218 130t-196 472q-10 28 -81 28t-89 -5t-22 -29l-58 -310q-22 -110 -22 -180q0 -16 27 -29t53 -17l28 -4q4 0 4 -15
t-12 -39q-186 10 -200 10t-228 -10q-4 4 -4 29t14 25q24 0 72 13t56 31q22 54 52 192l164 828q10 52 10 100q0 24 -40 37t-66 13q-4 0 -4 22t14 32q86 -6 208 -6l250 6q121 0 229 -55q57 -29 93 -85t36 -125z" />
    <glyph glyph-name="rcommaaccent" unicode="&#x157;" horiz-adv-x="744" 
d="M174 -216q0 46 55 78t117 32q26 -20 26 -88t-64 -152t-124 -116q-4 -4 -28 -4t-24 14q0 4 22 17t47 41t32 62t-26 63t-33 53zM320 746q-32 0 -110 -94q-4 0 -15 19t-11 27q24 40 101 106t119 66q78 0 78 -104q0 -44 -12 -106l-32 -168q50 118 149 248t167 130t110 -64
q0 -134 -74 -134q-16 0 -38 25t-46 25q-58 0 -173 -174t-145 -338l-38 -210q-34 -6 -69 -6t-71 6l120 616q10 72 10 80q0 50 -20 50z" />
    <glyph glyph-name="Rcaron" unicode="&#x158;" horiz-adv-x="1186" 
d="M924 1716q18 0 8 -40q-2 -2 -21 -16t-88 -71t-102 -95t-42 -38t-22 27t-45 68t-64 79t-38 46q10 40 26 40t74 -40t96 -76q182 116 218 116zM746 1242q-102 0 -129 -6t-31 -32l-96 -466v-4q0 -30 93 -30t177 35t145 118t61 197q0 188 -220 188zM1136 1051q0 -69 -27 -129
q-70 -155 -295 -268q-18 -6 -10 -24q38 -132 98 -272t88 -183t38 -56t21 -22t20 -16t21 -11t20 -8t30 -4h40q14 -38 2 -56q-50 -10 -116 -10q-132 0 -218 130t-196 472q-10 28 -81 28t-89 -5t-22 -29l-58 -310q-22 -110 -22 -180q0 -16 27 -29t53 -17l28 -4q4 0 4 -15
t-12 -39q-186 10 -200 10t-228 -10q-4 4 -4 29t14 25q24 0 72 13t56 31q22 54 52 192l164 828q10 52 10 100q0 24 -40 37t-66 13q-4 0 -4 22t14 32q86 -6 208 -6l250 6q121 0 229 -55q57 -29 93 -85t36 -125z" />
    <glyph glyph-name="rcaron" unicode="&#x159;" horiz-adv-x="744" 
d="M774 1288q16 0 6 -46q-2 -2 -20 -18t-48 -46l-58 -58q-20 -24 -60 -76t-48 -52t-21 36t-36 78t-50 85t-31 51q10 46 25 46t63 -45t80 -87q166 132 198 132zM320 746q-32 0 -110 -94q-4 0 -15 19t-11 27q24 40 101 106t119 66q78 0 78 -104q0 -44 -12 -106l-32 -168
q50 118 149 248t167 130t110 -64q0 -134 -74 -134q-16 0 -38 25t-46 25q-58 0 -173 -174t-145 -338l-38 -210q-34 -6 -69 -6t-71 6l120 616q10 72 10 80q0 50 -20 50z" />
    <glyph glyph-name="Sacute" unicode="&#x15a;" horiz-adv-x="870" 
d="M712 1422q-32 0 -32 20q0 12 76 77t122 95q12 4 50 4t69 -15t31 -33q0 -34 -142 -91t-174 -57zM130 366q28 0 48 -16q0 -91 43 -174q55 -106 227 -106q92 0 177 73t85 201q0 108 -164 221q-68 47 -137 96t-117 115t-48 140q0 180 131 298t317 118q52 0 134 -22t124 -26
q-14 -110 -23 -195t-12 -95t-9 -10q-30 0 -40 7t-10 29q0 94 -61 160t-141 66q-114 0 -184 -69t-70 -174t98 -183q38 -30 130 -94t133 -98t81 -97t40 -129t-30 -136t-86 -133t-148 -104t-201 -41t-319 48q8 128 8 162l-4 154q0 14 28 14z" />
    <glyph glyph-name="sacute" unicode="&#x15b;" horiz-adv-x="640" 
d="M440 998q-4 0 -9 8t-5 19t85 107t145 142q16 10 52 10q78 0 78 -46t-161 -143t-185 -97zM520 876q116 0 182 -76q10 -24 10 -51t-19 -53t-48 -26t-51 29t-55 59t-81 30t-72 -28t-24 -72t39 -103t85 -105t85 -112t39 -134q0 -110 -80 -178t-200 -68t-186 76q-10 16 -10 45
t19 57t48 28t51 -29t55 -59t82 -30t76 29t27 72t-39 102t-85 105t-85 112t-39 142t80 157t196 81z" />
    <glyph glyph-name="Scircumflex" unicode="&#x15c;" horiz-adv-x="870" 
d="M902 1456q-38 0 -198 116q-60 -36 -144 -76t-104 -40t-10 40q8 8 67 49t107 76t90 79q18 16 30 16t33 -40t46 -68t53 -55t44 -41t16 -16q-10 -40 -30 -40zM130 366q28 0 48 -16q0 -91 43 -174q55 -106 227 -106q92 0 177 73t85 201q0 108 -164 221q-68 47 -137 96
t-117 115t-48 140q0 180 131 298t317 118q52 0 134 -22t124 -26q-14 -110 -23 -195t-12 -95t-9 -10q-30 0 -40 7t-10 29q0 94 -61 160t-141 66q-114 0 -184 -69t-70 -174t98 -183q38 -30 130 -94t133 -98t81 -97t40 -129t-30 -136t-86 -133t-148 -104t-201 -41t-319 48
q8 128 8 162l-4 154q0 14 28 14z" />
    <glyph glyph-name="scircumflex" unicode="&#x15d;" horiz-adv-x="640" 
d="M710 998q-34 0 -172 116q-52 -36 -125 -76t-91 -40t-10 40l124 102q74 60 108 102q18 18 23 18t35 -48t43 -65t38 -46t39 -45t14 -18q-10 -40 -26 -40zM520 876q116 0 182 -76q10 -24 10 -51t-19 -53t-48 -26t-51 29t-55 59t-81 30t-72 -28t-24 -72t39 -103t85 -105
t85 -112t39 -134q0 -110 -80 -178t-200 -68t-186 76q-10 16 -10 45t19 57t48 28t51 -29t55 -59t82 -30t76 29t27 72t-39 102t-85 105t-85 112t-39 142t80 157t196 81z" />
    <glyph glyph-name="Scedilla" unicode="&#x15e;" horiz-adv-x="870" 
d="M130 366q28 0 48 -16q0 -91 43 -174q55 -106 227 -106q92 0 177 73t85 201q0 108 -164 221q-68 47 -137 96t-117 115t-48 140q0 180 131 298t317 118q52 0 134 -22t124 -26q-14 -110 -23 -195t-12 -95t-9 -10q-30 0 -40 7t-10 29q0 94 -61 160t-141 66q-114 0 -184 -69
t-70 -174t98 -183q38 -30 130 -94t133 -98t81 -97t40 -129t-30 -136q-70 -164 -234 -237q-80 -36 -175 -40l-39 -43h56q42 0 63 -34t11 -82q-16 -80 -85 -129t-136 -49t-91 20v34q4 12 15 22t22 10t33 -15t54 -15t62 23t36 58t-11 56t-41 21t-62 -16q-4 0 -12 12t-4 17
q68 85 86 109q-107 3 -302 48q8 128 8 162l-4 154q0 14 28 14z" />
    <glyph glyph-name="scedilla" unicode="&#x15f;" horiz-adv-x="640" 
d="M520 876q116 0 182 -76q10 -24 10 -51t-19 -53t-48 -26t-51 29t-55 59t-81 30t-72 -28t-24 -72t39 -103t85 -105t85 -112t39 -134q0 -110 -75 -174t-181 -71l-32 -37h44q30 0 48 -22t18 -54q0 -62 -57 -118t-151 -56q-36 0 -58 18v18q0 20 11 29t20 9t28 -13t47 -13
t56 23t28 54q0 57 -48 57q-14 0 -50 -14q-4 0 -9 8t-5 13t26 37t47 60q-109 2 -173 76q-10 16 -10 45t19 57t48 28t51 -29t55 -59t82 -30t76 29t27 72t-39 102t-85 105t-85 112t-39 142t80 157t196 81z" />
    <glyph glyph-name="Scaron" unicode="&#x160;" horiz-adv-x="870" 
d="M956 1716q18 0 8 -40q-2 -2 -21 -16t-88 -71t-102 -95t-42 -38t-22 27t-45 68t-64 79t-38 46q10 40 26 40t74 -40t96 -76q182 116 218 116zM130 366q28 0 48 -16q0 -91 43 -174q55 -106 227 -106q92 0 177 73t85 201q0 108 -164 221q-68 47 -137 96t-117 115t-48 140
q0 180 131 298t317 118q52 0 134 -22t124 -26q-14 -110 -23 -195t-12 -95t-9 -10q-30 0 -40 7t-10 29q0 94 -61 160t-141 66q-114 0 -184 -69t-70 -174t98 -183q38 -30 130 -94t133 -98t81 -97t40 -129t-30 -136t-86 -133t-148 -104t-201 -41t-319 48q8 128 8 162l-4 154
q0 14 28 14z" />
    <glyph glyph-name="scaron" unicode="&#x161;" horiz-adv-x="640" 
d="M764 1294q16 0 6 -46q-2 -2 -20 -18t-48 -46l-58 -58q-20 -24 -60 -76t-48 -52t-21 36t-36 78t-50 85t-31 51q10 46 25 46t63 -45t80 -87q166 132 198 132zM520 876q116 0 182 -76q10 -24 10 -51t-19 -53t-48 -26t-51 29t-55 59t-81 30t-72 -28t-24 -72t39 -103t85 -105
t85 -112t39 -134q0 -110 -80 -178t-200 -68t-186 76q-10 16 -10 45t19 57t48 28t51 -29t55 -59t82 -30t76 29t27 72t-39 102t-85 105t-85 112t-39 142t80 157t196 81z" />
    <glyph glyph-name="Tcommaaccent" unicode="&#x162;" horiz-adv-x="1202" 
d="M1333 1042q-23 0 -23 10q0 108 -39 143t-133 35q-198 0 -212 -30q-28 -60 -56 -200l-140 -722q-22 -110 -22 -180q0 -16 27 -29t53 -17l28 -4q4 0 4 -15t-12 -39q-184 10 -198 10t-230 -10q-4 4 -4 29t14 25q24 0 72 13t56 31q30 68 52 192l138 710q26 138 26 173t-5 42
q-15 21 -157 21t-186 -33t-94 -145q-4 -10 -25 -10t-35 14l88 286q76 -22 126 -22l404 -12l412 12q44 0 132 22l-20 -286q-18 -14 -41 -14zM462 -216q0 46 55 78t117 32q26 -20 26 -88t-64 -152t-124 -116q-4 -4 -28 -4t-24 14q0 4 22 17t47 41t32 62t-26 63t-33 53z" />
    <glyph glyph-name="tcommaaccent" unicode="&#x163;" horiz-adv-x="524" 
d="M370 112q38 0 132 110q4 0 15 -19t11 -27q-26 -44 -108 -116t-144 -72q-32 0 -50 29t-18 68t14 113l108 558h-142q-6 0 -6 24t24 60h140l48 244q6 20 98 20q24 0 36 -2l-50 -262h182q10 0 10 -25t-18 -59h-190l-106 -544q-6 -24 -6 -62t20 -38zM210 -216q0 46 55 78
t117 32q26 -20 26 -88t-64 -152t-124 -116q-4 -4 -28 -4t-24 14q0 4 22 17t47 41t32 62t-26 63t-33 53z" />
    <glyph glyph-name="Tcaron" unicode="&#x164;" horiz-adv-x="1202" 
d="M1126 1724q18 0 8 -40q-2 -2 -21 -16t-88 -71t-102 -95t-42 -38t-22 27t-45 68t-64 79t-38 46q10 40 26 40t74 -40t96 -76q182 116 218 116zM1333 1042q-23 0 -23 10q0 108 -39 143t-133 35q-198 0 -212 -30q-28 -60 -56 -200l-140 -722q-22 -110 -22 -180q0 -16 27 -29
t53 -17l28 -4q4 0 4 -15t-12 -39q-184 10 -198 10t-230 -10q-4 4 -4 29t14 25q24 0 72 13t56 31q30 68 52 192l138 710q26 138 26 173t-5 42q-15 21 -157 21t-186 -33t-94 -145q-4 -10 -25 -10t-35 14l88 286q76 -22 126 -22l404 -12l412 12q44 0 132 22l-20 -286
q-18 -14 -41 -14z" />
    <glyph glyph-name="tcaron" unicode="&#x165;" horiz-adv-x="524" 
d="M744 1268q0 56 43 88t105 32q10 -18 10 -51t-9 -84t-86 -145t-113 -94q-8 0 -14 8t-6 16l22 18q24 18 47 53t23 61t-11 52t-11 46zM370 112q38 0 132 110q4 0 15 -19t11 -27q-26 -44 -108 -116t-144 -72q-32 0 -50 29t-18 68t14 113l108 558h-142q-6 0 -6 24t24 60h140
l48 244q6 20 98 20q24 0 36 -2l-50 -262h182q10 0 10 -25t-18 -59h-190l-106 -544q-6 -24 -6 -62t20 -38z" />
    <glyph glyph-name="Tbar" unicode="&#x166;" horiz-adv-x="1300" 
d="M1389 1042q-25 0 -25 10q-4 112 -36 145t-138 33q-198 0 -210 -30q-32 -68 -56 -200l-59 -304h239q12 0 8 -22t-24 -58h-238l-66 -338q-22 -116 -20 -186q2 -14 48 -27t64 -13q4 0 0 -26t-8 -32q-184 10 -204 10t-236 -10q-4 8 0 33t12 25q24 0 73 12t59 28q30 68 48 178
l67 346h-239q-12 0 -6 29t22 51h238l58 298q36 176 24 206q-8 30 -196 30q-106 0 -150 -33t-92 -145q-6 -10 -29 -10t-33 14l90 286q78 -22 124 -22l406 -8l412 8q44 0 132 22l-20 -286q-14 -14 -39 -14z" />
    <glyph glyph-name="tbar" unicode="&#x167;" horiz-adv-x="610" 
d="M494 1104q24 0 36 -2l-50 -262h180q10 0 10 -28t-20 -64h-188l-22 -118h186q12 0 8 -22t-24 -58h-186l-64 -338q-2 -10 -2 -34q0 -74 44 -74q33 0 104 109q24 37 26 37t11 -16t9 -28q-18 -52 -85 -135t-135 -83q-112 0 -112 146q0 62 12 122l59 294h-137q-12 0 -6 29
t22 51h136l24 118h-144q-6 0 -6 26t26 66h142l48 244q6 20 98 20z" />
    <glyph glyph-name="Utilde" unicode="&#x168;" horiz-adv-x="1262" 
d="M586 1474q-14 0 -7 33t47 77q78 80 150 80t160 -53t139 -53t123 66q24 22 26 22q14 0 7 -33t-47 -79q-72 -78 -146 -78t-161 53t-151 53q-30 0 -84 -44t-56 -44zM1261 1304q65 0 221 12q0 -54 -15 -54t-77 -16t-75 -33t-51 -193l-90 -468q-62 -318 -192 -435t-374 -117
q-174 0 -271 106t-97 306q0 74 28 212l78 400q22 114 22 184q0 22 -43 38t-69 16q-4 0 -4 19t16 35q144 -12 216 -12l212 12v-6q0 -48 -15 -48t-66 -16t-57 -30q-26 -56 -52 -186l-82 -434q-16 -88 -16 -170q0 -154 66 -241t196 -87q326 0 410 450l88 476q24 140 24 180
q0 24 -58 41t-92 17q-4 0 -4 22t14 32q144 -12 209 -12z" />
    <glyph glyph-name="utilde" unicode="&#x169;" horiz-adv-x="944" 
d="M494 1200q64 0 140 -53t132 -53q34 0 97 66q21 22 26 22t5 -18q0 -46 -53 -109t-118 -63t-142 53t-133 53q-28 0 -74 -44t-48 -44q-10 0 -10 12q0 50 57 114t121 64zM286 746q-32 0 -110 -94q-4 0 -15 19t-11 27q24 40 101 106t119 66q78 0 78 -104q0 -54 -12 -106
l-70 -330q-14 -58 -14 -108q0 -86 38 -86q28 0 80 47t109 122t108 183t71 214l34 156q26 8 62 8t68 -8l-124 -646q-6 -24 -6 -62t20 -38q38 0 132 110q4 0 15 -19t11 -27q-26 -44 -108 -116t-144 -72q-32 0 -50 29t-18 68t14 113l36 184q-20 -38 -82 -124t-156 -178
t-154 -92q-100 0 -100 132q0 92 28 218l60 278q10 72 10 80q0 50 -20 50z" />
    <glyph glyph-name="Umacron" unicode="&#x16a;" horiz-adv-x="1262" 
d="M680 1552h464q21 0 -18 -82q-2 -6 -7 -9t-7 -5h-464l-10 4q-4 13 11 52q15 40 31 40zM1261 1304q65 0 221 12q0 -54 -15 -54t-77 -16t-75 -33t-51 -193l-90 -468q-62 -318 -192 -435t-374 -117q-174 0 -271 106t-97 306q0 74 28 212l78 400q22 114 22 184q0 22 -43 38
t-69 16q-4 0 -4 19t16 35q144 -12 216 -12l212 12v-6q0 -48 -15 -48t-66 -16t-57 -30q-26 -56 -52 -186l-82 -434q-16 -88 -16 -170q0 -154 66 -241t196 -87q326 0 410 450l88 476q24 140 24 180q0 24 -58 41t-92 17q-4 0 -4 22t14 32q144 -12 209 -12z" />
    <glyph glyph-name="umacron" unicode="&#x16b;" horiz-adv-x="944" 
d="M410 1084h386q18 0 -16 -78l-16 -14h-384l-8 4q-2 6 0 14q0 8 13 41t25 33zM286 746q-32 0 -110 -94q-4 0 -15 19t-11 27q24 40 101 106t119 66q78 0 78 -104q0 -54 -12 -106l-70 -330q-14 -58 -14 -108q0 -86 38 -86q28 0 80 47t109 122t108 183t71 214l34 156
q26 8 62 8t68 -8l-124 -646q-6 -24 -6 -62t20 -38q38 0 132 110q4 0 15 -19t11 -27q-26 -44 -108 -116t-144 -72q-32 0 -50 29t-18 68t14 113l36 184q-20 -38 -82 -124t-156 -178t-154 -92q-100 0 -100 132q0 92 28 218l60 278q10 72 10 80q0 50 -20 50z" />
    <glyph glyph-name="Ubreve" unicode="&#x16c;" horiz-adv-x="1262" 
d="M904 1552q60 0 110 31t74 85q0 4 10 4t20 -8t7 -17t-3 -11q-26 -72 -95 -126t-142 -54t-120 53t-45 129v12q2 6 16 14t22 8t8 -4q2 -54 40 -85t98 -31zM1261 1304q65 0 221 12q0 -54 -15 -54t-77 -16t-75 -33t-51 -193l-90 -468q-62 -318 -192 -435t-374 -117
q-174 0 -271 106t-97 306q0 74 28 212l78 400q22 114 22 184q0 22 -43 38t-69 16q-4 0 -4 19t16 35q144 -12 216 -12l212 12v-6q0 -48 -15 -48t-66 -16t-57 -30q-26 -56 -52 -186l-82 -434q-16 -88 -16 -170q0 -154 66 -241t196 -87q326 0 410 450l88 476q24 140 24 180
q0 24 -58 41t-92 17q-4 0 -4 22t14 32q144 -12 209 -12z" />
    <glyph glyph-name="ubreve" unicode="&#x16d;" horiz-adv-x="944" 
d="M548 1084q58 0 110 40t80 104q0 6 9 6t19 -9t7 -20t-3 -13q-30 -82 -98 -141t-142 -59t-120 58t-42 144v8q5 15 17 23q13 9 21 9t8 -6q2 -64 39 -104t95 -40zM286 746q-32 0 -110 -94q-4 0 -15 19t-11 27q24 40 101 106t119 66q78 0 78 -104q0 -54 -12 -106l-70 -330
q-14 -58 -14 -108q0 -86 38 -86q28 0 80 47t109 122t108 183t71 214l34 156q26 8 62 8t68 -8l-124 -646q-6 -24 -6 -62t20 -38q38 0 132 110q4 0 15 -19t11 -27q-26 -44 -108 -116t-144 -72q-32 0 -50 29t-18 68t14 113l36 184q-20 -38 -82 -124t-156 -178t-154 -92
q-100 0 -100 132q0 92 28 218l60 278q10 72 10 80q0 50 -20 50z" />
    <glyph glyph-name="Uring" unicode="&#x16e;" horiz-adv-x="1262" 
d="M958 1814q68 0 105 -52t21 -126t-73 -127t-124 -53t-106 53t-25 127t74 126t128 52zM900 1524q42 0 77 33t45 79t-13 78t-65 32t-80 -32t-46 -78t16 -79t66 -33zM1261 1304q65 0 221 12q0 -54 -15 -54t-77 -16t-75 -33t-51 -193l-90 -468q-62 -318 -192 -435t-374 -117
q-174 0 -271 106t-97 306q0 74 28 212l78 400q22 114 22 184q0 22 -43 38t-69 16q-4 0 -4 19t16 35q144 -12 216 -12l212 12v-6q0 -48 -15 -48t-66 -16t-57 -30q-26 -56 -52 -186l-82 -434q-16 -88 -16 -170q0 -154 66 -241t196 -87q326 0 410 450l88 476q24 140 24 180
q0 24 -58 41t-92 17q-4 0 -4 22t14 32q144 -12 209 -12z" />
    <glyph glyph-name="uring" unicode="&#x16f;" horiz-adv-x="944" 
d="M602 1350q68 0 105 -52t21 -126t-73 -127t-124 -53t-105 53t-24 127t73 126t127 52zM544 1060q42 0 79 33t45 79t-15 78t-65 32t-79 -32t-45 -78t15 -79t65 -33zM286 746q-32 0 -110 -94q-4 0 -15 19t-11 27q24 40 101 106t119 66q78 0 78 -104q0 -54 -12 -106l-70 -330
q-14 -58 -14 -108q0 -86 38 -86q28 0 80 47t109 122t108 183t71 214l34 156q26 8 62 8t68 -8l-124 -646q-6 -24 -6 -62t20 -38q38 0 132 110q4 0 15 -19t11 -27q-26 -44 -108 -116t-144 -72q-32 0 -50 29t-18 68t14 113l36 184q-20 -38 -82 -124t-156 -178t-154 -92
q-100 0 -100 132q0 92 28 218l60 278q10 72 10 80q0 50 -20 50z" />
    <glyph glyph-name="Uhungarumlaut" unicode="&#x170;" horiz-adv-x="1262" 
d="M1047 1722q35 0 55 -19t16 -41q-10 -46 -173 -126t-199 -80q-20 0 -16 20t108 110t162 130q12 6 47 6zM1325 1722q35 0 56 -19t17 -41q-10 -46 -174 -126t-200 -80q-18 0 -14 20t107 110t161 130q12 6 47 6zM1261 1304q65 0 221 12q0 -54 -15 -54t-77 -16t-75 -33
t-51 -193l-90 -468q-62 -318 -192 -435t-374 -117q-174 0 -271 106t-97 306q0 74 28 212l78 400q22 114 22 184q0 22 -43 38t-69 16q-4 0 -4 19t16 35q144 -12 216 -12l212 12v-6q0 -48 -15 -48t-66 -16t-57 -30q-26 -56 -52 -186l-82 -434q-16 -88 -16 -170q0 -154 66 -241
t196 -87q326 0 410 450l88 476q24 140 24 180q0 24 -58 41t-92 17q-4 0 -4 22t14 32q144 -12 209 -12z" />
    <glyph glyph-name="uhungarumlaut" unicode="&#x171;" horiz-adv-x="944" 
d="M374 992q-4 0 -9 8t-5 19t85 107t145 142q16 10 52 10q78 0 78 -46t-161 -143t-185 -97zM630 992q-4 0 -9 8t-5 19t85 107t145 142q16 10 52 10q78 0 78 -46t-161 -143t-185 -97zM286 746q-32 0 -110 -94q-4 0 -15 19t-11 27q24 40 101 106t119 66q78 0 78 -104
q0 -54 -12 -106l-70 -330q-14 -58 -14 -108q0 -86 38 -86q28 0 80 47t109 122t108 183t71 214l34 156q26 8 62 8t68 -8l-124 -646q-6 -24 -6 -62t20 -38q38 0 132 110q4 0 15 -19t11 -27q-26 -44 -108 -116t-144 -72q-32 0 -50 29t-18 68t14 113l36 184q-20 -38 -82 -124
t-156 -178t-154 -92q-100 0 -100 132q0 92 28 218l60 278q10 72 10 80q0 50 -20 50z" />
    <glyph glyph-name="Uogonek" unicode="&#x172;" horiz-adv-x="1348" 
d="M1125 1304q65 0 221 12q0 -54 -15 -54t-77 -16t-75 -33t-51 -193l-90 -468q-66 -346 -228 -468q-275 -208 -326 -284q-28 -42 -28 -78q0 -64 67 -64t136 57q23 19 29 18t-2 -27t-14 -32q-120 -134 -222 -134q-44 0 -73 34t-29 76q0 74 82 183t174 175q-76 -8 -132 -8
q-174 0 -271 106t-97 306q0 74 28 212l78 400q22 114 22 184q0 22 -43 38t-69 16q-4 0 -4 19t16 35q144 -12 216 -12l212 12v-6q0 -48 -15 -48t-66 -16t-57 -30q-26 -56 -52 -186l-82 -434q-16 -88 -16 -170q0 -154 66 -241t196 -87q326 0 410 450l88 476q24 140 24 180
q0 24 -58 41t-92 17q-4 0 -4 22t14 32q144 -12 209 -12z" />
    <glyph glyph-name="uogonek" unicode="&#x173;" horiz-adv-x="994" 
d="M374 136q58 0 171 174t145 338l42 210q34 10 63 10t69 -10l-124 -642q-2 -8 -2 -30q0 -82 54 -82q20 0 70 72l50 74q4 0 12 -18t8 -26q-32 -82 -114 -164q-22 -22 -67 -65q-79 -75 -129 -137t-50 -118q0 -64 67 -64t136 57q23 19 29 18t-2 -27t-14 -32
q-120 -134 -222 -134q-44 0 -73 29t-29 85t66 155t150 183q-80 20 -80 142q0 64 15 135t13 71t-2 -2q-52 -118 -139 -234t-171 -116t-116 60t-32 150t20 194l50 254q2 10 2 34q0 74 -44 74q-31 0 -104 -110q-24 -36 -26 -36t-11 16t-9 28q18 52 86 135t134 83
q112 0 112 -146q0 -34 -36 -229t-36 -261q0 -98 68 -98z" />
    <glyph glyph-name="Wcircumflex" unicode="&#x174;" horiz-adv-x="1946" 
d="M1498 1456q-38 0 -198 116q-60 -36 -144 -76t-104 -40t-10 40q8 8 67 49t107 76t90 79q18 16 30 16t33 -40t46 -68t53 -55t44 -41t16 -16q-10 -40 -30 -40zM458 1304q38 0 194 12v-6q0 -48 -14 -48q-48 0 -76 -22t-28 -46t14 -80l254 -890l242 366l-148 530
q-16 56 -33 84t-50 43t-53 15q-4 0 -4 21t16 33q156 -12 224 -12t188 12v-6q0 -14 -5 -31t-11 -17q-48 0 -75 -22t-27 -50t12 -76l90 -322l170 276q50 82 50 119t-35 56t-57 19q-4 0 -4 22t14 32q174 -12 190 -12l200 12q0 -54 -14 -54q-32 0 -81 -24t-76 -54t-129 -188
l-200 -308l136 -476l486 856q50 88 50 122t-35 53t-57 19q-4 0 -4 22t14 32q174 -12 190 -12l200 12q0 -54 -14 -54q-32 0 -81 -24t-65 -42q-66 -76 -140 -200l-562 -958q-38 -64 -86 -64q-12 0 -16 10l-140 506l-292 -452q-42 -64 -84 -64q-10 0 -16 10l-284 1036
q-34 120 -70 192q-10 20 -43 35t-53 15q-4 0 -4 22t14 32q180 -12 218 -12z" />
    <glyph glyph-name="wcircumflex" unicode="&#x175;" horiz-adv-x="1264" 
d="M928 992q-34 0 -172 116q-52 -36 -125 -76t-91 -40t-10 40l124 102q74 60 108 102q18 18 23 18t35 -48t43 -65t38 -46t39 -45t14 -18q-10 -40 -26 -40zM294 746q-32 0 -110 -94q-4 0 -15 19t-11 27q24 40 101 106t119 66q78 0 78 -104q0 -42 -12 -106l-60 -306
q-16 -96 -16 -139t18 -67t63 -24t104 52t113 132q48 394 66 462q26 100 80 100q76 0 76 -94q0 -130 -82 -354q-14 -100 -14 -162t17 -99t71 -37t129 89t126 206t51 179t-29 110t-29 78t24 57t60 27t62 -16q28 -52 28 -116q0 -126 -54 -263t-132 -239t-166 -169t-155 -67
t-106 49t-39 133q-158 -182 -276 -182q-68 0 -108 49t-40 116t8 99l68 352q12 42 12 86t-20 44z" />
    <glyph glyph-name="Ycircumflex" unicode="&#x176;" horiz-adv-x="1186" 
d="M1108 1456q-38 0 -198 116q-60 -36 -144 -76t-104 -40t-10 40q8 8 67 49t107 76t90 79q18 16 30 16t33 -40t46 -68t53 -55t44 -41t16 -16q-10 -40 -30 -40zM453 1304q55 0 283 12v-10q0 -44 -14 -44q-30 0 -78 -21t-48 -63q0 -20 8 -44l138 -424q26 34 91 118
q264 341 262 375q-1 23 -42 41t-81 18q-4 0 -4 22t14 32l184 -12q10 0 238 12q2 -4 2 -29t-14 -25q-20 0 -79 -19t-83 -43t-241 -317t-221 -313l-56 -292q-22 -110 -22 -180q0 -16 27 -29t55 -17l26 -4q4 0 4 -15t-12 -39q-186 10 -200 10t-230 -10q-2 2 -2 28t14 26
q22 0 70 14t58 30q24 42 50 180l52 284q5 18 -126 404l-42 130q-30 92 -78 128q-20 14 -58 29t-54 15q-4 0 -4 22t14 32q144 -12 199 -12z" />
    <glyph glyph-name="ycircumflex" unicode="&#x177;" horiz-adv-x="958" 
d="M846 992q-34 0 -172 116q-52 -36 -125 -76t-91 -40t-10 40l124 102q74 60 108 102q18 18 23 18t35 -48t43 -65t38 -46t39 -45t14 -18q-10 -40 -26 -40zM432 870q60 0 99 -102t57 -314t18 -398q78 96 156 245t78 268t-50 215q26 86 100 86q88 0 88 -158q0 -220 -172 -505
t-389 -479t-351 -194q-52 0 -86 24t-34 58q0 64 46 88q44 -26 134 -26q166 0 288 178q46 68 46 268q0 405 -61 559q-25 63 -59 63q-18 0 -54 -34t-56 -60q-4 0 -15 19t-11 27q12 30 95 101t133 71z" />
    <glyph glyph-name="Ydieresis" unicode="&#x178;" horiz-adv-x="1186" 
d="M727 1656q39 0 61 -29t14 -71t-41 -71t-72 -29t-60 29t-13 71t40 71t71 29zM1063 1656q39 0 61 -29t14 -71t-40 -71t-71 -29t-61 29t-14 71t40 71t71 29zM453 1304q55 0 283 12v-10q0 -44 -14 -44q-30 0 -78 -21t-48 -63q0 -20 8 -44l138 -424q26 34 91 118
q264 341 262 375q-1 23 -42 41t-81 18q-4 0 -4 22t14 32l184 -12q10 0 238 12q2 -4 2 -29t-14 -25q-20 0 -79 -19t-83 -43t-241 -317t-221 -313l-56 -292q-22 -110 -22 -180q0 -16 27 -29t55 -17l26 -4q4 0 4 -15t-12 -39q-186 10 -200 10t-230 -10q-2 2 -2 28t14 26
q22 0 70 14t58 30q24 42 50 180l52 284q5 18 -126 404l-42 130q-30 92 -78 128q-20 14 -58 29t-54 15q-4 0 -4 22t14 32q144 -12 199 -12z" />
    <glyph glyph-name="Zacute" unicode="&#x179;" horiz-adv-x="1092" 
d="M742 1422q-32 0 -32 20q0 12 76 77t122 95q12 4 50 4t69 -15t31 -33q0 -34 -142 -91t-174 -57zM283 960q-25 0 -43 18q26 70 112 352q18 -6 160 -13t280 -7t186 2t74 4t83 7t109 9q4 -2 6 -31t0 -36q-5 -19 -686 -837l-226 -276q-16 -18 -16 -34t20 -16h420q74 0 104 15
t48 23t34 26t26 28t22 31t15 28t13 28t10 23q6 16 40 16t42 -12q-70 -172 -114 -308h-922q-8 14 -8 40t16 46l932 1130h-244l-134 -2h-24q-128 -2 -184 -54t-120 -192q-6 -8 -31 -8z" />
    <glyph glyph-name="zacute" unicode="&#x17a;" horiz-adv-x="808" 
d="M500 992q-4 0 -9 8t-5 19t85 107t145 142q16 10 52 10q78 0 78 -46t-161 -143t-185 -97zM696 714q-46 -38 -91 -38t-129 36t-106 36t-39 -12t-32 -31t-26 -37t-21 -36t-16 -24t-14 10t-10 34q16 52 77 135t121 83q20 0 128 -25t155 -25t85 25t64 25t26 -50
q0 -18 -448 -502l-150 -160q0 -2 30 17t69 19t123 -36t106 -36t39 12t32 31t27 36t22 36t15 25t14 -10t11 -32q-16 -52 -78 -136t-122 -84q-20 0 -128 26t-155 26t-85 -26t-64 -26t-26 52q0 24 448 502z" />
    <glyph glyph-name="Zdotaccent" unicode="&#x17b;" horiz-adv-x="1092" 
d="M859 1656q39 0 60 -29t13 -71t-40 -71t-71 -29t-61 29t-14 71t41 71t72 29zM283 960q-25 0 -43 18q26 70 112 352q18 -6 160 -13t280 -7t186 2t74 4t83 7t109 9q4 -2 6 -31t0 -36q-5 -19 -686 -837l-226 -276q-16 -18 -16 -34t20 -16h420q74 0 104 15t48 23t34 26t26 28
t22 31t15 28t13 28t10 23q6 16 40 16t42 -12q-70 -172 -114 -308h-922q-8 14 -8 40t16 46l932 1130h-244l-134 -2h-24q-128 -2 -184 -54t-120 -192q-6 -8 -31 -8z" />
    <glyph glyph-name="zdotaccent" unicode="&#x17c;" horiz-adv-x="808" 
d="M685 1292q39 0 60 -29t13 -71t-40 -71t-71 -29t-61 29t-14 71t41 71t72 29zM696 714q-46 -38 -91 -38t-129 36t-106 36t-39 -12t-32 -31t-26 -37t-21 -36t-16 -24t-14 10t-10 34q16 52 77 135t121 83q20 0 128 -25t155 -25t85 25t64 25t26 -50q0 -18 -448 -502l-150 -160
q0 -2 30 17t69 19t123 -36t106 -36t39 12t32 31t27 36t22 36t15 25t14 -10t11 -32q-16 -52 -78 -136t-122 -84q-20 0 -128 26t-155 26t-85 -26t-64 -26t-26 52q0 24 448 502z" />
    <glyph glyph-name="Zcaron" unicode="&#x17d;" horiz-adv-x="1092" 
d="M1082 1716q18 0 8 -40q-2 -2 -21 -16t-88 -71t-102 -95t-42 -38t-22 27t-45 68t-64 79t-38 46q10 40 26 40t74 -40t96 -76q182 116 218 116zM283 960q-25 0 -43 18q26 70 112 352q18 -6 160 -13t280 -7t186 2t74 4t83 7t109 9q4 -2 6 -31t0 -36q-5 -19 -686 -837
l-226 -276q-16 -18 -16 -34t20 -16h420q74 0 104 15t48 23t34 26t26 28t22 31t15 28t13 28t10 23q6 16 40 16t42 -12q-70 -172 -114 -308h-922q-8 14 -8 40t16 46l932 1130h-244l-134 -2h-24q-128 -2 -184 -54t-120 -192q-6 -8 -31 -8z" />
    <glyph glyph-name="zcaron" unicode="&#x17e;" horiz-adv-x="808" 
d="M826 1288q16 0 6 -46q-2 -2 -20 -18t-48 -46l-58 -58q-20 -24 -60 -76t-48 -52t-21 36t-36 78t-50 85t-31 51q10 46 25 46t63 -45t80 -87q166 132 198 132zM696 714q-46 -38 -91 -38t-129 36t-106 36t-39 -12t-32 -31t-26 -37t-21 -36t-16 -24t-14 10t-10 34
q16 52 77 135t121 83q20 0 128 -25t155 -25t85 25t64 25t26 -50q0 -18 -448 -502l-150 -160q0 -2 30 17t69 19t123 -36t106 -36t39 12t32 31t27 36t22 36t15 25t14 -10t11 -32q-16 -52 -78 -136t-122 -84q-20 0 -128 26t-155 26t-85 -26t-64 -26t-26 52q0 24 448 502z" />
    <glyph glyph-name="Scommaaccent" unicode="&#x218;" horiz-adv-x="870" 
d="M274 -216q0 46 55 78t117 32q26 -20 26 -88t-64 -152t-124 -116q-4 -4 -28 -4t-24 14q0 4 22 17t47 41t32 62t-26 63t-33 53zM130 366q28 0 48 -16q0 -91 43 -174q55 -106 227 -106q92 0 177 73t85 201q0 108 -164 221q-68 47 -137 96t-117 115t-48 140q0 180 131 298
t317 118q52 0 134 -22t124 -26q-14 -110 -23 -195t-12 -95t-9 -10q-30 0 -40 7t-10 29q0 94 -61 160t-141 66q-114 0 -184 -69t-70 -174t98 -183q38 -30 130 -94t133 -98t81 -97t40 -129t-30 -136t-86 -133t-148 -104t-201 -41t-319 48q8 128 8 162l-4 154q0 14 28 14z" />
    <glyph glyph-name="scommaaccent" unicode="&#x219;" horiz-adv-x="640" 
d="M184 -216q0 46 55 78t117 32q26 -20 26 -88t-64 -152t-124 -116q-4 -4 -28 -4t-24 14q0 4 22 17t47 41t32 62t-26 63t-33 53zM520 876q116 0 182 -76q10 -24 10 -51t-19 -53t-48 -26t-51 29t-55 59t-81 30t-72 -28t-24 -72t39 -103t85 -105t85 -112t39 -134
q0 -110 -80 -178t-200 -68t-186 76q-10 16 -10 45t19 57t48 28t51 -29t55 -59t82 -30t76 29t27 72t-39 102t-85 105t-85 112t-39 142t80 157t196 81z" />
    <glyph glyph-name="uni021A" unicode="&#x21a;" horiz-adv-x="1202" 
d="M462 -216q0 46 55 78t117 32q26 -20 26 -88t-64 -152t-124 -116q-4 -4 -28 -4t-24 14q0 4 22 17t47 41t32 62t-26 63t-33 53zM1333 1042q-23 0 -23 10q0 108 -39 143t-133 35q-198 0 -212 -30q-28 -60 -56 -200l-140 -722q-22 -110 -22 -180q0 -16 27 -29t53 -17l28 -4
q4 0 4 -15t-12 -39q-184 10 -198 10t-230 -10q-4 4 -4 29t14 25q24 0 72 13t56 31q30 68 52 192l138 710q26 138 26 173t-5 42q-15 21 -157 21t-186 -33t-94 -145q-4 -10 -25 -10t-35 14l88 286q76 -22 126 -22l404 -12l412 12q44 0 132 22l-20 -286q-18 -14 -41 -14z" />
    <glyph glyph-name="uni021B" unicode="&#x21b;" horiz-adv-x="524" 
d="M210 -216q0 46 55 78t117 32q26 -20 26 -88t-64 -152t-124 -116q-4 -4 -28 -4t-24 14q0 4 22 17t47 41t32 62t-26 63t-33 53zM370 112q38 0 132 110q4 0 15 -19t11 -27q-26 -44 -108 -116t-144 -72q-32 0 -50 29t-18 68t14 113l108 558h-142q-6 0 -6 24t24 60h140l48 244
q6 20 98 20q24 0 36 -2l-50 -262h182q10 0 10 -25t-18 -59h-190l-106 -544q-6 -24 -6 -62t20 -38z" />
    <glyph glyph-name="uni0237" unicode="&#x237;" horiz-adv-x="630" 
d="M412 870q114 0 114 -144q0 -66 -114 -636q-42 -216 -132 -338q-56 -76 -136 -137t-142 -85q-18 18 -18 40q0 2 18 14q112 84 172 189t94 271l114 572q6 42 6 56q0 82 -56 82q-20 0 -68 -74l-50 -72q-2 0 -12 18t-10 26q18 52 86 135t134 83z" />
    <glyph glyph-name="uni02BB" unicode="&#x2bb;" horiz-adv-x="920" 
d="M1340 1026q0 -46 -55 -78t-117 -32q-26 20 -26 88t64 152t124 116q4 4 28 4t24 -14q0 -4 -22 -17t-47 -41t-32 -62t26 -63t33 -53z" />
    <glyph glyph-name="afii57929" unicode="&#x2bc;" horiz-adv-x="920" 
d="M1244 1184q0 56 43 88t105 32q10 -18 10 -51t-9 -84t-86 -145t-113 -94q-8 0 -14 8t-6 16l22 18q24 18 47 53t23 61t-11 52t-11 46z" />
    <glyph glyph-name="uni02C0" unicode="&#x2c0;" horiz-adv-x="920" 
d="M1374 1310q54 0 75 -28t11 -74q-16 -86 -120 -132q-78 -34 -46 -88q-2 -8 -15 -18t-21 -10q-58 24 -49 68t86 79q115 52 80 126q-9 19 -33 19q-60 0 -74 -72q-8 -40 -64 -40q-10 0 -19 5t-7 13q10 52 76 102t120 50z" />
    <glyph glyph-name="circumflex" unicode="&#x2c6;" horiz-adv-x="920" 
d="M1794 1412q-34 0 -172 116q-52 -36 -125 -76t-91 -40t-10 40l124 102q74 60 108 102q18 18 23 18t35 -48t43 -65t38 -46t39 -45t14 -18q-10 -40 -26 -40z" />
    <glyph glyph-name="caron" unicode="&#x2c7;" horiz-adv-x="920" 
d="M1672 1282q16 0 6 -46q-2 -2 -20 -18t-48 -46l-58 -58q-20 -24 -60 -76t-48 -52t-21 36t-36 78t-50 85t-31 51q10 46 25 46t63 -45t80 -87q166 132 198 132z" />
    <glyph glyph-name="breve" unicode="&#x2d8;" horiz-adv-x="920" 
d="M1372 1132q58 0 110 40t80 104q0 6 9 6t19 -9t7 -20t-3 -13q-30 -82 -98 -141t-142 -59t-120 58t-42 144v8q5 15 17 23q13 9 21 9t8 -6q2 -64 39 -104t95 -40z" />
    <glyph glyph-name="dotaccent" unicode="&#x2d9;" horiz-adv-x="920" 
d="M1377 1190q39 0 60 -29t13 -71t-40 -71t-71 -29t-61 29t-14 71t41 71t72 29z" />
    <glyph glyph-name="ring" unicode="&#x2da;" horiz-adv-x="920" 
d="M1422 1362q68 0 105 -52t21 -126t-73 -127t-124 -53t-105 53t-24 127t73 126t127 52zM1364 1072q42 0 79 33t45 79t-15 78t-65 32t-79 -32t-45 -78t15 -79t65 -33z" />
    <glyph glyph-name="ogonek" unicode="&#x2db;" horiz-adv-x="920" 
d="M1255 84q53 0 51 -20q0 -6 -7 -12t-89 -60q-191 -126 -208 -224q-2 -16 -2 -35t16 -35t52 -16t74 19t61 38t29 19t1 -24t-17 -36q-120 -134 -222 -134q-70 0 -91 50t-11 104q18 90 164 228t199 138z" />
    <glyph glyph-name="tilde" unicode="&#x2dc;" horiz-adv-x="920" 
d="M1436 1636q64 0 140 -53t132 -53q34 0 97 66q21 22 26 22t5 -18q0 -46 -53 -109t-118 -63t-142 53t-133 53q-28 0 -74 -44t-48 -44q-10 0 -10 12q0 50 57 114t121 64z" />
    <glyph glyph-name="hungarumlaut" unicode="&#x2dd;" horiz-adv-x="920" 
d="M1172 1082q-4 0 -9 8t-5 19t85 107t145 142q16 10 52 10q78 0 78 -46t-161 -143t-185 -97zM1428 1082q-4 0 -9 8t-5 19t85 107t145 142q16 10 52 10q78 0 78 -46t-161 -143t-185 -97z" />
    <glyph glyph-name="gravecomb" unicode="&#x300;" horiz-adv-x="456" 
d="M658 1082q-32 0 -180 95t-148 137q0 30 33 43t64 13t38 -7t34 -35q185 -192 185 -213q0 -9 -9 -21t-17 -12z" />
    <glyph glyph-name="acutecomb" unicode="&#x301;" horiz-adv-x="432" 
d="M328 1082q-4 0 -9 8t-5 19t85 107t145 142q16 10 52 10q78 0 78 -46t-161 -143t-185 -97z" />
    <glyph glyph-name="uni0302" unicode="&#x302;" horiz-adv-x="780" 
d="M874 1412q-34 0 -172 116q-52 -36 -125 -76t-91 -40t-10 40l124 102q74 60 108 102q18 18 23 18t35 -48t43 -65t38 -46t39 -45t14 -18q-10 -40 -26 -40z" />
    <glyph glyph-name="tildecomb" unicode="&#x303;" horiz-adv-x="540" 
d="M516 1636q64 0 140 -53t132 -53q34 0 97 66q21 22 26 22t5 -18q0 -46 -53 -109t-118 -63t-142 53t-133 53q-28 0 -74 -44t-48 -44q-10 0 -10 12q0 50 57 114t121 64z" />
    <glyph glyph-name="uni0304" unicode="&#x304;" horiz-adv-x="706" 
d="M400 1192h386q18 0 -16 -78l-16 -14h-384l-8 4q-2 6 0 14q0 8 13 41t25 33z" />
    <glyph glyph-name="uni0305" unicode="&#x305;" horiz-adv-x="1052" 
d="M310 1604h1084q10 0 4 -32t-20 -62t-26 -30l-2 -2h-1078l-8 20q0 10 17 58t29 48z" />
    <glyph glyph-name="uni0306" unicode="&#x306;" horiz-adv-x="466" 
d="M452 1132q58 0 110 40t80 104q0 6 9 6t19 -9t7 -20t-3 -13q-30 -82 -98 -141t-142 -59t-120 58t-42 144v8q5 15 17 23q13 9 21 9t8 -6q2 -64 39 -104t95 -40z" />
    <glyph glyph-name="uni0307" unicode="&#x307;" horiz-adv-x="480" 
d="M457 1190q39 0 60 -29t13 -71t-40 -71t-71 -29t-61 29t-14 71t41 71t72 29z" />
    <glyph glyph-name="uni0308" unicode="&#x308;" horiz-adv-x="616" 
d="M362 1126q34 0 55 -28t13 -66t-39 -64t-65 -26t-56 27t-14 65t40 65t66 27zM704 1126q34 0 54 -28t12 -66t-39 -64t-65 -26t-56 27t-14 65t41 65t67 27z" />
    <glyph glyph-name="hookabovecomb" unicode="&#x309;" horiz-adv-x="332" 
d="M454 1310q54 0 75 -28t11 -74q-16 -86 -120 -132q-78 -34 -46 -88q-2 -8 -15 -18t-21 -10q-58 24 -49 68t86 79q115 52 80 126q-9 19 -33 19q-60 0 -74 -72q-8 -40 -64 -40q-10 0 -19 5t-7 13q10 52 76 102t120 50z" />
    <glyph glyph-name="uni030A" unicode="&#x30a;" horiz-adv-x="450" 
d="M502 1362q68 0 105 -52t21 -126t-73 -127t-124 -53t-105 53t-24 127t73 126t127 52zM444 1072q42 0 79 33t45 79t-15 78t-65 32t-79 -32t-45 -78t15 -79t65 -33z" />
    <glyph glyph-name="uni030B" unicode="&#x30b;" horiz-adv-x="564" 
d="M252 1082q-4 0 -9 8t-5 19t85 107t145 142q16 10 52 10q78 0 78 -46t-161 -143t-185 -97zM508 1082q-4 0 -9 8t-5 19t85 107t145 142q16 10 52 10q78 0 78 -46t-161 -143t-185 -97z" />
    <glyph glyph-name="uni030C" unicode="&#x30c;" horiz-adv-x="778" 
d="M752 1282q16 0 6 -46q-2 -2 -20 -18t-48 -46l-58 -58q-20 -24 -60 -76t-48 -52t-21 36t-36 78t-50 85t-31 51q10 46 25 46t63 -45t80 -87q166 132 198 132z" />
    <glyph glyph-name="uni0312" unicode="&#x312;" horiz-adv-x="294" 
d="M420 1026q0 -46 -55 -78t-117 -32q-26 20 -26 88t64 152t124 116q4 4 28 4t24 -14q0 -4 -22 -17t-47 -41t-32 -62t26 -63t33 -53z" />
    <glyph glyph-name="uni0315" unicode="&#x315;" horiz-adv-x="294" 
d="M324 1184q0 56 43 88t105 32q10 -18 10 -51t-9 -84t-86 -145t-113 -94q-8 0 -14 8t-6 16l22 18q24 18 47 53t23 61t-11 52t-11 46z" />
    <glyph glyph-name="dotbelowcomb" unicode="&#x323;" horiz-adv-x="480" 
d="M251 -64q39 0 61 -29t14 -71t-41 -71t-72 -29t-60 29t-13 71t40 71t71 29z" />
    <glyph glyph-name="uni0326" unicode="&#x326;" horiz-adv-x="294" 
d="M36 -136q0 46 55 78t117 32q26 -20 26 -88t-64 -152t-124 -116q-4 -4 -28 -4t-24 14q0 4 22 17t47 41t32 62t-26 63t-33 53z" />
    <glyph glyph-name="uni0327" unicode="&#x327;" horiz-adv-x="810" 
d="M438 -54q36 0 54 -29t7 -83t-69 -96t-114 -42t-78 18v28q2 10 11 19t19 9t29 -13t46 -13t53 20t31 49t-9 47t-34 18t-54 -14q-4 0 -11 10t0 20t37 47t40 51h38l-42 -46h46z" />
    <glyph glyph-name="uni0328" unicode="&#x328;" horiz-adv-x="406" 
d="M335 84q53 0 51 -20q0 -6 -7 -12t-89 -60q-191 -126 -208 -224q-2 -16 -2 -35t16 -35t52 -16t74 19t61 38t29 19t1 -24t-17 -36q-120 -134 -222 -134q-70 0 -91 50t-11 104q18 90 164 228t199 138z" />
    <glyph glyph-name="mu" unicode="&#x3bc;" horiz-adv-x="856" 
d="M305 874q21 0 57 -28t32 -46q-12 -70 -108 -308l-18 -46q-28 -118 -23 -218t51 -100q150 0 324 316l108 406q4 24 26 24t58 -28t32 -46q-10 -62 -110 -308l-18 -46q-68 -312 42 -312q58 0 118 60q6 0 12 -16t2 -26q-32 -66 -91 -113t-115 -47q-60 2 -72 71t-2 193
q-168 -274 -334 -274q-28 0 -39 11l-17 17q-6 6 -11 20t-8 22q-4 12 -10 49q-5 37 -5 51q0 -2 -16 -84t-26 -154t-5 -163t35 -139q-2 -20 -31 -37t-51 -17t-38 16t-31 58t-15 102q0 150 166 674q6 28 19 106t23 125t38 195q30 40 51 40z" />
    <glyph glyph-name="uni2010" unicode="&#x2010;" horiz-adv-x="580" 
d="M640 523q0 -23 -16 -62t-30 -41l-452 -22q-10 0 -10 25t14 61t28 38l454 24q12 0 12 -23z" />
    <glyph glyph-name="uni2011" unicode="&#x2011;" horiz-adv-x="580" 
d="M640 523q0 -23 -16 -62t-30 -41l-452 -22q-10 0 -10 25t14 61t28 38l454 24q12 0 12 -23z" />
    <glyph glyph-name="figuredash" unicode="&#x2012;" horiz-adv-x="880" 
d="M912 524q12 0 12 -24t-14 -57t-30 -43h-740q-12 0 -12 24t14 57t30 43h740z" />
    <glyph glyph-name="endash" unicode="&#x2013;" horiz-adv-x="972" 
d="M1004 524q12 0 12 -24t-14 -57t-30 -43h-832q-12 0 -12 24t14 57t30 43h832z" />
    <glyph glyph-name="emdash" unicode="&#x2014;" horiz-adv-x="1448" 
d="M1476 524q12 0 12 -24t-14 -57t-30 -43h-1304q-12 0 -12 24t14 57t30 43h1304z" />
    <glyph glyph-name="afii00208" unicode="&#x2015;" horiz-adv-x="2008" 
d="M2016 524q12 0 12 -24t-14 -57t-30 -43h-1844q-12 0 -12 24t14 57t30 43h1844z" />
    <glyph glyph-name="quoteleft" unicode="&#x2018;" horiz-adv-x="296" 
d="M508 1412q22 0 28 -36q-56 -32 -105 -84t-61 -98q-4 -26 26 -71t23 -77t-49 -57t-74 -25t-50 6q-20 46 -3 135t81 164t117 109t67 34z" />
    <glyph glyph-name="quoteright" unicode="&#x2019;" horiz-adv-x="296" 
d="M258 968q-24 0 -30 36q56 32 105 84t63 98q4 26 -25 71t-22 77t48 57t73 25t50 -6q20 -42 2 -133t-82 -166t-116 -109t-66 -34z" />
    <glyph glyph-name="quotesinglbase" unicode="&#x201a;" horiz-adv-x="296" 
d="M32 -194q-24 0 -30 34q56 32 105 84t63 98q4 26 -26 71t-23 77t49 57t74 25t50 -6q20 -42 2 -133t-82 -166t-116 -108t-66 -33z" />
    <glyph glyph-name="quotedblleft" unicode="&#x201c;" horiz-adv-x="572" 
d="M508 1412q22 0 28 -36q-56 -32 -105 -84t-61 -98q-4 -26 26 -71t23 -77t-49 -57t-74 -25t-50 6q-20 46 -3 135t81 164t117 109t67 34zM774 1412q24 0 30 -36q-56 -32 -105 -84t-63 -98q-4 -26 26 -71t23 -77t-48 -57t-74 -25t-51 6q-20 42 -2 133t82 166t116 109t66 34z
" />
    <glyph glyph-name="quotedblright" unicode="&#x201d;" horiz-adv-x="574" 
d="M258 968q-24 0 -30 36q56 32 105 84t63 98q4 26 -25 71t-22 77t48 57t73 25t50 -6q20 -42 2 -133t-82 -166t-116 -109t-66 -34zM524 968q-22 0 -28 36q56 32 105 84t61 98q4 26 -25 71t-22 77t48 57t73 25t50 -6q20 -46 3 -135t-81 -164t-117 -109t-67 -34z" />
    <glyph glyph-name="quotedblbase" unicode="&#x201e;" horiz-adv-x="572" 
d="M32 -194q-24 0 -30 34q56 32 105 84t63 98q4 26 -26 71t-23 77t49 57t74 25t50 -6q20 -42 2 -133t-82 -166t-116 -108t-66 -33zM298 -198q-24 0 -30 34q56 32 105 84t61 98q4 26 -25 71t-22 77t49 57t74 25t50 -6q20 -42 2 -133t-82 -166t-116 -108t-66 -33z" />
    <glyph glyph-name="dagger" unicode="&#x2020;" horiz-adv-x="556" 
d="M340 742q-16 0 -34 -95t-112 -667q-22 10 -60 10t-68 -10q134 606 160 742q4 20 -10 20h-28q-4 0 -198 -10q20 64 24 122q190 -10 194 -10h28q14 0 25 46t53 368q44 -8 62 -8t66 8q-94 -384 -95 -399t13 -15h26q6 0 200 10q-18 -66 -24 -122q-190 10 -196 10h-26z" />
    <glyph glyph-name="daggerdbl" unicode="&#x2021;" horiz-adv-x="614" 
d="M424 758h-26q-12 0 -17 -16t-20 -94t-19 -95t-6 -25q-8 -32 10 -32l226 10q-18 -68 -24 -124l-222 12q-12 -2 -17 -21t-22 -138t-39 -255q-22 10 -60 10t-68 -10q34 156 66 282t24 130q-2 2 -8 2l-226 -12q16 50 24 124l222 -10q14 0 22 30t40 214q4 18 -12 18h-26
q-2 0 -198 -10q20 64 24 122q140 -10 192 -10h28q14 0 22 34t25 158t29 206q44 -8 62 -8t66 8q-88 -372 -89 -385t11 -13h26q4 0 198 10q-10 -34 -24 -122q-140 10 -194 10z" />
    <glyph glyph-name="bullet" unicode="&#x2022;" horiz-adv-x="752" 
d="M518 742q82 0 128 -64t30 -152t-88 -152t-154 -64t-128 64t-30 152t88 152t154 64z" />
    <glyph glyph-name="onedotenleader" unicode="&#x2024;" horiz-adv-x="1276" 
d="M644 -28q-90 0 -90 100q0 48 39 90t83 42t69 -25t25 -72t-41 -91t-85 -44z" />
    <glyph glyph-name="ellipsis" unicode="&#x2026;" horiz-adv-x="1296" 
d="M180 -28q-90 0 -90 100q0 48 39 90t83 42t69 -25t25 -72t-41 -91t-85 -44zM654 -28q-90 0 -90 100q0 48 39 90t83 42t69 -25t25 -72t-41 -91t-85 -44zM1124 -28q-90 0 -90 100q0 48 40 90t84 42t69 -25t25 -72t-42 -91t-86 -44z" />
    <glyph glyph-name="perthousand" unicode="&#x2030;" horiz-adv-x="1756" 
d="M472 1346q110 0 168 -77t58 -187q0 -150 -108 -278t-250 -128q-108 0 -170 77t-62 185q0 152 108 280t256 128zM452 1292q-90 0 -154 -106t-64 -213t32 -174t98 -67q90 0 147 110t57 217q0 233 -116 233zM896 654q110 0 168 -77t58 -187q0 -150 -108 -278t-250 -128
q-108 0 -170 77t-62 185q0 152 108 280t256 128zM876 600q-90 0 -154 -106t-64 -213t32 -174t98 -67q90 0 147 110t57 217q0 233 -116 233zM4 -24q-34 0 -40 22l1192 1306q22 22 55 22t43 -26l-1192 -1300q-24 -24 -58 -24zM1530 654q110 0 168 -77t58 -187
q0 -150 -108 -278t-250 -128q-108 0 -170 77t-62 185q0 152 108 280t256 128zM1510 600q-90 0 -154 -106t-64 -213t32 -174t98 -67q90 0 147 110t57 217q0 233 -116 233z" />
    <glyph glyph-name="minute" unicode="&#x2032;" horiz-adv-x="282" 
d="M234 1398q40 0 40 -34q0 -78 -188 -360q-10 -16 -24 -16q-22 0 -18 24q0 2 6 25t14 59t30 118t31 109t46 51t63 24z" />
    <glyph glyph-name="second" unicode="&#x2033;" horiz-adv-x="522" 
d="M234 1398q40 0 40 -34q0 -78 -188 -360q-10 -16 -24 -16q-22 0 -18 24q0 2 6 25t14 59t30 118t31 109t46 51t63 24zM476 1398q38 0 38 -34q0 -80 -186 -360q-10 -16 -24 -16q-24 0 -20 24q0 2 6 25t15 59q35 140 67 236q6 18 42 42t62 24z" />
    <glyph glyph-name="uni2038" unicode="&#x2038;" horiz-adv-x="750" 
d="M555 -72q-13 0 -68 55t-95 111q-54 -54 -133 -110t-97 -56q-12 0 -12 19t35 44t96 81t90 102t43 46t18 -9t18 -47t33 -69t43 -59t43 -49t18 -26t-10 -19t-22 -14z" />
    <glyph glyph-name="guilsinglleft" unicode="&#x2039;" horiz-adv-x="596" 
d="M680 814q0 -12 -9 -21l-16 -16q-25 -25 -62 -55q-131 -106 -253 -228l126 -180q18 -26 36 -48t26 -33t17 -23t9 -22q0 -26 -38 -36l-12 -6q-26 38 -121 131t-201 177q-8 6 -8 31t26 51q122 70 258 166t184 144q38 -12 38 -32z" />
    <glyph glyph-name="guilsinglright" unicode="&#x203a;" horiz-adv-x="596" 
d="M234 800q0 24 52 46q19 -38 123 -139q103 -101 197 -171q10 -16 10 -44t-24 -38q-318 -194 -440 -308q-36 12 -36 28t8 25l14 16q7 8 45 40q39 32 69 59l198 180q-10 14 -59 86t-103 141t-54 79z" />
    <glyph glyph-name="uni203E" unicode="&#x203e;" horiz-adv-x="1052" 
d="M1378 1602q12 0 12 -24t-14 -57t-30 -43h-1078q-12 0 -12 24t14 57t30 43h1078z" />
    <glyph glyph-name="Euro" unicode="&#x20ac;" horiz-adv-x="1228" 
d="M633 -8q-223 0 -356 144t-143 344h-110q-10 0 -10 19t11 43t23 32h90q6 62 28 132h-98q-10 0 -10 19t11 43t23 32h110q92 198 265 332t381 134q128 0 402 -86q-34 -216 -39 -239t-33 -23t-32 4q0 122 -67 189q-29 29 -92 52t-149 23q-134 0 -265 -108t-203 -278h392
q8 0 8 -19t-11 -43t-23 -32h-400q-20 -74 -26 -132h408q8 0 8 -19t-11 -43t-23 -32h-386q4 -180 94 -293t268 -113t287 72q70 47 108 90q37 44 44 44t22 -17t15 -29q-50 -90 -169 -166t-342 -76z" />
    <glyph glyph-name="arrowleft" unicode="&#x2190;" horiz-adv-x="1344" 
d="M1308 556q12 0 12 -24t-14 -57t-30 -43h-1058q67 -103 96 -138q30 -36 37 -46t15 -20t11 -14q9 -12 9 -17v-9q0 -22 -48 -42q-26 38 -121 131t-201 177q-8 6 -8 31t26 51q122 70 258 166t184 144q42 -14 36 -38v-6q0 -10 -18 -23t-30 -23t-25 -21t-32 -29t-41 -36
l-128 -114h1070z" />
    <glyph glyph-name="arrowup" unicode="&#x2191;" horiz-adv-x="630" 
d="M403 1348q27 0 41 -16q42 -116 110 -249t98 -163q-20 -46 -44 -46h-7q-8 0 -18 16q-11 16 -19 27t-17 23t-22 31t-29 39l-76 100l-222 -1152q-4 -14 -27 -14t-52 9t-37 21l222 1138l-132 -114q-140 -120 -148 -121t-16 11t-8 34q16 5 140 143q124 137 228 269q8 14 35 14
z" />
    <glyph glyph-name="arrowright" unicode="&#x2192;" horiz-adv-x="1352" 
d="M26 434q-12 0 -12 24t14 57t30 43h1068l-86 120q-32 44 -59 76t-27 42v12q3 17 25 28q23 10 25 10q17 -34 115 -130q99 -96 205 -180q8 -6 8 -32t-24 -50q-216 -124 -391 -264q-45 -36 -53 -44q-40 14 -34 36q0 12 53 58t99 88l116 106h-1072z" />
    <glyph glyph-name="arrowdown" unicode="&#x2193;" horiz-adv-x="626" 
d="M477 1346q41 0 71 -30l-220 -1138l132 114q46 40 74 68l37 37q17 17 30 17t18 -6t6 -13t2 -16t3 -11q-16 -5 -140 -143q-124 -137 -228 -269q-8 -14 -34 -14t-42 18q-42 116 -110 249t-96 161q20 46 42 46h6q9 0 19 -16q11 -16 19 -27t17 -24t23 -32t30 -41l74 -96
l224 1154q2 12 43 12z" />
    <glyph glyph-name="partialdiff" unicode="&#x2202;" horiz-adv-x="806" 
d="M668 876q0 198 -100 262q-76 46 -160 46t-192 -80q0 2 -4 7q-25 31 38 83q89 74 268 74q104 0 188 -130t84 -320t-67 -391q-39 -117 -97 -210t-157 -155t-217 -62t-178 75t-60 183t46 212t147 184t235 80q74 0 164 -42l30 -14q32 0 32 198zM400 660q-88 0 -165 -105
t-77 -257q0 -226 150 -226q80 0 151 84t104 175t33 158t-54 119t-142 52z" />
    <glyph glyph-name="summation" unicode="&#x2211;" horiz-adv-x="1102" 
d="M1084 1046q-24 0 -24 14q-6 116 -66 154q-32 18 -189 19t-243 1t-94 -20l254 -498q6 -42 -14 -62q-55 -55 -113 -110q-59 -56 -116 -113q-125 -126 -201 -209t-76 -108q0 -20 136 -20l198 2q236 0 307 35t145 193q6 12 36 12t38 -12q-12 -24 -77 -144t-89 -188l-698 12
l-222 -10q-2 2 -2 16t5 33t9 19q32 0 90 64l478 508q6 10 2 20q-58 148 -254 530q-14 26 -41 48t-43 22q-4 0 -4 23t16 39q92 -4 216 -4l670 16q-2 -32 -2 -94l2 -178q-10 -10 -34 -10z" />
    <glyph glyph-name="minus" unicode="&#x2212;" horiz-adv-x="990" 
d="M86 548h850q10 0 10 -12t-18 -53t-21 -44t-7 -3h-850q-8 4 -8 20q26 92 44 92z" />
    <glyph glyph-name="uni2213" unicode="&#x2213;" horiz-adv-x="978" 
d="M372 442h-370q-8 0 -8 11t17 54t21 46t8 3h356q12 0 12 10l74 380q0 10 12 14q54 16 74 16t20 -8l2 -4l-78 -400q-2 -8 6 -8h372q12 0 12 -6t-19 -54t-23 -51t-8 -3h-356q-10 0 -10 -6l-74 -384q-4 -18 -102 -34q-10 0 -6 16l78 398q0 10 -10 10zM992 1158q12 0 12 -13
t-17 -52q-17 -38 -33 -49h-832q-4 0 -8 7t2 21q28 86 42 86h834z" />
    <glyph glyph-name="radical" unicode="&#x221a;" horiz-adv-x="1110" 
d="M-22 371q0 17 52 44t149 88t116 75t35 14t18 -12q2 -44 20 -138l120 -504l584 1644h68l-674 -1888q-38 -40 -62 -40t-24 10l-178 776l-192 -104q-32 18 -32 35z" />
    <glyph glyph-name="proportional" unicode="&#x221d;" horiz-adv-x="1204" 
d="M1212 802q0 -68 -22 -68t-48 -8t-55 -27t-51 -34q-35 -24 -88 -77l-77 -77q-23 -23 -21 -25q8 -14 28 -52t31 -57t31 -52q24 -40 71 -82q47 -43 103 -43q30 0 -6 -54t-52 -60q-68 0 -126 28t-93 69t-61 81t-40 68t-18 28h-2q-62 -62 -79 -80t-76 -69q-149 -129 -303 -129
q-100 0 -164 81t-64 201q0 188 138 334t308 146q127 0 216 -104q65 -76 93 -124q29 -48 32 -48t5 2q222 238 382 268q8 -16 8 -36zM430 724q-110 0 -188 -107t-78 -207t48 -158t123 -58t147 56q73 56 130 114q58 58 74 72l2 4q-110 220 -187 264q-35 20 -71 20z" />
    <glyph glyph-name="infinity" unicode="&#x221e;" horiz-adv-x="1542" 
d="M476 844q127 0 216 -104q65 -76 93 -124q29 -48 33 -48t30 28q230 248 407 248q119 0 186 -81t67 -201q0 -186 -141 -331t-313 -145q-68 0 -126 28t-93 69t-60 81t-39 68t-18 28h-2q-70 -72 -101 -101t-97 -81q-122 -96 -241 -96t-183 81t-64 201q0 188 138 334t308 146z
M432 724q-104 0 -186 -102t-82 -207t49 -163t124 -58t147 56q73 56 130 114q58 58 67 66t7 11t-39 72t-59 103t-67 71t-91 37zM1370 517q0 101 -49 159t-116 58t-107 -26t-63 -43t-53 -45t-47 -44t-46 -46t-35 -36t-1 -14t25 -46t31 -57t31 -52q24 -40 71 -82
q47 -43 103 -43q108 0 182 108t74 209z" />
    <glyph glyph-name="notequal" unicode="&#x2260;" horiz-adv-x="958" 
d="M936 630q12 0 12 -5t-20 -56t-28 -51h-322l-122 -172h424q12 0 12 -3v-7q-4 -22 -36 -90l-12 -12h-468l-146 -208q0 -4 -8 -4q-34 0 -56 40l2 14l112 158h-264q-10 0 -10 14t18 54t22 42t6 2h308l122 172h-412l-8 20q6 26 20 57t18 33t8 2h452l130 182q0 6 8 6
q30 0 52 -36q4 -4 4 -9t-2 -9v-2l-92 -132h276z" />
    <glyph glyph-name="lessequal" unicode="&#x2264;" horiz-adv-x="896" 
d="M918 991q0 -35 -10 -41l-672 -330l552 -336q0 -26 -19 -68t-29 -42q-4 0 -8 2l-622 382q-22 14 -22 58t46 68l758 374q26 -32 26 -67zM730 124q8 0 8 -18q0 -48 -42 -94h-704q-10 0 -10 28t44 84h704z" />
    <glyph glyph-name="greaterequal" unicode="&#x2265;" horiz-adv-x="864" 
d="M22 266q0 12 12 18l682 336l-542 330q0 34 17 72t26 38t13 -2l614 -374q24 -14 24 -40q0 -64 -48 -86l-772 -382q-8 12 -17 45t-9 45zM736 124q8 0 8 -18q0 -48 -42 -94h-704q-10 0 -10 28t44 84h704z" />
    <glyph glyph-name="uni2619" unicode="&#x2619;" horiz-adv-x="1906" 
d="M1436 554q0 -84 78 -139t176 -75l2 22q0 98 -72 168t-172 74q-12 -20 -12 -50zM1152 623q0 75 -43 106t-99 33q-96 2 -161 -59t-91 -138t-54 -153t-56 -94q14 4 113 27q246 57 335 133q56 70 56 145zM1752 334q20 0 52 -28t32 -42t-31 -14t-67 4q-22 -86 -72 -141
t-117 -55t-109 35t-42 76t30 79q4 -4 16 -22q40 -60 92 -60q96 0 138 102q-118 34 -204 113t-86 173q0 26 8 44q-79 -23 -166 -117q-12 -13 -14 -15q48 0 93 -41t45 -103q0 -124 -114 -197t-286 -73q-274 0 -454 99t-180 279q0 88 67 151t135 63q14 0 25 -22t11 -49t-29 -43
t-65 -17t-65 -24t-29 -74t40 -86t92 -35t87 56t60 135t59 159t115 136t203 56q72 0 142 -45t70 -145q0 -50 -50 -112q112 106 236 112q20 26 68 70t77 80t29 76t-38 72t-76 42q0 16 52 16t111 -33t59 -92t-37 -95t-99 -75t-88 -63q122 -12 198 -90t76 -192l-2 -28h2z" />
    <glyph glyph-name="uni2767" unicode="&#x2767;" horiz-adv-x="1806" 
d="M616 554q0 30 -12 50q-100 -4 -172 -74t-72 -168q0 -4 1 -11t1 -11q98 20 176 75t78 139zM900 623q0 -75 56 -145q89 -76 335 -133q99 -23 113 -27q-28 18 -56 94t-54 153t-91 138t-161 59q-56 -2 -99 -33t-43 -106zM350 877q0 59 59 92t111 33t52 -16q-38 -10 -76 -42
t-38 -72t29 -76t77 -80t68 -70q124 -6 236 -112q-50 62 -50 112q0 100 70 145t142 45q122 0 203 -56t115 -136t59 -159t60 -135t87 -56t92 35t40 86t-29 74t-65 24t-65 17t-29 43t11 49t25 22q68 0 135 -63t67 -151q0 -180 -180 -279t-454 -99q-172 0 -286 73t-114 197
q0 62 45 103t93 41q-2 2 -14 15t-17 18t-19 18t-23 21q-49 43 -107 60q8 -18 8 -44q0 -94 -86 -173t-204 -113q42 -102 138 -102q52 0 78 39t30 43q30 -38 30 -79t-42 -76t-109 -35t-117 55t-72 141q-36 -4 -67 -4t-31 14t32 42t52 28h2l-2 28q0 114 76 192t198 90
q-26 24 -88 63t-99 75t-37 95z" />
    <glyph glyph-name="uniF100" unicode="&#xf100;" horiz-adv-x="1154" 
d="M818 1290q-112 0 -203 -117t-123 -347v-4q0 -8 8 -8h356q8 0 12 18q40 208 110 336q2 2 2 8v12l-2 6q-6 34 -53 65t-107 31zM424 -330q116 0 191 105t125 345l102 588v4q0 10 -6 10h-354q-10 0 -12 -16l-110 -620q-36 -182 -90 -292q-2 -2 -2 -8v-12l2 -6q6 -34 50 -66
t104 -32zM860 1366q74 0 135 -19t85 -41q36 36 110 64t134 28q128 0 164 -68q0 -130 -72 -130q-32 0 -76 61t-78 61q-60 0 -111 -66t-89 -192t-58 -238v-4q0 -8 6 -8h230q10 0 10 -28t-22 -64h-234q-10 0 -12 -16l-86 -494q-34 -174 -104 -309t-149 -207
q-157 -144 -277 -144t-190 98q-102 -116 -234 -116t-176 84q0 44 20 82t51 38t48 -19t27 -42t31 -42t49 -19q62 0 128 127t86 237q0 4 18 112l106 616v4q0 10 -6 10h-130q-4 0 -4 12t32 46t64 34h58q8 0 12 18q46 234 199 384t305 150z" />
    <glyph glyph-name="uniF101" unicode="&#xf101;" horiz-adv-x="1286" 
d="M1028 642q0 90 -52 90l-294 -10q-10 0 -12 -16l-110 -598q-48 -278 -169 -424t-263 -146q-70 0 -110 25t-52 57q-2 46 22 82t51 36t43 -19t28 -42t35 -42t56 -19t71 47t80 158t58 209l120 678v4q0 10 -6 10h-130q-4 0 -4 12t32 46t64 34h58q8 0 12 18q40 246 172 406
t284 160q72 0 108 -14t73 -49t55 -75q0 -48 -24 -88t-55 -40t-48 12t-25 24t-16 26t-17 29t-11 18t-10 17t-12 18t-13 14q-29 32 -82 32t-120 -111t-109 -311l-7 -35q-5 -25 -7 -39v-4q0 -8 6 -8q192 0 300 11t154 11q8 0 18 -11t10 -30q0 -53 -48 -319t-48 -298
q0 -74 44 -74q33 0 104 109q24 37 26 37t11 -16t9 -28q-18 -52 -86 -135t-134 -83q-112 0 -112 146q0 42 14 122l62 330q6 42 6 56z" />
    <glyph glyph-name="uniF102" unicode="&#xf102;" horiz-adv-x="1612" 
d="M822 1290q-112 0 -203 -117t-123 -347v-4q0 -8 8 -8h356q8 0 12 18q40 208 110 336q2 2 2 8v12l-2 6q-6 34 -53 65t-107 31zM1338 1398q114 0 166 -49t70 -89q0 -48 -24 -88t-55 -40t-52 15t-55 77t-62 80t-68 18t-84 -48q-71 -78 -114 -228q-43 -151 -52 -220v-4
q0 -8 6 -8l292 10q126 12 172 12q8 0 18 -11t10 -30q0 -49 -48 -316t-48 -301q0 -74 44 -74q33 0 104 109q24 37 26 37t11 -16t9 -28q-18 -52 -86 -135t-134 -83q-112 0 -112 146q0 42 14 122l62 330q6 42 6 56q0 90 -52 90l-304 -10q-10 0 -12 -16l-86 -494
q-34 -174 -104 -309t-149 -207q-157 -144 -277 -144t-190 98q-102 -116 -234 -116t-176 84q0 44 20 82t51 38t48 -19t27 -42t31 -42t49 -19q62 0 128 127t86 237q0 4 18 112l106 616v4q0 10 -6 10h-130q-4 0 -4 12t32 46t64 34h58q8 0 12 18q46 234 199 384t305 150
q74 0 135 -19t85 -41q36 34 116 63t138 29zM395 -354q97 0 199 124t150 350l102 588v4q0 10 -6 10h-354q-10 0 -12 -16l-110 -620q-36 -182 -90 -292q-2 -2 -2 -8v-12l2 -6q24 -122 121 -122z" />
    <glyph glyph-name="uniF103" unicode="&#xf103;" horiz-adv-x="1342" 
d="M1214 1356l136 32q8 0 8 -32q-38 -64 -60 -174l-186 -970q-2 -8 -2 -34q0 -74 44 -74q33 0 104 109q24 37 26 37t11 -16t9 -28q-18 -52 -86 -135t-134 -83q-112 0 -112 146q0 58 9 102t37 186t71 365t58 299t15 92q0 62 -56 103t-130 41q-200 0 -284 -496v-4q0 -8 6 -8
h230q10 0 10 -28t-22 -64h-234q-10 0 -12 -16l-110 -598q-48 -278 -169 -424t-263 -146q-70 0 -110 25t-52 57q-2 46 22 82t51 36t43 -19t28 -42t35 -42t56 -19t71 47t80 158t58 209l120 678v4q0 10 -6 10h-130q-4 0 -4 12t32 46t64 34h58q8 0 12 18q40 246 172 406t284 160
q64 0 126 -21t76 -21z" />
    <glyph glyph-name="uniF104" unicode="&#xf104;" horiz-adv-x="1650" 
d="M804 1290q-112 0 -203 -117t-123 -347v-4q0 -8 8 -8h356q8 0 12 18q40 208 110 336q2 2 2 8t-2 12v6q-6 34 -53 65t-107 31zM377 -354q97 0 199 124t150 350l102 588v4q0 10 -6 10h-354q-10 0 -12 -16l-110 -620q-36 -182 -90 -292q-2 -2 -2 -8t2 -12v-6
q24 -122 121 -122zM1522 1356l135 32q9 0 9 -32q-38 -64 -60 -174l-186 -970q-2 -8 -2 -34q0 -74 44 -74q33 0 104 109q24 37 26 37t11 -16t9 -28q-18 -52 -86 -135t-134 -83q-112 0 -112 146q0 58 9 102t37 186t71 365t58 299t15 92q0 62 -56 103t-130 41q-200 0 -284 -496
v-4q0 -8 6 -8h230q10 0 10 -28t-22 -64h-234q-8 0 -12 -16l-96 -494q-34 -174 -103 -309t-149 -207q-160 -144 -279 -144t-189 98q-102 -116 -234 -116t-176 84q0 44 20 82t51 38t48 -19t27 -42t31 -42t49 -19q62 0 128 127t86 237q0 4 18 112l106 616v4q0 10 -6 10h-130
q-4 0 -4 12t32 46t64 34h58q8 0 12 18q46 234 199 384t305 150q74 0 135 -19t85 -41q36 34 116 63t141 29t123 -21t76 -21z" />
    <glyph glyph-name="uniF105" unicode="&#xf105;" horiz-adv-x="1718" 
d="M1484 746q-68 0 -145 -70t-128 -156t-65 -150l-16 -70q-14 -62 -14 -115q0 -99 80 -99q90 0 171 77t130 207t49 276q0 36 -15 68t-47 32zM1214 1356l136 32q8 0 8 -32q-40 -64 -60 -174l-108 -568q-2 -12 3 -12t13 12q60 98 168 177t182 79t110 -52t36 -170t-86 -276
t-215 -272t-228 -114t-143 49t-44 131t18 170l156 818q2 10 2 24q0 62 -56 103t-130 41q-200 0 -284 -496v-4q0 -8 6 -8h230q10 0 10 -28t-22 -64h-234q-10 0 -12 -16l-110 -598q-48 -278 -169 -424t-263 -146q-70 0 -110 25t-52 57q-2 46 22 82t51 36t43 -19t28 -42t35 -42
t56 -19t71 47t80 158t58 209l120 678v4q0 10 -6 10h-130q-4 0 -4 12t32 46t64 34h58q8 0 12 18q40 246 172 406t284 160q64 0 126 -21t76 -21z" />
    <glyph glyph-name="uniF106" unicode="&#xf106;" horiz-adv-x="2242" 
d="M1018 1290q-112 0 -203 -117t-123 -347v-4q0 -8 8 -8h356q8 0 12 18q40 208 110 336q2 2 2 8v12l-2 6q-6 34 -53 65t-107 31zM591 -354q97 0 199 124t150 350l102 588v4q0 10 -6 10h-354q-10 0 -12 -16l-110 -620q-36 -182 -90 -292q-2 -2 -2 -8v-12l2 -6
q24 -122 121 -122zM2008 746q-100 0 -207 -135t-131 -241l-16 -70q-14 -62 -14 -115q0 -99 80 -99q138 0 244 169t106 391q0 36 -15 68t-47 32zM1735 1356l137 32q8 0 8 -32q-38 -64 -58 -174l-108 -568q-2 -12 3 -12t13 12q60 98 168 177t180 79q148 0 148 -216
q0 -124 -86 -282t-215 -272t-228 -114t-143 49t-44 131t18 170l156 818q2 10 2 24q-2 62 -58 103t-130 41q-200 0 -284 -496v-4q0 -8 6 -8h230q10 0 10 -28t-22 -64h-234q-8 0 -12 -16l-96 -494q-34 -174 -103 -309t-149 -207q-160 -144 -279 -144t-189 98
q-102 -116 -234 -116t-176 84q0 44 20 82t51 38t48 -19t27 -42t31 -42t49 -19q62 0 128 127t86 237q0 4 18 112l106 616v4q0 10 -6 10h-130q-4 0 -4 12t32 46t64 34h58q8 0 12 18q46 234 199 384t305 150q74 0 135 -19t85 -41q36 34 116 63t141 29t123 -21t75 -21z" />
    <glyph glyph-name="uniF107" unicode="&#xf107;" horiz-adv-x="1736" 
d="M1540 666q0 110 -82 110q-42 0 -112 -68t-121 -143t-51 -101q0 -14 96 11t144 45t87 59t39 87zM1214 1356l136 32q8 0 8 -32q-38 -64 -60 -174l-104 -528q-2 -12 2 -12t24 23q69 79 120 125q89 80 167 80q77 0 126 -47t49 -116q0 -141 -111 -204q-111 -62 -291 -93
q170 -250 243 -285q31 -15 58 -15q43 0 78 42t35 52q2 2 9 2t16 -7t11 -17q-14 -48 -70 -115t-118 -67q-127 0 -282 220q-113 160 -116 166q-2 0 -2 -4l-74 -382q-36 -10 -64 -10t-68 10l224 1154q2 10 2 24q0 62 -56 103t-130 41q-200 0 -284 -496v-4q0 -8 6 -8h230
q10 0 10 -28t-22 -64h-234q-10 0 -12 -16l-110 -598q-48 -278 -169 -424t-263 -146q-70 0 -110 25t-52 57q-2 46 22 82t51 36t43 -19t28 -42t35 -42t56 -19t71 47t80 158t58 209l120 678v4q0 10 -6 10h-130q-4 0 -4 12t32 46t64 34h58q8 0 12 18q40 246 172 406t284 160
q64 0 126 -21t76 -21z" />
    <glyph glyph-name="uniF108" unicode="&#xf108;" horiz-adv-x="2258" 
d="M1018 1290q-112 0 -203 -117t-123 -347v-4q0 -8 8 -8h356q8 0 12 18q40 208 110 336q2 2 2 8v12l-2 6q-6 34 -53 65t-107 31zM591 -354q97 0 199 124t150 350l102 588v4q0 10 -6 10h-354q-10 0 -12 -16l-110 -620q-36 -182 -90 -292q-2 -2 -2 -8v-12l2 -6
q24 -122 121 -122zM2062 666q0 48 -20 79t-60 31q-64 0 -175 -134t-111 -178q0 -14 96 11t144 45t87 59t39 87zM1735 1356l137 32q8 0 8 -32q-38 -64 -60 -174l-104 -528q-4 -12 1 -12t25 23q69 79 120 125q89 80 167 80q77 0 126 -47t49 -116q0 -141 -111 -204
q-111 -62 -291 -93q128 -190 191 -245t112 -55t97 71q14 21 14 23q2 2 8 2q24 0 28 -24q-14 -48 -70 -115t-109 -67t-98 23t-91 74q-81 90 -149 188t-69 101q-2 0 -2 -4l-74 -382q-36 -10 -64 -10t-68 10l224 1154q2 10 2 24q0 62 -56 103t-130 41q-200 0 -284 -496v-4
q0 -8 6 -8h230q10 0 10 -28t-22 -64h-234q-8 0 -12 -16l-96 -494q-34 -174 -103 -309t-149 -207q-160 -144 -279 -144t-189 98q-102 -116 -234 -116t-176 84q0 44 20 82t51 38t48 -19t27 -42t31 -42t49 -19q62 0 128 127t86 237q0 4 18 112l106 616v4q0 10 -6 10h-130
q-4 0 -4 12t32 46t64 34h58q8 0 12 18q46 234 199 384t305 150q74 0 135 -19t85 -41q36 34 116 63t141 29t123 -21t75 -21z" />
    <glyph glyph-name="uniF109" unicode="&#xf109;" horiz-adv-x="1756" 
d="M1214 1356l136 32q8 0 8 -32q-40 -64 -62 -174q-136 -694 -136 -700l2 -2l2 2q20 40 80 124t152 174t152 90q100 0 100 -132q0 -66 -34 -236l-54 -290q-4 -12 -4 -34q0 -74 46 -74q33 0 104 109q24 37 26 37t11 -16t9 -28q-18 -52 -86 -135t-134 -83q-112 0 -112 146
q0 62 41 258t41 244q0 86 -37 86t-112 -82t-151 -219t-104 -265l-34 -156q-26 -8 -62 -8t-68 8l226 1154q2 10 2 24q0 62 -56 103t-130 41q-200 0 -284 -496v-4q0 -8 6 -8h230q10 0 10 -28t-22 -64h-234q-10 0 -12 -16l-110 -598q-48 -278 -169 -424t-263 -146
q-70 0 -110 25t-52 57q-2 46 22 82t51 36t43 -19t28 -42t35 -42t56 -19t71 47t80 158t58 209l120 678v4q0 10 -6 10h-130q-4 0 -4 12t32 46t64 34h58q8 0 12 18q40 246 172 406t284 160q64 0 126 -21t76 -21z" />
    <glyph glyph-name="uniF10A" unicode="&#xf10a;" horiz-adv-x="2278" 
d="M1018 1290q-112 0 -203 -117t-123 -347v-4q0 -8 8 -8h356q8 0 12 18q40 208 110 336q2 2 2 8v12l-2 6q-6 34 -53 65t-107 31zM591 -354q97 0 199 124t150 350l102 588v4q0 10 -6 10h-354q-10 0 -12 -16l-110 -620q-36 -182 -90 -292q-2 -2 -2 -8v-12l2 -6
q24 -122 121 -122zM1735 1356l137 32q8 0 8 -32q-40 -64 -62 -174q-136 -694 -136 -700l2 -2l2 2q44 82 172 235t212 153q100 0 100 -132q0 -66 -34 -236l-54 -290q-4 -12 -4 -34q0 -74 46 -74q33 0 104 109q24 37 26 37t11 -16t9 -28q-18 -52 -86 -135t-134 -83
q-112 0 -112 146q0 62 41 258t41 244q0 86 -36 86q-62 0 -195 -188t-173 -378l-34 -156q-26 -8 -62 -8t-68 8l226 1154q2 10 2 24q0 62 -56 103t-130 41q-200 0 -284 -496v-4q0 -8 6 -8h230q10 0 10 -28t-22 -64h-234q-8 0 -12 -16l-96 -494q-34 -174 -103 -309t-149 -207
q-160 -144 -279 -144t-189 98q-102 -116 -234 -116t-176 84q0 44 20 82t51 38t48 -19t27 -42t31 -42t49 -19q62 0 128 127t86 237q0 4 18 112l106 616v4q0 10 -6 10h-130q-4 0 -4 12t32 46t64 34h58q8 0 12 18q46 234 199 384t305 150q74 0 135 -19t85 -41q36 34 116 63
t141 29t123 -21t75 -21z" />
    <glyph glyph-name="uniF10B" unicode="&#xf10b;" horiz-adv-x="1234" 
d="M1028 642q0 90 -52 90l-294 -10q-10 0 -12 -16l-110 -598q-48 -278 -169 -424t-263 -146q-70 0 -110 25t-52 57q-2 46 22 82t51 36t43 -19t28 -42t35 -42t56 -19t71 47t80 158t58 209l120 678v4q0 10 -6 10h-130q-4 0 -4 12t32 46t64 34h58q8 0 12 18q40 246 172 406
t284 160q72 0 108 -14t73 -49t55 -75q0 -48 -24 -88t-55 -40t-48 12t-25 24t-16 26t-17 29t-11 18t-10 17t-12 18t-13 14q-29 32 -77 32q-64 0 -136 -131t-112 -365v-4q0 -8 6 -8q192 0 300 11t154 11q8 0 18 -11t10 -46t-122 -689q-42 -216 -132 -338q-56 -76 -136 -137
t-142 -85q-18 18 -18 31t3 15t8 4t7 4q112 84 172 189t94 271l108 542q6 24 6 56z" />
    <glyph glyph-name="uniF10C" unicode="&#xf10c;" horiz-adv-x="1756" 
d="M1018 1290q-112 0 -203 -117t-123 -347v-4q0 -8 8 -8h356q8 0 12 18q40 208 110 336q2 2 2 8v12l-2 6q-6 34 -53 65t-107 31zM591 -354q97 0 199 124t150 350l102 588v4q0 10 -6 10h-354q-10 0 -12 -16l-110 -620q-36 -182 -90 -292q-2 -2 -2 -8v-12l2 -6
q24 -122 121 -122zM1060 1366q74 0 135 -19t85 -41q36 34 116 63t138 29q114 0 166 -49t70 -89q0 -48 -24 -88t-55 -40t-52 15t-55 77t-62 80t-68 18t-84 -48q-71 -78 -114 -228q-43 -151 -52 -220v-4q0 -8 6 -8q202 0 310 11t154 11q8 0 18 -11t10 -46t-122 -689
q-42 -216 -132 -338q-56 -76 -136 -137t-142 -85q-18 18 -18 40q0 2 18 14q112 84 172 189t94 271l108 542q6 24 6 56q0 90 -52 90l-304 -10q-10 0 -12 -16l-86 -494q-34 -174 -104 -309t-149 -207q-157 -144 -277 -144t-190 98q-102 -116 -234 -116t-176 84q0 44 20 82
t51 38t48 -19t27 -42t31 -42t49 -19q62 0 128 127t86 237q0 4 18 112l106 616v4q0 10 -6 10h-130q-4 0 -4 12t32 46t64 34h58q8 0 12 18q46 234 199 384t305 150z" />
    <glyph glyph-name="T_h" unicode="&#xf10d;" horiz-adv-x="1804" 
d="M1378 1388q8 0 8 -32q-38 -64 -60 -174q-136 -694 -136 -700l2 -2l2 2q44 82 172 235t212 153q100 0 100 -132q0 -66 -34 -236l-54 -290q-4 -12 -4 -34q0 -74 46 -74q33 0 104 109q24 37 26 37t11 -16t9 -28q-18 -52 -86 -135t-134 -83q-112 0 -112 146q0 62 41 258
t41 244q0 86 -36 86q-62 0 -195 -188t-173 -378l-34 -156q-26 -8 -62 -8t-68 8l198 1060q4 24 4 26q0 104 -37 124t-227 20t-204 -30q-28 -60 -56 -200l-140 -722q-22 -110 -22 -180q0 -16 27 -29t53 -17l28 -4q4 0 4 -15t-12 -39q-184 10 -198 10t-230 -10q-4 4 -4 29
t14 25q24 0 72 13t56 31q30 68 52 192l138 710q26 138 26 173t-5 42q-15 21 -157 21t-186 -33t-94 -145q-4 -10 -25 -10t-35 14l88 286q76 -22 126 -22l404 -12q383 0 508 24q126 24 183 40t65 16z" />
    <glyph glyph-name="f.short" unicode="&#xf10e;" horiz-adv-x="670" 
d="M641 1388q95 0 149 -58q8 -38 -12 -84t-52 -46q-49 0 -76 61t-72 61q-46 0 -78 -110t-78 -386v-4q0 -8 6 -8h184q10 0 10 -28t-22 -64h-188q-10 0 -12 -16l-110 -598q-98 -570 -368 -570q-70 0 -110 25t-52 57q-2 46 22 82t51 36t41 -19t24 -42t34 -42t58 -19
q72 0 150 414l120 678v4q0 10 -6 10h-130q-4 0 -4 12t32 46t64 34h58q8 0 12 18q46 232 95 347t107 162t153 47z" />
    <glyph glyph-name="zero.onum" unicode="&#xf730;" horiz-adv-x="850" 
d="M148 336q0 216 134 388t290 172q116 0 190 -98t74 -248q0 -216 -133 -388t-289 -172q-116 0 -191 98t-75 248zM306 369q0 -147 37 -222t103 -75q100 0 166 150t66 295t-38 222t-102 77q-100 0 -166 -150t-66 -297z" />
    <glyph glyph-name="one.onum" unicode="&#xf731;" horiz-adv-x="550" 
d="M332 704q0 26 -31 26t-121 -40q-4 0 -12 18t-8 28t10 16q60 24 126 51t131 51t85 32q2 0 10 -18t8 -23t-21 -54t-37 -123l-84 -440q-12 -66 -12 -124q0 -28 45 -42t71 -14q8 0 4 -22t-12 -32q-184 10 -205 10t-217 -10q-6 8 0 31t12 23q24 0 70 14t54 30q28 48 42 114
l82 412q10 60 10 86z" />
    <glyph glyph-name="two.onum" unicode="&#xf732;" horiz-adv-x="748" 
d="M618 660q0 114 -114 114q-58 0 -112 -24t-85 -49t-81 -73q-8 0 -18 12t-6 20q32 50 75 98t127 97t173 49t140 -54t51 -118t-23 -117t-63 -104t-84 -96t-99 -91t-92 -74t-80 -59t-48 -35t-5 -13t8 -9h260q56 0 86 26t72 96q6 10 23 10t25 -10q-50 -115 -98 -258l-254 2
h-346q-14 4 -8 32q367 310 414 365q48 55 88 104q74 91 74 159z" />
    <glyph glyph-name="three.onum" unicode="&#xf733;" horiz-adv-x="704" 
d="M642 147q0 -97 -67 -199t-164 -172t-202 -113t-166 -43t-93 16q-4 16 -4 24q0 42 29 71t56 29t56 -20t61 -20q116 0 221 120t105 260q0 72 -38 123t-104 51t-132 -22q-14 8 -9 33t15 39q124 38 238 137t114 211q0 48 -29 77t-75 29q-94 0 -220 -110q-10 0 -18 16t-2 26
q66 84 159 139t191 55q58 0 99 -46t41 -131t-85 -193t-161 -146q58 -8 121 -76t63 -165z" />
    <glyph glyph-name="four.onum" unicode="&#xf734;" horiz-adv-x="836" 
d="M640 638q-4 0 -6 -2l-422 -480q-8 -8 -4 -16t10 -8h310q14 4 18 14l96 476q2 16 -2 16zM529 -376q-49 0 -64 7t-13 21l70 350q0 10 -14 10h-446q-10 8 -15 27t-1 31l722 814q20 24 38 24t25 -6t5 -14l-146 -740q-4 -12 14 -16h104q28 0 14 -86q-4 -22 -16 -34h-130
q-10 0 -14 -16l-70 -356q-14 -16 -63 -16z" />
    <glyph glyph-name="five.onum" unicode="&#xf735;" horiz-adv-x="742" 
d="M6 -376q-4 0 -6 14t1 29t11 15q93 0 231 85t201 216q36 75 36 173t-68 157t-206 101q-20 6 -12 32q0 8 59 177t87 241q8 20 20 20q316 0 386 16q6 -8 6 -30q0 -66 -42 -126q-168 -12 -246 -12h-84q-16 0 -20 -16l-60 -176q-4 -12 8 -16q170 -35 277 -167q59 -73 59 -171
t-65 -208t-162 -186t-208 -122t-203 -46z" />
    <glyph glyph-name="six.onum" unicode="&#xf736;" horiz-adv-x="842" 
d="M516 770q-2 0 -3 16t1 20q42 30 114 30t147 -90t75 -216t-60 -252t-160 -209t-213 -83t-185 106t-72 247t55 273t140 233t199 192q200 160 420 259q10 0 18 -23t6 -33q-320 -160 -502 -386q-74 -92 -127 -222t-53 -257t35 -218t115 -91t153 134t73 314t-58 222
q-30 22 -54 28t-64 6z" />
    <glyph glyph-name="seven.onum" unicode="&#xf737;" horiz-adv-x="774" 
d="M756 870q30 0 76 3l46 3q12 0 8 -17t-76 -135l-672 -1104q-6 -2 -19 -2t-21 10t-8 24t8 28l640 1042h-446q-69 0 -132 -136q-34 -4 -46 12q34 124 66 248q6 24 38 24h538z" />
    <glyph glyph-name="eight.onum" unicode="&#xf738;" horiz-adv-x="780" 
d="M428 66q72 0 118 63t46 148t-35 152t-59 94t-39 41t-21 14t-8 -2q-86 -54 -126 -146t-40 -176t46 -136t118 -52zM688 988q0 70 -40 128t-102 58t-106 -57t-44 -161t128 -246q4 -4 10 -4t18 8q136 122 136 274zM742 366q0 -182 -106 -280t-239 -98t-205 77t-72 192t86 217
t180 150q2 0 2 6v6q-52 48 -91 128t-39 152q0 150 95 243t229 93q96 0 167 -67t71 -173q0 -194 -230 -348q-6 -4 -6 -7t2 -5q156 -156 156 -286z" />
    <glyph glyph-name="nine.onum" unicode="&#xf739;" horiz-adv-x="842" 
d="M482 112q2 0 3 -16t-1 -20q-42 -30 -114 -30t-147 90t-75 216t60 252t160 209t213 83t185 -106t72 -247t-55 -273t-140 -233t-199 -192q-200 -160 -420 -259q-10 0 -18 23t-6 33q320 160 502 386q74 92 127 222t53 257t-35 218t-115 91t-153 -134t-73 -314t58 -222
q30 -22 54 -28t64 -6z" />
    <glyph glyph-name="gravecomb.cap" unicode="&#xf890;" horiz-adv-x="444" 
d="M688 1408q0 -20 -32 -20t-174 57t-142 91q0 18 31 33t69 15t50 -4q46 -30 122 -95t76 -77z" />
    <glyph glyph-name="acutecomb.cap" unicode="&#xf891;" horiz-adv-x="416" 
d="M332 1388q-32 0 -32 20q0 12 76 77t122 95q12 4 50 4t69 -15t31 -33q0 -34 -142 -91t-174 -57z" />
    <glyph glyph-name="uni0302.cap" unicode="&#xf892;" horiz-adv-x="594" 
d="M784 1456q-38 0 -198 116q-60 -36 -144 -76t-104 -40t-10 40q8 8 67 49t107 76t90 79q18 16 30 16t33 -40t46 -68t53 -55t44 -41t16 -16q-10 -40 -30 -40z" />
    <glyph glyph-name="uni030A.cap" unicode="&#xf893;" horiz-adv-x="778" 
d="M606 1362q68 0 105 -52t21 -126t-73 -127t-124 -53t-106 53t-25 127t74 126t128 52zM548 1072q42 0 77 33t45 79t-13 78t-65 32t-80 -32t-46 -78t16 -79t66 -33z" />
    <glyph glyph-name="tildecomb.cap" unicode="&#xf894;" horiz-adv-x="748" 
d="M354 1446q-14 0 -7 33t47 77q78 80 150 80t160 -53t139 -53t123 66q24 22 26 22q14 0 7 -33t-47 -79q-72 -78 -146 -78t-161 53t-151 53q-30 0 -84 -44t-56 -44z" />
    <glyph glyph-name="uni0304.cap" unicode="&#xf895;" horiz-adv-x="708" 
d="M364 1192h464q21 0 -18 -82q-2 -6 -7 -9t-7 -5h-464l-10 4q-4 13 11 52q15 40 31 40z" />
    <glyph glyph-name="uni0306.cap" unicode="&#xf896;" horiz-adv-x="466" 
d="M454 1146q60 0 110 31t74 85q0 4 10 4t20 -8t7 -17t-3 -11q-26 -72 -95 -126t-142 -54t-120 53t-45 129v12q2 6 16 14t22 8t8 -4q2 -54 40 -85t98 -31z" />
    <glyph glyph-name="uni0327.cap" unicode="&#xf897;" horiz-adv-x="812" 
d="M442 -54q42 0 63 -34t11 -82q-16 -80 -85 -129t-136 -49t-91 20v34q4 12 15 22t22 10t33 -15t54 -15t62 23t36 58t-11 56t-41 21t-62 -16q-4 0 -12 12t-4 17q74 93 94 121h46l-50 -54h56z" />
    <glyph glyph-name="uni0307.cap" unicode="&#xf898;" horiz-adv-x="480" 
d="M579 1622q39 0 60 -29t13 -71t-40 -71t-71 -29t-61 29t-14 71t41 71t72 29z" />
    <glyph glyph-name="uni0323.cap" unicode="&#xf899;" horiz-adv-x="480" 
d="M249 -72q39 0 61 -29t14 -71t-40 -71t-71 -29t-61 29t-14 71t40 71t71 29z" />
    <glyph glyph-name="uni0305.cap" unicode="&#xf89a;" horiz-adv-x="1052" 
d="M310 1604h1084q10 0 4 -32t-20 -62t-26 -30l-2 -2h-1078l-8 20q0 10 17 58t29 48z" />
    <glyph glyph-name="hookabovecomb.cap" unicode="&#xf89b;" horiz-adv-x="332" 
d="M454 1310q54 0 75 -28t11 -74q-16 -86 -120 -132q-50 -22 -54 -50v-14q-2 -4 -27 -10t-41 -6q-14 16 -10 30q10 46 87 81q115 52 80 126q-9 19 -33 19q-60 0 -74 -72q-8 -40 -64 -40q-10 0 -19 5t-7 13q10 52 76 102t120 50z" />
    <glyph glyph-name="uni030B.cap" unicode="&#xf89c;" horiz-adv-x="722" 
d="M637 1674q35 0 55 -19t16 -41q-10 -46 -173 -126t-199 -80q-20 0 -16 20t108 110t162 130q12 6 47 6zM915 1674q35 0 56 -19t17 -41q-10 -46 -174 -126t-200 -80q-18 0 -14 20t107 110t161 130q12 6 47 6z" />
    <glyph glyph-name="uni0308.cap" unicode="&#xf89d;" horiz-adv-x="624" 
d="M459 1624q39 0 61 -29t14 -71t-41 -71t-72 -29t-60 29t-13 71t40 71t71 29zM795 1624q39 0 61 -29t14 -71t-40 -71t-71 -29t-61 29t-14 71t40 71t71 29z" />
    <glyph glyph-name="uni0308.narrow" unicode="&#xf89e;" horiz-adv-x="538" 
d="M343 954q-75 0 -75 93q0 41 29 74t66 33t59 -24t22 -64t-31 -76t-70 -36zM609 954q-75 0 -75 93q0 41 29 74t66 33t59 -24t22 -64t-31 -76t-70 -36z" />
    <glyph glyph-name="uni030C.cap" unicode="&#xf89f;" horiz-adv-x="480" 
d="M778 1716q18 0 8 -40q-2 -2 -21 -16t-88 -71t-102 -95t-42 -38t-22 27t-45 68t-64 79t-38 46q10 40 26 40t74 -40t96 -76q182 116 218 116z" />
    <glyph glyph-name="g.s01" horiz-adv-x="920" 
d="M494 796q-86 0 -141 -95t-55 -190q0 -199 122 -199q82 0 138 88t56 178t-33 154t-87 64zM360 -372q104 0 215 58t111 144t-108 117q-91 26 -175 35q-83 8 -92 9t-11 1l-4 2q-13 0 -46 -21q-112 -70 -112 -181q0 -82 59 -123t163 -41zM526 872q60 0 132 -27t140 -27h86
q20 0 20 -25t-20 -53h-122q-12 0 -12 -12q12 -72 12 -104q0 -156 -110 -269t-250 -113q-80 0 -116 8q-56 -22 -56 -58t294 -87q110 -19 202 -66t92 -113q0 -98 -82 -205t-263 -157q-103 -28 -214 -28t-187 55t-76 139t45 138q25 30 39 47t54 43t46 29t46 25q-148 46 -148 94
t68 104q36 30 48 38l24 16t14 8q-32 22 -55 86t-23 134q0 156 114 268t258 112z" />
    <glyph glyph-name="zero.sc" horiz-adv-x="738" 
d="M532 872q128 0 193 -130t31 -309t-150 -309t-244 -130t-193 129t-31 309t150 310t244 130zM376 56q68 0 136 113t98 269t5 264t-93 108t-137 -110t-99 -265t-4 -267t94 -112z" />
    <glyph glyph-name="one.sc" horiz-adv-x="474" 
d="M482 874h2q10 0 10 -38q-20 -44 -36 -124l-106 -544q-10 -58 -8 -88q2 -12 39 -21t51 -9q6 0 1 -26t-7 -30q-112 8 -176 8t-176 -8q-4 6 0 31t10 25q18 0 59 9t47 21t20 74l90 462q18 86 1 86t-97 -40q-6 4 -11 19t-3 23q0 8 6 10q278 160 284 160z" />
    <glyph glyph-name="two.sc" horiz-adv-x="626" 
d="M502 0h-464q-4 0 -7 19t-1 27q146 128 298 300q234 265 162 377q-24 37 -82 37q-98 0 -208 -110q-8 0 -14 16t-4 24q40 60 124 122t177 62t135 -64t27 -143t-46 -136t-90 -120t-95 -97t-119 -104t-98 -84t-1 -14h236q78 0 134 118q6 10 26 10t26 -10q-64 -150 -86 -210
q-8 -20 -30 -20z" />
    <glyph glyph-name="three.sc" horiz-adv-x="606" 
d="M468 874q64 0 103 -44t24 -117t-63 -129t-96 -80q54 0 119 -70t47 -168q-26 -136 -125 -205t-227 -69q-58 0 -108 22t-66 46q-12 40 16 68t56 28t54 -52t68 -52q70 0 122 51t68 133t-22 137t-106 55q-34 0 -78 -18q-8 14 -3 36t7 26q182 40 210 188q20 112 -74 112
q-76 0 -136 -68q-6 0 -14 10t-6 18q40 56 103 99t127 43z" />
    <glyph glyph-name="four.sc" horiz-adv-x="658" 
d="M548 670q-2 0 -4 -2l-308 -332q-2 -2 -2 -4q-4 -12 8 -12h240l66 338v12zM691 876q21 0 26 -4t3 -10l-104 -542h78q12 0 8 -16l-24 -76h-80l-46 -228q-18 -6 -55 -6t-44 1t-19 3t-12 10l44 220h-332q-8 0 -11 21t-1 33l534 580q14 14 35 14z" />
    <glyph glyph-name="five.sc" horiz-adv-x="588" 
d="M336 734q-12 0 -12 -14l-52 -162q52 8 84 8q118 0 195 -82t53 -204t-121 -205t-241 -83q-50 0 -101 22t-65 46q-11 42 18 69q28 27 48 27q36 0 60 -52t70 -52q78 0 126 56t64 137t-30 140t-110 59t-120 -14q-4 0 -11 8t-7 12q120 394 122 402q278 12 314 20q6 -14 -3 -55
t-21 -63q-45 -20 -260 -20z" />
    <glyph glyph-name="six.sc" horiz-adv-x="626" 
d="M307 -10q-113 0 -172 83t-35 207q40 208 202 369t352 231q24 -6 28 -42q-264 -106 -392 -376q-6 -10 -3 -12t14 11t57 30t80 17q102 0 158 -73t35 -182t-116 -186t-208 -77zM328 50q58 0 104 48t62 132t-13 142t-98 58t-113 -56q-20 -26 -39 -115t10 -149t87 -60z" />
    <glyph glyph-name="seven.sc" horiz-adv-x="616" 
d="M137 -20q-11 0 -22 12t-9 20t8 20l520 712h-314q-57 0 -95 -93q-11 -27 -13 -29q-34 -4 -44 8q52 188 60 222q4 18 28 18h394l110 4q24 0 -46 -102l-562 -790q-4 -2 -15 -2z" />
    <glyph glyph-name="eight.sc" horiz-adv-x="552" 
d="M294 48q116 0 142 140q22 118 -102 206q-4 2 -6 2h-2l-2 -2q-86 -48 -114 -182q-14 -74 10 -119t74 -45zM414 498q4 0 8 4q74 68 92 162q32 162 -64 162t-126 -150q-22 -116 84 -176q2 -2 6 -2zM466 878q88 0 138 -55t32 -149q-26 -128 -168 -202q-8 -2 -2 -8
q134 -98 106 -244q-18 -98 -103 -161t-186 -63t-161 57t-42 153q26 136 200 220q8 4 2 8q-110 74 -84 216q20 96 100 162t168 66z" />
    </font>
</defs>
</svg>
